开启辅助访问 切换到窄版

HD一条街论坛

 找回密码
 立即注册
查看: 509|回复: 12

[其它] [115][台剧:呼叫大明星][DVDRip.11.44G][MP4][国语][蔡卓妍/贺军翔/陈至恺/周采诗/小甜甜]

[复制链接]
发表于 2015-4-16 14:26:59 | 显示全部楼层 |阅读模式
JKpH.jpg
+ g3 B3 c0 H- N1 f; c! d% m4 C4 C' K! k4 w" V3 `9 z' H

& o6 k) N4 v. l◎译  名 CallingForLove& p; O+ o( S* f6 v, b& D
◎片  名 呼叫大明星# C  [7 E  e% f: c6 q5 x  l8 S' O' D
◎年  代 2009
: K+ }( v# l3 ^6 y0 ^: |) o◎国  家 台湾5 Q) E+ S. Q3 ?$ _
◎类  别 爱情: i: r6 @0 a) I6 W
◎语  言 汉语普通话! J: T1 L9 _3 m2 z4 ?
◎上映日期 2010-05-16(台湾)
& ?+ J% k# I/ {: w◎豆瓣评分 5.3/10 from 1,518 users5 E+ ~0 h- K* q4 t8 U! l# n
◎豆瓣链接 http://movie.douban.com/subject/3542424/
6 f, `9 _# f6 R* \- J) Q◎集  数 23
+ w% n+ s) a# t- m- ~◎导  演 柴智屏 Angie Chai / 林合隆 Helong Lin
* s. a3 N( T  g4 |# _! D+ U) J7 I# l% a◎主  演 蔡卓妍 Charlene Choi
+ k2 y& x, P+ E" J5 j+ t      贺军翔 Mike He
9 Z! N5 L4 T. w3 L6 H) q( J7 p% f      陈至恺 Zhikai Chen
$ m+ K6 [) z0 B" ^      周采诗 Tracy$ ?7 C- {7 r: N: x( J2 B8 @8 W1 U
      小甜甜
7 x8 q- L2 I: Q  E; ^3 a8 R
3 w- ~+ p& J) {; G  b◎简  介
" m, k# U2 @6 H- P+ J, a$ P- a8 x
6 \+ m4 E/ V& |) ~; G9 ?; J  a  香港女孩德馨(蔡卓妍 饰)为寻父来到台湾,因为一次阴差阳错的误会,她结识了明星柏野(贺军翔 饰),并在其帮助下找到了父亲杨庆泰(姜厚任 饰)。原来,父亲已在上海创业,柏野因拍戏约德馨一起来到上海,德馨的同行阿力(陈至恺 饰)也来到家族在上海的分公司。柏柔(李晟 饰)是柏野的妹妹,原想去欧洲发展,但为了助男友王瑞(王凯 饰)实现做导演的梦,她把哥哥资助她的钱全投在了王瑞身上,刚开始柏野极力阻止妹妹的荒唐做法,但最终无奈接受了现实。因杨庆泰也是柏野初恋情人惟晨的父亲,所以他坚决反对女儿和柏野交往,这让德馨很是伤心。后来,杨庆泰生意失败,他把女儿当成了东山再起的筹码......
  1. ID                                       : 1
    " U' l. ~$ S% r( B3 a: u* O6 J
  2. Format                                   : AVC; b( M8 ^) h9 h. r
  3. Format/Info                              : Advanced Video Codec
    " l- s  m' R; F' ]4 D& f8 p
  4. Format profile                           : [email protected]
    / S2 |7 ?9 b( \; e- Y- ]
  5. Format settings, CABAC                   : Yes
    / q$ g, V) R: y% F$ l
  6. Format settings, ReFrames                : 5 frames: E; I  K# B4 Q5 y$ `- T. `
  7. Codec ID                                 : avc1( x2 J5 n8 o5 [  h% e/ y! g
  8. Codec ID/Info                            : Advanced Video Coding
    4 d6 P4 j7 l( g; d. p# r1 x+ l7 i
  9. Duration                                 : 47mn 51s$ Y/ O+ Y2 u# n+ L& Q$ b, k
  10. Duration_LastFrame                       : 33ms
    - ?1 K; c: [( _3 ^4 v0 r
  11. Bit rate                                 : 1 562 Kbps! K% M6 E# A) B( g5 H
  12. Width                                    : 716 pixels5 G5 e! M  F5 B! A
  13. Height                                   : 360 pixels7 g3 W" @9 U9 N5 N# ^2 D5 Z; f1 d" m. X
  14. Display aspect ratio                     : 16:9
    % ~; U# o% G2 ]! u( |, l& D1 _
  15. Frame rate mode                          : Constant
    5 X! n( n+ I  o- m
  16. Frame rate                               : 29.970 fps
    - q5 {5 T  x- _0 E5 }1 x8 z8 t
  17. Color space                              : YUV
    7 ]2 [/ e" [8 R, x3 H1 G8 |
  18. Chroma subsampling                       : 4:2:0
    - H2 X+ e- r, m
  19. Bit depth                                : 8 bits
    ; C9 K: V- u7 U$ \- h  J
  20. Scan type                                : Progressive
    4 a* g1 ?$ g5 C& y) F- }2 ~
  21. Bits/(Pixel*Frame)                       : 0.202# }1 k* F- `6 K4 j
  22. Stream size                              : 535 MiB (82%)
    2 L4 C6 t7 x6 a2 J" p
  23. Writing library                          : x264 core 130 r2273 b3065e6
    ! W6 l' H- v3 d4 B- E3 q$ k3 _
  24. Encoding settings                        : cabac=1 / ref=5 / deblock=1:-1:-1 / analyse=0x3:0x113 / me=umh / subme=8 / psy=1 / psy_rd=1.00:0.15 / mixed_ref=1 / me_range=16 / chroma_me=1 / trellis=1 / 8x8dct=1 / cqm=0 / deadzone=21,11 / fast_pskip=1 / chroma_qp_offset=-3 / threads=12 / lookahead_threads=2 / sliced_threads=0 / nr=0 / decimate=1 / interlaced=0 / bluray_compat=0 / constrained_intra=0 / bframes=3 / b_pyramid=2 / b_adapt=2 / b_bias=0 / direct=3 / weightb=1 / open_gop=0 / weightp=2 / keyint=150 / keyint_min=15 / scenecut=40 / intra_refresh=0 / rc_lookahead=50 / rc=crf / mbtree=1 / crf=19.0 / qcomp=0.60 / qpmin=0 / qpmax=69 / qpstep=4 / vbv_maxrate=62500 / vbv_bufsize=78125 / crf_max=0.0 / nal_hrd=none / ip_ratio=1.40 / aq=1:1.00
    # F& ]# F/ W+ `- }& j& P
  25. Encoded date                             : UTC 2015-04-10 21:50:35
    " c& G: m4 M3 K  C- p! J* j6 D
  26. Tagged date                              : UTC 2015-04-10 22:03:49% W6 e, G% o* }( R" `0 P  F2 W
  27. Color primaries                          : BT.601 NTSC
    2 |, f/ k  Z8 a+ G; H3 _
  28. Transfer characteristics                 : BT.709( A" e% E4 ?8 h
  29. Matrix coefficients                      : BT.601
    4 D; q+ N! g# Z# ~" D

  30. ; A# x8 U9 v' P- N2 l& i
  31. Audio #1
    3 a. ?) ^, T$ v5 h4 m
  32. ID                                       : 2
    - \( w4 E: e3 L
  33. Format                                   : AAC
    % x# Z2 R, s  e  W
  34. Format/Info                              : Advanced Audio Codec
    6 G7 t4 q: e; O7 \' f
  35. Format profile                           : LC
    2 y- S! @% h+ }- d' ?, `3 O
  36. Codec ID                                 : 40/ Z% o1 b+ M* s+ l
  37. Duration                                 : 47mn 50s1 j# Y& u2 b% |( r; i1 \; }
  38. Bit rate mode                            : Variable. ?" u1 f* [4 p2 R; l8 a# B8 r$ Y
  39. Bit rate                                 : 156 Kbps. k& a5 s+ p+ E- H" V
  40. Maximum bit rate                         : 207 Kbps
    2 G+ t4 y) _0 m0 }2 D
  41. Channel(s)                               : 2 channels
    ; u! r; i' \; S4 L" x
  42. Channel positions                        : Front: L R
    ( v7 q5 C7 S2 k9 H" |% J2 v
  43. Sampling rate                            : 48.0 KHz
    3 s& B3 P& I6 n* U& w0 T- R
  44. Compression mode                         : Lossy
    2 O# G% `( \. K3 X- J1 p6 {, v
  45. Stream size                              : 53.6 MiB (8%)% O1 C: J2 k  a
  46. Language                                 : Chinese* ]. y6 j6 f: x" H
  47. Encoded date                             : UTC 2015-04-10 21:50:35- ~6 [* `5 P8 x% x  a( ~
  48. Tagged date                              : UTC 2015-04-10 22:03:48" ~+ v& T5 r5 {2 g

  49. + W6 r/ o! s- o! W$ D' b/ x
  50. Audio #2
      t' N, e! g1 c; ?# H* n1 ]
  51. ID                                       : 3
      A: c: `+ ?% z$ Z
  52. Format                                   : AC-36 w$ _" t+ R0 B6 s7 B
  53. Format/Info                              : Audio Coding 3: ~3 ?" ~! {, Z8 F0 ?" B
  54. Mode extension                           : CM (complete main)
    8 g2 S, n- E7 W- p2 Y
  55. Format settings, Endianness              : Big
    7 M9 \3 g" B- M" O( N
  56. Codec ID                                 : ac-38 [1 U5 \6 x: [0 Q7 ~  o- S
  57. Duration                                 : 47mn 50s
    9 t$ q7 v! r/ N1 c: h2 h5 N
  58. Bit rate mode                            : Constant  R( i& b5 @* m' X9 C
  59. Bit rate                                 : 192 Kbps
    ; y  ^6 o3 t1 t+ E: t9 p. G6 E
  60. Channel(s)                               : 2 channels7 S, J6 O7 E3 a. k7 M, K, P5 v! X
  61. Channel positions                        : Front: L R- v8 u! g) o* b
  62. Sampling rate                            : 48.0 KHz
    # G" F) d6 d. ^
  63. Bit depth                                : 16 bits
    8 z# _3 g. v; g0 @) U1 s$ y! D2 {* k
  64. Compression mode                         : Lossy2 W3 {* E7 u* N5 o* [
  65. Stream size                              : 65.7 MiB (10%)
    , k" f& y  y0 v" q
  66. Language                                 : Chinese
    5 g5 C. d: B7 d' t: ^& B
  67. Encoded date                             : UTC 2015-04-10 21:50:350 H8 p2 t3 c! g: h/ Q7 c. \. I4 |5 _* I
  68. Tagged date                              : UTC 2015-04-10 22:03:48
复制代码
8 e7 V. d% W2 h$ T& T# D
* z) V2 `* x4 Z; z9 Z& U- H
2ofsV.png
  ]% e5 V: n2 ` DafCV.png . d3 _& F2 F+ y% K. ?" F  Z
GRIvz.png 2 M9 b7 `1 ?) e6 L. }0 K( x
laPX5.png 7 U- G6 |) A  n3 B9 K4 {- K
. a1 A1 _; s& T+ X! t. x
! Y8 W  T; K+ Q, R/ Y
115网盘. L% P0 s# V2 j$ K/ G8 O0 P

; |( \; ~8 h2 ~& m
游客,如果您要查看本帖隐藏内容请回复  捐助论坛可免回复查看隐藏内容详情请点击
最近访问 头像模式 列表模式
HD一条街,身边的一条街。
发表于 2015-4-16 14:29:23 | 显示全部楼层
高清尽在HD一条街
HD一条街,身边的一条街。
头像被屏蔽
发表于 2015-4-16 14:35:42 | 显示全部楼层
提示: 作者被禁止或删除 内容自动屏蔽
HD一条街,身边的一条街。
发表于 2015-4-16 17:09:03 | 显示全部楼层
谢谢分享啊
HD一条街,身边的一条街。
发表于 2015-4-17 00:30:41 | 显示全部楼层
不错的资源  谢谢分享
HD一条街,身边的一条街。
头像被屏蔽
发表于 2015-4-17 00:38:35 | 显示全部楼层
提示: 作者被禁止或删除 内容自动屏蔽
HD一条街,身边的一条街。
发表于 2015-4-17 05:18:04 | 显示全部楼层
在HD一条街找到好多东西
HD一条街,身边的一条街。
发表于 2015-4-17 13:44:53 | 显示全部楼层
高清尽在HD一条街
HD一条街,身边的一条街。
发表于 2015-4-17 14:13:19 | 显示全部楼层
影视资源尽在HD一条街中, 哦也!
HD一条街,身边的一条街。
发表于 2015-4-18 17:19:44 | 显示全部楼层
HD一条街,是我心中的一条街
HD一条街,身边的一条街。
您需要登录后才可以回帖 登录 | 立即注册

本版积分规则

手机版|小黑屋|有问题发邮件到admin#(换成@)hd1tj.org|微博|免责申明|HD一条街

GMT+8, 2016-12-5 08:24

Powered by Discuz! X3.1

© 2001-2013 Comsenz Inc.

快速回复 返回顶部 返回列表