开启辅助访问 切换到窄版

HD一条街论坛

 找回密码
 立即注册
搜索
查看: 609|回复: 12

[其它] [115][台剧:呼叫大明星][DVDRip.11.44G][MP4][国语][蔡卓妍/贺军翔/陈至恺/周采诗/小甜甜]

[复制链接]
发表于 2015-4-16 14:26:59 | 显示全部楼层 |阅读模式
JKpH.jpg 7 }+ K4 r# V- J' t$ z4 U- }" A

7 ?) v9 K3 T& P! I" P' c) `+ G( H2 O  K2 D- a5 W0 S- x9 T
◎译  名 CallingForLove: ^  q1 s  `1 V0 A$ z) w& z5 e/ L
◎片  名 呼叫大明星- i  n/ i; q4 e
◎年  代 2009
5 b+ d; _/ {7 Y, o3 `◎国  家 台湾
  ?' N. Z' ]8 t% |% g! u: U◎类  别 爱情1 J  z  r+ k! J
◎语  言 汉语普通话
: U1 D) Y+ z5 A2 W% {◎上映日期 2010-05-16(台湾)
" g# Z. p: j- N4 E3 U( k◎豆瓣评分 5.3/10 from 1,518 users, f# {, p# S# ]* J' n! M6 P/ j
◎豆瓣链接 http://movie.douban.com/subject/3542424/
! Q4 N, P  E4 S4 W◎集  数 237 G) Q/ ^% B7 |
◎导  演 柴智屏 Angie Chai / 林合隆 Helong Lin
9 k6 S* }) P+ y- [9 E  a◎主  演 蔡卓妍 Charlene Choi& E9 G7 _* A3 D0 k* m9 O, h
      贺军翔 Mike He
, {4 h* u9 I' R2 h2 u0 S      陈至恺 Zhikai Chen
! f  w/ C" }& T8 K$ W$ [      周采诗 Tracy
% i/ a( ^+ j6 s5 j      小甜甜
8 O8 n$ u) e0 ^3 y2 P. P, r
" W% c7 ]1 s$ ]  ]; n8 o5 R◎简  介+ O: q* g5 x: C( x! w, l
6 M: ~& N1 o4 ^+ E! O
  香港女孩德馨(蔡卓妍 饰)为寻父来到台湾,因为一次阴差阳错的误会,她结识了明星柏野(贺军翔 饰),并在其帮助下找到了父亲杨庆泰(姜厚任 饰)。原来,父亲已在上海创业,柏野因拍戏约德馨一起来到上海,德馨的同行阿力(陈至恺 饰)也来到家族在上海的分公司。柏柔(李晟 饰)是柏野的妹妹,原想去欧洲发展,但为了助男友王瑞(王凯 饰)实现做导演的梦,她把哥哥资助她的钱全投在了王瑞身上,刚开始柏野极力阻止妹妹的荒唐做法,但最终无奈接受了现实。因杨庆泰也是柏野初恋情人惟晨的父亲,所以他坚决反对女儿和柏野交往,这让德馨很是伤心。后来,杨庆泰生意失败,他把女儿当成了东山再起的筹码......
  1. ID                                       : 1
    " W5 |& z" ^: G# @, d
  2. Format                                   : AVC
    ; E* O: R, C+ c( T6 z1 c3 q
  3. Format/Info                              : Advanced Video Codec$ G8 K  h' z0 o1 c% m( q
  4. Format profile                           : [email protected]
    ; x. G/ r# M! Z+ n( V
  5. Format settings, CABAC                   : Yes5 ?* T  t1 Z7 \
  6. Format settings, ReFrames                : 5 frames
    ! O. k. v& T- h3 E" W
  7. Codec ID                                 : avc1
    % K- c4 O; |' V8 T+ c. T: h
  8. Codec ID/Info                            : Advanced Video Coding, T' p5 h" c/ T4 `  F% v% k# j. \
  9. Duration                                 : 47mn 51s
    ) W, k& y7 h5 E  ]1 n. q
  10. Duration_LastFrame                       : 33ms
    1 `4 ~3 z0 X4 V" Z( Y! i) i$ E4 M% G
  11. Bit rate                                 : 1 562 Kbps
    9 o' t& p! B9 U( r& [& p
  12. Width                                    : 716 pixels
    0 {7 `& r) k; k8 ]. E# g
  13. Height                                   : 360 pixels
    * \  L1 c2 _8 I
  14. Display aspect ratio                     : 16:9% ?. I6 E; |- {% f' k* A* S0 P
  15. Frame rate mode                          : Constant
    9 B, t2 }8 d0 u( {" K; k  t
  16. Frame rate                               : 29.970 fps% U2 b" A; b2 g- F+ e
  17. Color space                              : YUV
    , T* f# {2 Y: r; K+ I; Z  O/ b
  18. Chroma subsampling                       : 4:2:0
      ?  _+ J! _/ m  e
  19. Bit depth                                : 8 bits( Z9 y6 H5 o0 d: R9 v8 P
  20. Scan type                                : Progressive' c+ B, m* I# O  Q
  21. Bits/(Pixel*Frame)                       : 0.202) u/ B! U" C5 A1 v+ _3 h
  22. Stream size                              : 535 MiB (82%)
    * I: W. H# c/ T( V4 U
  23. Writing library                          : x264 core 130 r2273 b3065e64 B8 @6 H- D4 @7 c; P
  24. Encoding settings                        : cabac=1 / ref=5 / deblock=1:-1:-1 / analyse=0x3:0x113 / me=umh / subme=8 / psy=1 / psy_rd=1.00:0.15 / mixed_ref=1 / me_range=16 / chroma_me=1 / trellis=1 / 8x8dct=1 / cqm=0 / deadzone=21,11 / fast_pskip=1 / chroma_qp_offset=-3 / threads=12 / lookahead_threads=2 / sliced_threads=0 / nr=0 / decimate=1 / interlaced=0 / bluray_compat=0 / constrained_intra=0 / bframes=3 / b_pyramid=2 / b_adapt=2 / b_bias=0 / direct=3 / weightb=1 / open_gop=0 / weightp=2 / keyint=150 / keyint_min=15 / scenecut=40 / intra_refresh=0 / rc_lookahead=50 / rc=crf / mbtree=1 / crf=19.0 / qcomp=0.60 / qpmin=0 / qpmax=69 / qpstep=4 / vbv_maxrate=62500 / vbv_bufsize=78125 / crf_max=0.0 / nal_hrd=none / ip_ratio=1.40 / aq=1:1.00# J& |. Z6 @1 h( b' l& U! d' j
  25. Encoded date                             : UTC 2015-04-10 21:50:35& L8 W5 N& J' y5 V: S9 e2 |. M
  26. Tagged date                              : UTC 2015-04-10 22:03:49+ c8 D4 S4 {, {8 Z4 V3 S2 w
  27. Color primaries                          : BT.601 NTSC
    ) T1 z& p9 x6 z+ i- @7 b, w
  28. Transfer characteristics                 : BT.709
    ) D/ i4 U( O6 E- ^) k' a  V
  29. Matrix coefficients                      : BT.601+ k3 U. {7 q1 b+ h+ Y5 ^0 v
  30. % y2 S1 b" _  O& m! a# U) ?4 Y
  31. Audio #1+ k0 O% P# t: r) T* u7 ~: y& Y
  32. ID                                       : 2
    5 z1 B# [( f* |7 ~# X% r
  33. Format                                   : AAC
    / R! _8 ~# P7 D
  34. Format/Info                              : Advanced Audio Codec- z. V7 s* B2 i/ w" L3 G
  35. Format profile                           : LC2 B3 [# x$ ~' I6 k7 ~/ O
  36. Codec ID                                 : 40
      m  S5 o6 {8 R6 F
  37. Duration                                 : 47mn 50s
    / K* `+ p2 D6 V4 d% R: X7 E
  38. Bit rate mode                            : Variable6 P5 Z1 n$ K# x
  39. Bit rate                                 : 156 Kbps8 H0 I3 L2 }4 J) w# }$ U0 [7 M
  40. Maximum bit rate                         : 207 Kbps7 ^0 I. P% d0 x5 c& V- \+ C, c
  41. Channel(s)                               : 2 channels/ h7 o' ^+ Y, Z1 s- R, Z
  42. Channel positions                        : Front: L R
    # a$ K" J  Y4 f; _1 W4 a
  43. Sampling rate                            : 48.0 KHz( {, F0 ^  m" \3 L  h; r
  44. Compression mode                         : Lossy
    * M. I! O' G# @* F6 X) @; _- b
  45. Stream size                              : 53.6 MiB (8%)* ~+ w) ~  F9 y  ~* _1 Y9 ~
  46. Language                                 : Chinese' @/ M, u3 ?( J1 F( l1 {& w
  47. Encoded date                             : UTC 2015-04-10 21:50:35$ s7 U/ N  b. X& I8 E. c
  48. Tagged date                              : UTC 2015-04-10 22:03:484 B8 T8 t: T$ H' Q, p

  49. ! {& `& \8 G( p2 g" M0 U$ T, E
  50. Audio #2' c7 v* `) U) v$ ?; W) T+ u
  51. ID                                       : 3
    ; \; f& r9 t  A: Z
  52. Format                                   : AC-3
    ) f# D; w7 b( u3 B( {7 ?
  53. Format/Info                              : Audio Coding 3% ~( E3 V0 V: a% q4 V9 z1 Y
  54. Mode extension                           : CM (complete main)
    . p# X* M! I7 _+ O. K
  55. Format settings, Endianness              : Big
    " N! k1 B; Y  n
  56. Codec ID                                 : ac-3
    # l- e, T5 ^; _9 W0 }
  57. Duration                                 : 47mn 50s, W. D7 L6 ^8 x6 ~& E
  58. Bit rate mode                            : Constant
    # `2 z" U4 W/ S1 R, O: q
  59. Bit rate                                 : 192 Kbps- R  L/ k& k& L, ~+ T* b" R/ d
  60. Channel(s)                               : 2 channels
      W0 ?% I* W; E( u+ L: q
  61. Channel positions                        : Front: L R0 Y/ v: n5 C% M3 q6 S( S
  62. Sampling rate                            : 48.0 KHz: ~, {! p$ O9 l, x
  63. Bit depth                                : 16 bits; e) a2 f# l$ |
  64. Compression mode                         : Lossy
    ! m0 U8 o8 C# p
  65. Stream size                              : 65.7 MiB (10%)3 Z" y6 B0 N9 {- G, z
  66. Language                                 : Chinese
    7 _0 \3 _" y7 B1 D: t0 _# }
  67. Encoded date                             : UTC 2015-04-10 21:50:35/ T+ v! p/ F4 }0 U" j  [/ V
  68. Tagged date                              : UTC 2015-04-10 22:03:48
复制代码
3 }  A2 t# n6 Z$ G; h
0 P4 [7 O$ O0 s8 m5 @! l' g
2ofsV.png
+ p5 w+ y$ M3 ?3 R/ D- ] DafCV.png   h2 x2 {' K4 `/ c
GRIvz.png
5 [7 K% `  A- o. R+ k laPX5.png 0 e% N9 u5 f; S4 e& l" o
: W$ A. J# |  p' ]; c* G0 e

& x) ]  G- f; T: m0 d115网盘: J& _. u9 r( G! L

3 H/ h8 F& {& k3 O
游客,如果您要查看本帖隐藏内容请回复  捐助论坛可免回复查看隐藏内容 详情请点击
最近访问 头像模式 列表模式
HD一条街,身边的一条街。
发表于 2015-4-16 14:29:23 | 显示全部楼层
高清尽在HD一条街
HD一条街,身边的一条街。
头像被屏蔽
发表于 2015-4-16 14:35:42 | 显示全部楼层
提示: 作者被禁止或删除 内容自动屏蔽
HD一条街,身边的一条街。
发表于 2015-4-16 17:09:03 | 显示全部楼层
谢谢分享啊
HD一条街,身边的一条街。
发表于 2015-4-17 00:30:41 | 显示全部楼层
不错的资源  谢谢分享
HD一条街,身边的一条街。
头像被屏蔽
发表于 2015-4-17 00:38:35 | 显示全部楼层
提示: 作者被禁止或删除 内容自动屏蔽
HD一条街,身边的一条街。
发表于 2015-4-17 05:18:04 | 显示全部楼层
在HD一条街找到好多东西
HD一条街,身边的一条街。
发表于 2015-4-17 13:44:53 | 显示全部楼层
高清尽在HD一条街
HD一条街,身边的一条街。
发表于 2015-4-17 14:13:19 | 显示全部楼层
影视资源尽在HD一条街中, 哦也!
HD一条街,身边的一条街。
发表于 2015-4-18 17:19:44 | 显示全部楼层
HD一条街,是我心中的一条街
HD一条街,身边的一条街。

手机版|小黑屋|有问题发邮件到admin#(换成@)hd1tj.org|微博|免责申明|HD一条街

GMT+8, 2017-4-28 00:54

Powered by Discuz! X3.1

© 2001-2013 Comsenz Inc.

快速回复 返回顶部 返回列表