开启辅助访问 切换到窄版

HD一条街论坛

 找回密码
 加入我们
查看: 561|回复: 12

[其它] [115][台剧:呼叫大明星][DVDRip.11.44G][MP4][国语][蔡卓妍/贺军翔/陈至恺/周采诗/小甜甜]

[复制链接]
发表于 2015-4-16 14:26:59 | 显示全部楼层 |阅读模式
JKpH.jpg 9 y6 R7 X# X+ B6 _

7 B( N" O0 R' S! P8 `9 T: C* S: P
% v" n& F3 X8 S◎译  名 CallingForLove
  s- I& d+ J* Z" h- L◎片  名 呼叫大明星  z  X8 U, O* L! u5 ~
◎年  代 2009
, z7 S; h; T5 u1 Q( R  @' }/ _◎国  家 台湾- `6 z% n8 K) i" x' ^* Y
◎类  别 爱情
/ J) P1 V0 ]+ L- G( b$ g◎语  言 汉语普通话! b0 p: F* R" l% B1 X
◎上映日期 2010-05-16(台湾)
. v; p: I( }; J) o! l! l  y◎豆瓣评分 5.3/10 from 1,518 users6 Z4 g  O- S6 G/ u, Z
◎豆瓣链接 http://movie.douban.com/subject/3542424/
( @9 O- p! ?# u* K8 @( `◎集  数 23$ F% j% t  m3 a$ p% y7 U
◎导  演 柴智屏 Angie Chai / 林合隆 Helong Lin0 c6 o4 D) c9 K( J( a, r( k
◎主  演 蔡卓妍 Charlene Choi; T% ?9 D  e7 R* C
      贺军翔 Mike He
, e' U/ [/ f3 y, [/ p      陈至恺 Zhikai Chen$ ^/ y: V. }* W3 X* M; u
      周采诗 Tracy
* W# r2 \0 n; v' V+ }1 C$ O* O      小甜甜
% X8 d6 a% f* v8 G9 H: M$ V
: K; _5 G! G2 @5 R% L◎简  介3 ^% j7 g. J0 X0 ]' V6 ^  J
& x' E0 R; ?3 \+ y
  香港女孩德馨(蔡卓妍 饰)为寻父来到台湾,因为一次阴差阳错的误会,她结识了明星柏野(贺军翔 饰),并在其帮助下找到了父亲杨庆泰(姜厚任 饰)。原来,父亲已在上海创业,柏野因拍戏约德馨一起来到上海,德馨的同行阿力(陈至恺 饰)也来到家族在上海的分公司。柏柔(李晟 饰)是柏野的妹妹,原想去欧洲发展,但为了助男友王瑞(王凯 饰)实现做导演的梦,她把哥哥资助她的钱全投在了王瑞身上,刚开始柏野极力阻止妹妹的荒唐做法,但最终无奈接受了现实。因杨庆泰也是柏野初恋情人惟晨的父亲,所以他坚决反对女儿和柏野交往,这让德馨很是伤心。后来,杨庆泰生意失败,他把女儿当成了东山再起的筹码......
  1. ID                                       : 1
    + n5 |0 u7 {* q* g$ w  P$ B
  2. Format                                   : AVC6 ~  k; |* e) W. O; }
  3. Format/Info                              : Advanced Video Codec
    ! Z" ?/ s0 m; [3 T' o1 T. V
  4. Format profile                           : [email protected]5 [6 w! @; c+ b6 o  x
  5. Format settings, CABAC                   : Yes
    $ v; @% V7 E, a# o( f' k3 T. [8 G! y
  6. Format settings, ReFrames                : 5 frames
    - i( F) W; F7 M9 Z  @  l' _
  7. Codec ID                                 : avc1
    5 N6 U% G- i8 U% E( P" e
  8. Codec ID/Info                            : Advanced Video Coding
    - K* N4 w* x6 J+ P5 K  p3 K
  9. Duration                                 : 47mn 51s3 e$ A% I) d# c( G! H9 J
  10. Duration_LastFrame                       : 33ms& o) [! h# S/ ]4 k. F! m9 L
  11. Bit rate                                 : 1 562 Kbps
    : r; D3 \/ R/ h/ \0 ]1 c) l  M
  12. Width                                    : 716 pixels
    5 m$ f" E, x* R8 F& v3 Z8 r
  13. Height                                   : 360 pixels( V. i5 H8 H1 Y" L) v; D
  14. Display aspect ratio                     : 16:9
    ) `6 ]; b( I$ x. @4 W
  15. Frame rate mode                          : Constant  Z, X: J: |& `/ X% P
  16. Frame rate                               : 29.970 fps$ H5 i# e& M! v3 y
  17. Color space                              : YUV
    ; p% j6 J8 I6 U, z* J7 Q. |
  18. Chroma subsampling                       : 4:2:0
    # p7 K- N6 K$ j' r2 f4 D
  19. Bit depth                                : 8 bits
    ! |  w; k. @- q- Y+ h
  20. Scan type                                : Progressive4 j0 m" I, P; H+ L& K$ O
  21. Bits/(Pixel*Frame)                       : 0.2026 C& E+ c. a* H
  22. Stream size                              : 535 MiB (82%)' f9 f# x9 L4 M5 {
  23. Writing library                          : x264 core 130 r2273 b3065e6
    * }/ k' c1 h& P. V5 M8 q5 [6 D
  24. Encoding settings                        : cabac=1 / ref=5 / deblock=1:-1:-1 / analyse=0x3:0x113 / me=umh / subme=8 / psy=1 / psy_rd=1.00:0.15 / mixed_ref=1 / me_range=16 / chroma_me=1 / trellis=1 / 8x8dct=1 / cqm=0 / deadzone=21,11 / fast_pskip=1 / chroma_qp_offset=-3 / threads=12 / lookahead_threads=2 / sliced_threads=0 / nr=0 / decimate=1 / interlaced=0 / bluray_compat=0 / constrained_intra=0 / bframes=3 / b_pyramid=2 / b_adapt=2 / b_bias=0 / direct=3 / weightb=1 / open_gop=0 / weightp=2 / keyint=150 / keyint_min=15 / scenecut=40 / intra_refresh=0 / rc_lookahead=50 / rc=crf / mbtree=1 / crf=19.0 / qcomp=0.60 / qpmin=0 / qpmax=69 / qpstep=4 / vbv_maxrate=62500 / vbv_bufsize=78125 / crf_max=0.0 / nal_hrd=none / ip_ratio=1.40 / aq=1:1.00& i( y9 \& d7 M5 J2 O0 q
  25. Encoded date                             : UTC 2015-04-10 21:50:35# [$ D& s1 P# L- B6 h3 [, E! `! u5 b
  26. Tagged date                              : UTC 2015-04-10 22:03:491 }' ~# f! v: F: i
  27. Color primaries                          : BT.601 NTSC
    2 A# d* k" F! M" T5 A- @' w0 ?
  28. Transfer characteristics                 : BT.709
    / \8 J. M* `# k% F: m. ]8 }
  29. Matrix coefficients                      : BT.601
    9 d1 U( f# h" e: g) R& w6 a

  30. # y' X' @" @1 q$ w
  31. Audio #1( N& @# m8 O. F& e" I9 J
  32. ID                                       : 2
    4 A5 _5 R4 j$ n" A
  33. Format                                   : AAC+ H4 S2 d& V/ q' M; E) k! N) w1 c/ O
  34. Format/Info                              : Advanced Audio Codec% |7 s# t/ p) N& M
  35. Format profile                           : LC
    8 a5 M, C7 I/ Z
  36. Codec ID                                 : 40+ t/ W9 L& O! y1 K2 C; D( I: _5 {
  37. Duration                                 : 47mn 50s: f: u+ [5 v& c& F* H/ O
  38. Bit rate mode                            : Variable2 }- V2 U- f' z9 e
  39. Bit rate                                 : 156 Kbps
    / D( R9 p5 n/ ?9 y
  40. Maximum bit rate                         : 207 Kbps# Y4 @/ L- F6 p
  41. Channel(s)                               : 2 channels
    " l* o# [1 [. D$ {
  42. Channel positions                        : Front: L R
    2 q. r( k! K9 {6 L: P! M
  43. Sampling rate                            : 48.0 KHz# d! s9 s+ G. f! w6 q0 v
  44. Compression mode                         : Lossy: _0 R% {: o$ X
  45. Stream size                              : 53.6 MiB (8%)
    % x8 i- r* ^$ O4 r# A3 Q. b
  46. Language                                 : Chinese% s9 W# L' o+ L. p6 ?1 i
  47. Encoded date                             : UTC 2015-04-10 21:50:358 d4 p9 l% }9 r7 |6 O9 g9 S
  48. Tagged date                              : UTC 2015-04-10 22:03:48
    , h5 N* M( o4 ~% \
  49. 0 `0 `& V. n5 y" l! R, w- `7 s/ g
  50. Audio #2
    8 J: p+ T" @% h3 b
  51. ID                                       : 3) X2 K5 p0 _9 Y! ~) N
  52. Format                                   : AC-3
    ) k; {; @/ |% {- t& G2 @. j5 a
  53. Format/Info                              : Audio Coding 32 f6 l6 e8 X! f$ d
  54. Mode extension                           : CM (complete main)9 @8 {/ E+ S. G  ?% d, M
  55. Format settings, Endianness              : Big
    / @* h: `8 x, ?3 \1 m$ d
  56. Codec ID                                 : ac-32 K5 l% [  `! Q1 P: T" v: q, F, i/ l
  57. Duration                                 : 47mn 50s
    # C4 `2 S6 t) m( w& s! a: g- P
  58. Bit rate mode                            : Constant4 ~2 [! l. M6 G. Y
  59. Bit rate                                 : 192 Kbps; _' e& x0 b8 F: g# @
  60. Channel(s)                               : 2 channels% i7 a: T- G7 p/ z
  61. Channel positions                        : Front: L R
    ' O8 r7 l6 N# N' r' a* |
  62. Sampling rate                            : 48.0 KHz+ b" O& W4 y! u, k4 F' o. q% b1 V/ D
  63. Bit depth                                : 16 bits/ u; A0 f1 \  v5 Q2 k$ ?! z
  64. Compression mode                         : Lossy
    6 a4 s8 z4 f7 Q8 y( w; w  W+ {- N- Q
  65. Stream size                              : 65.7 MiB (10%), }' E7 v' r8 j' V' |
  66. Language                                 : Chinese
    9 W7 [. Z8 y  W% [9 j
  67. Encoded date                             : UTC 2015-04-10 21:50:35! y8 }) H0 W4 M$ K. g# w
  68. Tagged date                              : UTC 2015-04-10 22:03:48
复制代码
% v' h9 c. X0 S0 U1 }! v& W' T7 x

9 A, `0 |. J" ? 2ofsV.png
9 z6 k, h+ E/ l DafCV.png
/ f7 Y; Q  |1 q0 L% Y; I; |/ e GRIvz.png 8 k  D* g) K5 F. l8 p
laPX5.png
8 u, m- j& A; k: G9 I# u5 l' H1 X; s4 w
" r0 |, s9 q% J  @
115网盘
6 I- O3 t5 H; a# p
6 e2 a$ E% V0 R2 D; ]
游客,如果您要查看本帖隐藏内容请回复  捐助论坛可免回复查看隐藏内容 详情请点击
最近访问 头像模式 列表模式
HD一条街,身边的一条街。
发表于 2015-4-16 14:29:23 | 显示全部楼层
高清尽在HD一条街
HD一条街,身边的一条街。
头像被屏蔽
发表于 2015-4-16 14:35:42 | 显示全部楼层
提示: 作者被禁止或删除 内容自动屏蔽
HD一条街,身边的一条街。
发表于 2015-4-16 17:09:03 | 显示全部楼层
谢谢分享啊
HD一条街,身边的一条街。
发表于 2015-4-17 00:30:41 | 显示全部楼层
不错的资源  谢谢分享
HD一条街,身边的一条街。
头像被屏蔽
发表于 2015-4-17 00:38:35 | 显示全部楼层
提示: 作者被禁止或删除 内容自动屏蔽
HD一条街,身边的一条街。
发表于 2015-4-17 05:18:04 | 显示全部楼层
在HD一条街找到好多东西
HD一条街,身边的一条街。
发表于 2015-4-17 13:44:53 | 显示全部楼层
高清尽在HD一条街
HD一条街,身边的一条街。
发表于 2015-4-17 14:13:19 | 显示全部楼层
影视资源尽在HD一条街中, 哦也!
HD一条街,身边的一条街。
发表于 2015-4-18 17:19:44 | 显示全部楼层
HD一条街,是我心中的一条街
HD一条街,身边的一条街。
您需要登录后才可以回帖 登录 | 加入我们

本版积分规则

手机版|小黑屋|有问题发邮件到admin#(换成@)hd1tj.org|微博|免责申明|HD一条街

GMT+8, 2017-2-28 06:46

Powered by Discuz! X3.1

© 2001-2013 Comsenz Inc.

快速回复 返回顶部 返回列表