开启辅助访问 切换到窄版

HD一条街论坛

 找回密码
 立即注册
查看: 114|回复: 4

[1080p] Looney.Tunes.Volume.1.1936-1966.1080p.BluRay.REMUX.AVC.DD1.0-RARBG 45.54G

[复制链接]
发表于 2015-4-9 17:53:13 | 显示全部楼层 |阅读模式
- U3 w7 Q' Y: k! D2 d# }0 l  r
                               
登录/注册后可看大图
8 z4 F% `- Y! G  N, L& ~) ^0 m

; d+ ^" b# A  ~. f! I& q( W50 Remastered Theatrical Shorts1 }8 x9 |9 _4 G2 O+ Z: k  P

6 I0 b) o5 ]0 S( }$ f7 UEpisodes:- Z* E, ]8 @4 d7 [7 X) C+ j
01. Hare Tonic
/ O" S! b8 {8 J6 U" M+ ?0 h- w02. Baseball Bugs" K7 M' G$ s# G
03. Buccaneer Bunny  X9 a9 @/ L% }% l. l0 X
04. The Old Grey Hare
( ~8 o2 [" |9 A$ L: j05. Rabbit Hood
  E. N. V) c0 R, S7 N2 g$ S06. 8 Ball Bunny
8 a( M; O) o5 d( h$ O07. Rabbit Of Seville) s( h) @5 ?2 z4 N
08. What\'s Opera, Doc?# X# c2 d8 z+ B, G3 {$ O% a" C5 S+ q
09. The Great Piggy Bank Robbery
2 O- Q9 H. m- D2 c10. A Pest In The House
' s8 i( ~1 i; o: `11. The Scarlet Pumpernickel
' }: s4 M) e* ]$ b" E- v4 g7 f12. Duck Amuck
: Y8 O  ~3 u$ k5 _/ U0 Q- U% U13. Robin Hood Daffy
3 R; s5 A6 T2 Z1 _) u14. Baby Bottleneck
0 U- j  L5 K; }9 `! |15. Kitty Kornered
0 n) `" W( i& a7 P, Z7 l) K0 ^16. Scaredy Cat
& e" R6 S4 `4 W17. Porky Chops
& i# v9 W/ x% M; |5 V$ N18. Old Glory1 r% ^. ?; x& V; Y" ?, ^7 {
19. A Tale Of Two Kitties7 ~8 v4 A! ^5 ]" s) m8 c
20. Tweetie Pie& A" b9 `) J( G) |5 G
21. Fast And Furry-ous" T) `+ b$ O) D/ C, s2 v
22. Beep, Beep  _# {$ N1 J3 @+ r/ ?  ^7 G' P) B
23. Lovelorn Leghorn, _- W; V' L6 Q0 g$ U
24. For Scent-imental Reasons2 _+ A1 u4 \$ I9 K6 o+ G
25. Speedy Gonzales ! f% [7 y2 @! i0 ?* J
26. One Froggy Evening
0 I/ [7 o6 V) p27. Three Little Bops0 _- y( ]9 g4 e! `  I5 p
28. I Love To Singa6 r1 i8 ^/ |6 E. r. {5 N
29. Katnip Kollege/ D! f0 v$ K* ~, d% ~6 a( q8 w
30. The Dover Boys at Pimento University0 x. x1 O& f# }7 y2 B
31. Chow Hound* f* _- F3 w" |
32. Haredevil Hare% x( L. m6 i7 Y% F/ c
33. Hasty Hare, The( O; J: \6 X& i% s
34. Duck Dodgers In The 24th Century- r, w+ Z/ o, v. W1 y8 I
35. Hare-way To The Stars- G, C' O/ u- s- y
36. Mad As A Mars Hare( A8 x2 O/ S& t& Z- c
37. Devil May Hare
1 P0 H* d- n/ o5 n8 ~9 W6 P1 |38. Bedevilled Rabbit7 z1 s6 T7 G! E$ Z( V  Q
39. Ducking The Devil
) p/ w1 |5 t- t) F40. Bill Of Hare
; p$ q6 i# x0 b: q4 b41. Dr. Devil And Mr. Hare, }3 y6 w( g6 d' W+ W7 c8 ^
42. Bewitched Bunny
9 i1 I/ a: d+ @8 K1 C) t6 c43. Broom-stick Bunny. M7 W8 Q5 O0 e; x
44. A Witch\'s Tangled Hare
  ]6 R" u: M- k3 S45. A-haunting We Will Go% J0 P2 s# t5 D$ a3 S3 q
46. Feed The Kitty
! d7 O9 b' u% a# f7 R& ^$ ~47. Kiss Me Kat% o1 ~' y% [% ^  @5 ]' ~. u
48. Feline Frame-up2 n& W+ |8 i0 H% n8 U+ c
49. From A To Z-z-z-z% Z, A* M$ F2 P2 K7 x
50. Boyhood Daze1 ]' U, D6 s+ n0 N! p* Y' O
5 {: o+ }4 H; v8 l/ A* ^0 u

$ m' ]- g8 D; L0 w' p" ^0 l/ e! l5 P  P; v+ a
Screens:; v% w! C1 Y- i! [+ }5 i" _8 }

* h: p4 B$ v. s' W3 R: A" y2 D2 s
* @, \: S  p# q5 Q8 V* `- C$ M* e
8 }1 R1 ~- s6 a' M

! h5 p: A: E' S( d6 I) g" a6 y! e4 y8 b7 ?6 T0 `' W# H1 a3 f
: M6 b4 _6 N- ~/ [* Y/ Y

% C& a- D3 I& h# w& L- l8 ~& Z* r4 F! i5 ~1 j* a  F" P
[url=][-] Hide MediaInfo[/url]
0 I) e1 R7 ]$ n
8 K$ W# W( P2 a  o; s" Y- v- JVideo
+ l$ f0 F- d8 y$ }2 d/ cID                                       : 1
# ]8 E. r4 ]: l1 o" F* E% F# gFormat                                   : AVC/ w* e( _% N2 z0 z4 \4 t8 S
Format/Info                              : Advanced Video Codec
6 {5 m0 K5 k* Y) lFormat profile                           : [email protected]
- \# L2 G8 x0 r: M. ~1 iFormat settings, CABAC                   : Yes" Q1 F8 k; L3 ~0 N$ _. K" a
Format settings, ReFrames                : 2 frames
# A4 W" G5 f/ G) w- `. ZCodec ID                                 : V_MPEG4/ISO/AVC: C% W7 \; Z. B; W7 u9 U
Duration                                 : 8mn 20s0 l3 P5 p- _+ M: V: ?7 k
Bit rate mode                            : Variable
$ u/ S7 J( S6 \8 c1 wBit rate                                 : 17.6 Mbps
2 |% c, s% S- T6 y8 c+ ~& ^. H0 J* qWidth                                    : 1 920 pixels
- Z# [5 b! H2 z+ EHeight                                   : 1 080 pixels
: Q+ ?3 _5 m5 }0 z* bDisplay aspect ratio                     : 16:9
3 V5 E) i1 i+ \7 iFrame rate mode                          : Constant
7 r  c- S, W4 r4 M- mFrame rate                               : 23.976 fps& x* W; @: E. i0 M/ N
Color space                              : YUV5 j0 O5 v1 s# [( ~2 g
Chroma subsampling                       : 4:2:0
# ?4 m# `' Z9 C2 fBit depth                                : 8 bits/ ]- E( K: ~, w: @2 R
Scan type                                : Progressive
: y" U7 v- x5 UBits/(Pixel*Frame)                       : 0.353
8 p$ c6 x& K2 b2 D0 |Stream size                              : 1.02 GiB (97%)
1 [. T1 W( n. kDefault                                  : Yes
) }" ~* D1 M$ e1 R5 MForced                                   : No5 s) }4 e& G' p4 A5 T- k) k$ _/ Y
6 T2 N- b) ?0 o; o. m- Q% P
Audio3 I( `. n, ~# I% p
ID                                       : 20 P1 J( M4 k4 T- k/ N/ Q
Format                                   : AC-3
' t; A5 Y! C) O$ zFormat/Info                              : Audio Coding 3
. R; a/ F1 e8 yMode extension                           : CM (complete main)* J( m; z# e+ S1 ?! Z4 H3 f1 W- U
Format settings, Endianness              : Big9 L, k; {& {: X$ X1 G3 C
Codec ID                                 : A_AC3
- U9 s8 U( j6 XDuration                                 : 8mn 20s
# G7 W3 x6 F+ r7 ^7 _8 A" s) _Bit rate mode                            : Constant; k9 [. C" E8 W6 c+ J) X( N% u
Bit rate                                 : 192 Kbps
$ f5 M6 F  [1 ^0 `3 v/ s/ i- s1 i3 EChannel(s)                               : 1 channel
& |+ H& C' p0 T1 A2 OChannel positions                        : Front: C: _4 c+ n/ \7 @1 K+ s6 K% H2 c
Sampling rate                            : 48.0 KHz
9 z& \" w' I/ V4 U/ h+ dBit depth                                : 16 bits
4 M2 s, Y0 N1 O9 Y" ^3 i+ Q  VCompression mode                         : Lossy3 C0 g5 a2 i% l( [1 |" n% Y
Stream size                              : 11.4 MiB (1%)3 m* w3 g0 o' G+ M8 G+ ~
Language                                 : English) A6 J: E$ G+ o. @# Y! Q# P
Default                                  : Yes( c2 ]% L+ B! _
Forced                                   : No
8 s2 v  w6 D9 h3 ~
% z) X) ?6 ]# T* m& g  S% j5 P- X" ]Text
4 j  K. W  A% f. L& vID                                       : 3! r9 _+ G  U1 ~' l
Format                                   : PGS+ {" u+ S( s* z( x0 ^3 q5 i( i
Muxing mode                              : zlib
! ~( Q1 v( L, E4 U7 E- `; L; xCodec ID                                 : S_HDMV/PGS: T1 K3 V0 b5 u, e% s5 C
Codec ID/Info                            : The same subtitle format used on BDs/HD-DVDs2 I# A  S" _/ `  f3 W+ Z9 O. f+ S
Language                                 : English
+ a; E0 K) ]# u) r, pDefault                                  : Yes
2 q: n, s4 e( N, b5 nForced                                   : No; S+ R8 Y" p' G% \, E& E

7 Y3 M6 {+ Z# X! ]( g( r; a5 W6 i4 `% `  n, b( M% ]3 i( x
游客,如果您要查看本帖隐藏内容请回复  捐助论坛可免回复查看隐藏内容详情请点击
最近访问 头像模式 列表模式
HD一条街,身边的一条街。
发表于 2015-4-9 17:56:16 | 显示全部楼层
既然你诚信诚意的推荐了,那我就勉为其难的看看吧!
HD一条街,身边的一条街。
发表于 2015-4-9 21:05:36 | 显示全部楼层
在HD一条街找到好多东西
HD一条街,身边的一条街。
发表于 2015-4-9 22:38:40 | 显示全部楼层
这个帖子不回对不起自己!
HD一条街,身边的一条街。
发表于 2015-4-10 02:44:09 | 显示全部楼层
感谢楼主分享啊 。
HD一条街,身边的一条街。
您需要登录后才可以回帖 登录 | 立即注册

本版积分规则

手机版|小黑屋|有问题发邮件到admin#(换成@)hd1tj.org|微博|免责申明|HD一条街

GMT+8, 2016-12-6 13:41

Powered by Discuz! X3.1

© 2001-2013 Comsenz Inc.

快速回复 返回顶部 返回列表