开启辅助访问 切换到窄版

HD一条街论坛

 找回密码
 加入我们
查看: 147|回复: 4

[1080p] Looney.Tunes.Volume.1.1936-1966.1080p.BluRay.REMUX.AVC.DD1.0-RARBG 45.54G

[复制链接]
发表于 2015-4-9 17:53:13 | 显示全部楼层 |阅读模式

' q$ O  r5 P5 [9 R1 G/ L                               
登录/注册后可看大图
* M5 U4 o1 u- m
' w* T% x$ L, r  T
50 Remastered Theatrical Shorts
; z0 H  |  j% i/ `6 ^3 W, v) q
5 F) t  @1 h+ U) T- `1 O7 S* H: i7 I( y" sEpisodes:$ v# I) @$ Y/ f- o0 e  X  C# d! n, y. J
01. Hare Tonic- |9 p" l6 ~, p, M7 O" H
02. Baseball Bugs$ z. J2 [- G8 o" G# w
03. Buccaneer Bunny
* z! v- a3 q' [( m6 I. L' t- T04. The Old Grey Hare
5 P9 \1 j* H/ ~# Q9 ?3 @0 B05. Rabbit Hood
0 U/ v$ K: r9 F) Z! ~& v06. 8 Ball Bunny
# F! [2 [. W, f7 ~1 R, N07. Rabbit Of Seville
* ]& V6 R( y  |9 }/ L) f08. What\'s Opera, Doc?
! Y2 F( N5 D6 I8 D& x! o09. The Great Piggy Bank Robbery  F# u7 O& y. H  _( p
10. A Pest In The House! \5 G, R  {4 j8 |/ e: `+ u
11. The Scarlet Pumpernickel
* y3 D: K* b8 L12. Duck Amuck
9 `3 g- f7 A: U13. Robin Hood Daffy
# D4 A: t7 A; H% C( ~14. Baby Bottleneck
9 ^4 c: ^" x7 I( {+ ?- X7 m15. Kitty Kornered
" d# X& R6 M  K( n+ U/ `16. Scaredy Cat- D5 ^% q4 ?2 U7 t" z- }0 i0 T
17. Porky Chops- K# A) X! v2 s6 @
18. Old Glory
3 |. p. h1 @) H5 [& Q+ _19. A Tale Of Two Kitties
# q0 V; i! J5 S6 u8 F& l20. Tweetie Pie* t. Q5 x; I1 _4 {1 \
21. Fast And Furry-ous# S- Z0 B! D) ]: M& X5 v, Y, U% j
22. Beep, Beep4 M' y; g: \3 p5 ^+ ~  |
23. Lovelorn Leghorn
/ {% m6 a! K4 z" j. `6 h5 W24. For Scent-imental Reasons
2 w( U& g) n9 m( r! c25. Speedy Gonzales   z' p4 S2 K1 c$ u6 }0 `' J, m' t- c# z
26. One Froggy Evening
# ]2 }/ }! y% S! a+ Z27. Three Little Bops# W; D+ L( c( m- z7 J
28. I Love To Singa
6 U& u9 s" P- B2 g29. Katnip Kollege; P1 }3 b( ]* J* G9 {
30. The Dover Boys at Pimento University1 H2 }" m* b' U; M2 `9 _" j" v
31. Chow Hound
$ K6 i+ M/ j9 l: t$ ?2 K) A) a& T/ N32. Haredevil Hare2 i! `" a" H( u9 ^9 v
33. Hasty Hare, The
; X! M7 S% S8 l, Y; ~34. Duck Dodgers In The 24th Century* m2 Z+ M- F2 Y* m3 v1 }
35. Hare-way To The Stars+ ]# O% S9 o! b, e5 B' {! W
36. Mad As A Mars Hare
  @0 A$ |- q$ }; C37. Devil May Hare
8 }* r- k- D9 V4 _5 s: s0 l: B38. Bedevilled Rabbit; b% h4 s& q- G& p' s+ S8 W
39. Ducking The Devil1 c# j7 ~' R6 @. p3 ?+ ~
40. Bill Of Hare3 v% n; {$ `( _1 ?, i6 h
41. Dr. Devil And Mr. Hare
+ p- X: H9 j6 j5 }( Y42. Bewitched Bunny6 C6 i( v6 f) h. O' @4 f
43. Broom-stick Bunny
6 d2 y) h, m" ?: d7 Y; R44. A Witch\'s Tangled Hare
7 K3 o! e0 A( ^/ U6 y45. A-haunting We Will Go
3 p; j7 C4 B+ _! ^% g46. Feed The Kitty
6 q. S1 P& T. g6 m4 r47. Kiss Me Kat" s+ T7 M4 W2 q" W
48. Feline Frame-up
  Q' O* r3 ~0 V: t& X49. From A To Z-z-z-z' [$ Q9 H- O8 w" ^
50. Boyhood Daze
5 D6 M7 }# R/ k0 {
4 m* [6 d! I3 ?  M5 [6 i8 v3 J6 ~9 z

! @4 {6 O) z3 a% K+ rScreens:
/ M% P. t; D+ |" D$ q( l  o9 f/ S% w0 L" ?# V; A# F

- p4 j2 ^4 d0 D( T* I! \4 j+ ~6 n1 R% l$ d
' K( r4 f5 C: O# ~1 a% ?! s& c
- X9 @  J- l0 I' {

, K5 B, `( v9 @: Y4 n. Y3 v. c( u2 {: @/ G* M, I7 J& I5 b; O6 V. I
* @# P% h+ l- O- D0 l
* K; @8 w, O6 w$ b# |0 B2 x
[url=][-] Hide MediaInfo[/url]
) p- o3 N$ j5 N' D3 M: P. P
6 Z! [  k3 p  F' [" TVideo
, d  U$ Q9 {0 ?/ LID                                       : 1
' b2 \- R) g  H- Q- PFormat                                   : AVC% a7 C, @9 E' h2 D4 p5 v3 k
Format/Info                              : Advanced Video Codec
- }1 o; ]! @( CFormat profile                           : [email protected]
/ }; P/ `4 w. ?! M  X, CFormat settings, CABAC                   : Yes* v( F. T$ A& u0 ^! P  ~8 B* I
Format settings, ReFrames                : 2 frames* ?* j& T" C) h& x% d$ K0 n4 f
Codec ID                                 : V_MPEG4/ISO/AVC
9 i, f# i$ c3 J5 NDuration                                 : 8mn 20s5 e8 k7 G- e. _1 ^
Bit rate mode                            : Variable7 |" I' y0 P7 T# X- T' \& G
Bit rate                                 : 17.6 Mbps
5 e0 @7 j7 ?& z1 mWidth                                    : 1 920 pixels
: s8 |; c. {3 H; e: i. e0 u" ~) vHeight                                   : 1 080 pixels# H, u1 ~) ?) c
Display aspect ratio                     : 16:9
  I* h' G0 S) G2 x2 |: CFrame rate mode                          : Constant% u8 a! F' z2 c! ^
Frame rate                               : 23.976 fps3 y# M% ]  X2 Y9 d% ?: l1 p% ^
Color space                              : YUV$ T$ v  Y$ m1 z4 B
Chroma subsampling                       : 4:2:0/ v# K- z6 l! F+ {! @( G
Bit depth                                : 8 bits
3 D; d0 p  {# bScan type                                : Progressive
, i+ G( Z$ F' nBits/(Pixel*Frame)                       : 0.353
! r. L+ g! g/ J$ o3 f# O2 fStream size                              : 1.02 GiB (97%)0 l2 X' p* @- `* Y
Default                                  : Yes
; V" d$ q8 q0 t& wForced                                   : No
, ?5 F- d3 \' f+ P) e; |
2 B6 \# _7 \8 M+ n6 }4 ?! EAudio
$ F2 A  K3 K; c; `ID                                       : 2- N' m) e3 t1 e8 L4 N. l
Format                                   : AC-3* W1 [; i$ O* m8 j% ^( [
Format/Info                              : Audio Coding 3
3 T% I8 m. \6 a( l4 nMode extension                           : CM (complete main)
# A3 I5 `) z& c' ?4 d( U, F% CFormat settings, Endianness              : Big
9 `( g; D2 e6 W" ?. r! i: wCodec ID                                 : A_AC3
) U# ?" Y; ~% k; ?, ~Duration                                 : 8mn 20s+ m/ B7 k. R  T3 Y9 q. ~
Bit rate mode                            : Constant
. g& Q) {! P7 l+ `Bit rate                                 : 192 Kbps- O4 N; f% Z- L7 d& V1 G
Channel(s)                               : 1 channel
( N% n& F: w, G8 L4 ~6 o% z9 JChannel positions                        : Front: C
4 W# a% s9 c  E. k/ k/ j& q; zSampling rate                            : 48.0 KHz
8 e4 F9 J: B2 p  zBit depth                                : 16 bits4 M7 c7 p& Z- h$ o! X3 ?& m
Compression mode                         : Lossy- H# d3 s! e) [# r6 A
Stream size                              : 11.4 MiB (1%)  ?" j; \* b7 K( z
Language                                 : English
+ C) c6 j+ C" ~+ J9 Y" [& ]Default                                  : Yes4 L) a, U* d! s  O0 i2 z2 ^9 ]
Forced                                   : No& M8 K3 v6 e* y& y7 Y
: V( I5 N) H/ u1 |
Text6 D  n+ m7 K8 c. x2 [
ID                                       : 32 I6 o& a" ^$ c6 T7 y
Format                                   : PGS
) O. H, w* G" D. A, T& b8 e! a3 QMuxing mode                              : zlib6 K  W# B  M! u0 X) F
Codec ID                                 : S_HDMV/PGS
6 R- s3 \  K" ~% `8 `0 l9 l/ Q; wCodec ID/Info                            : The same subtitle format used on BDs/HD-DVDs" c. i8 g/ `6 J( c% D' r
Language                                 : English
+ t" d  y3 _* o1 i; H( w: q+ a# U+ {; @* TDefault                                  : Yes
$ m0 e8 c7 ^9 m/ Y# E1 C( VForced                                   : No
# g& K! b( r9 y1 E  m# X
. _: ]( s' T8 q, L$ k
7 [, O9 Z  h$ e# d& i1 _
游客,如果您要查看本帖隐藏内容请回复  捐助论坛可免回复查看隐藏内容 详情请点击
最近访问 头像模式 列表模式
HD一条街,身边的一条街。
发表于 2015-4-9 17:56:16 | 显示全部楼层
既然你诚信诚意的推荐了,那我就勉为其难的看看吧!
HD一条街,身边的一条街。
发表于 2015-4-9 21:05:36 | 显示全部楼层
在HD一条街找到好多东西
HD一条街,身边的一条街。
发表于 2015-4-9 22:38:40 | 显示全部楼层
这个帖子不回对不起自己!
HD一条街,身边的一条街。
发表于 2015-4-10 02:44:09 | 显示全部楼层
感谢楼主分享啊 。
HD一条街,身边的一条街。
您需要登录后才可以回帖 登录 | 加入我们

本版积分规则

手机版|小黑屋|有问题发邮件到admin#(换成@)hd1tj.org|微博|免责申明|HD一条街

GMT+8, 2017-2-28 06:48

Powered by Discuz! X3.1

© 2001-2013 Comsenz Inc.

快速回复 返回顶部 返回列表