开启辅助访问 切换到窄版

HD一条街论坛

 找回密码
 立即注册
查看: 1201|回复: 28

[720P] 国产剧 大秦帝国之裂变(第一部) (第01-42集)CCTV8HD The Qin Empire I E01-42 HDTV 720p x264-MTeamTV 58.9G

[复制链接]
发表于 2015-4-5 11:42:17 | 显示全部楼层 |阅读模式
本帖最后由 让心灵去旅行 于 2015-4-5 11:43 编辑   P" X* e! a: L, {: i" ]( y* H

: ]; ]2 I9 r% C4 I; E& ^5 u 005yyi5Jjw1enhv8pqmzgj30hz0sgag1.jpg 0 T& ~' a7 |6 O. J0 S

; }+ O2 ?6 y& f& O
3 E) U% p: B+ m5 r  Z【基本信息】
* h0 G$ Z& |( [# L, P8 {% H中  文 名:大秦帝国之裂变/大秦帝国第一部/新大秦帝国
3 P  R/ h. v3 j. F# k9 a% i$ O6 O. k8 Q外  文 名:The Qin Empire
' m( L$ O5 G7 N3 H$ E出品时间:2008年2 J- Z7 U% c  l, [* y* B9 O7 h8 O
制片地区:中国大陆
3 a0 u$ s, K3 w拍摄地点:河南焦作
# t6 _- f$ K" z6 O' g7 O* z发行公司:广东梦通文化发展有限公司* F8 S1 O1 V/ i1 o
首播时间:2009年12月18日(中国内地)/2014年10月17日(CCTV首播)% U4 x. Z) U6 |# B7 B1 T3 x
导      演:黄健中、延艺! U6 g4 X! ~* H6 i# A
编      剧:孙皓晖2 A3 W5 v( J: ~
主      演:侯勇,王志飞,卢勇,李立群,高圆圆,吕中, 李立群,许还山
4 g2 q. H: N5 H( X; ~; ~- F集      数:48集(大陆卫视版)/51集(DVD版)
* l: [& x5 A2 s0 p+ y$ u; }每集长度:45分钟; v: K: r+ x5 s# f
类      型:古装,历史,战争
  j% z0 |  T$ W5 F9 }1 D3 \, J% k上映时间:2009年! n/ F9 ^9 T  N4 |  n0 X
主要奖项:第25届中国电视金鹰奖" u+ `3 I) C( w& o/ B
         第25届优秀电视剧奖
! }" O% N' i% S         第25届最佳美术单项奖
. V, Y1 U, O% g& I' d3 i【职员表】( U& E: q# q' K
出  品 人:刘斌、黎瑞刚、舒展、屈向军、焦阳、王亚星" c8 A/ F" s& I' f7 q
监      制:林峰、鲁书潮、陈若凡、蒋安民% m) W1 W7 }0 T. X. W. H
导      演:黄健中、延艺/ K: k4 F7 s$ P9 ?
编      剧:孙皓晖# T; R$ r) c; H/ Z
摄      影:袁晓满 
2 o4 }9 `; S: x- I( _剪      辑:康镇海 2 F1 q; Z# H( k. S5 Q) O6 L
美术设计:靳喜武
! B" V+ \# `4 g  N灯      光:巴树风、杨志杰
- l; T$ y  F7 x. d- K录      音:于强 6 B6 Y# g  Y" f
【演员表】: S1 b' Q# n5 \
秦 孝 公 | 演员 侯    勇
3 d0 C) q( u% o% |0 P/ y商     鞅 | 演员 王 志 飞1 I9 H, e: V' i* |  m2 P
赢     虔 | 演员 卢    勇) Q% r! i5 p( Q1 ?) s! m
魏 惠 王 | 演员 李 立 群
0 g5 ]& ?3 A; o白     雪 | 演员 高 圆 圆3 u7 z+ w: {8 R+ o& E
太     后 | 演员 吕    中% P/ m. U6 p, t# d. ]* }
荧     玉 | 演员 齐    芳" b- r. F# B6 b# b  W% J
庞     涓 | 演员 尤    勇
' ]6 v& k1 G. @) T5 a$ ?7 x" e【剧情简介
0 L& n' R+ q) ?: Q   两千七百年前,华夏民族进入了凡有血气、皆有争心的大争之世,谦谦上古贵族君子风的春秋时代落下帷幕,攻掠征伐、尸横遍野的战国时代隆重登场。时为西北边陲蕞尔小国的秦国饱受六国摧残挞伐,而今已在灭国边缘。秦献公身死战场,年纪轻轻的仲公子渠梁(侯勇 饰)在危难时刻即位,他深藏屈辱,在六国夹攻下苟延残喘,发誓变法崛起。秦孝公渠梁广招天下贤能之士,天不亡秦,曾在魏国并不得志的卫鞅(王志飞 饰)辗转来到秦国,并凭借一身才学和对天下局势的清醒认识而得到秦孝公重用。卫鞅在秦国掀起了影响深远且饱受争议的变法,一代强秦由此崛起。
  1. General, u  L" v1 \- ~7 X
  2. Unique ID                      : 220237573000865560326178717545496442219 (0xA5B036B337E01FA6A148A6878EC9F56B)- Q2 ~  Y0 I  A9 E( h8 U$ \6 ^# a
  3. Complete name                  : C:\上传到PT的文件\CCTV8HD.The.Qin.Empire.I.E01-42.HDTV.720p.x264-MTeamTV\CCTV8HD.The.Qin.Empire.I.E42.HDTV.720p.x264-MTeamTV.mkv5 V8 Z, Z/ F! @) e* g& R6 K, g
  4. Format                         : Matroska6 u0 U) ^- D/ P& b- |+ N9 j
  5. Format version                 : Version 4 / Version 2
    5 n- F# e# u& M# D# c$ A* m
  6. File size                      : 1.40 GiB
    7 P( a5 [4 a, ~7 r, k
  7. Duration                       : 41mn 32s
    % G' `- J( L* r4 F- p$ Z* H" A
  8. Overall bit rate               : 4 821 Kbps% Q6 g, v* M6 e& a
  9. Encoded date                   : UTC 2014-12-11 17:02:29
    7 I' f. z# l3 c
  10. Writing application            : mkvmerge v7.3.0 ('Nouages') 32bit built on Oct 22 2014 18:44:01
    " B6 h5 L# P) t7 P7 O2 ?) ?
  11. Writing library                : libebml v1.3.0 + libmatroska v1.4.1
    ( ~: F& B# d- L* g! c8 @, q
  12. DURATION                       : 00:41:32.896000000
    5 F/ {: `* l; Q- V
  13. NUMBER_OF_FRAMES               : 77903* w8 K5 }4 ~0 G4 A- p" ], o; U) S
  14. NUMBER_OF_BYTES                : 99715840
    " {# {8 C9 O6 z$ T  r
  15. _STATISTICS_WRITING_APP        : mkvmerge v7.3.0 ('Nouages') 32bit built on Oct 22 2014 18:44:01' t7 H& }: r3 S5 w* I- W
  16. _STATISTICS_WRITING_DATE_UTC   : 2014-12-11 17:02:29
      v) O  |7 X" t# Z
  17. _STATISTICS_TAGS               : BPS DURATION NUMBER_OF_FRAMES NUMBER_OF_BYTES
    ! A0 n1 n- A3 ~

  18. , D! a. |* ~: ]' F: r6 f: D* l
  19. Video; X  ^# D( i1 O3 I
  20. ID                             : 1
    0 I  i( W2 n5 X8 [! z
  21. Format                         : AVC9 L% ^' k+ r# r/ K8 T. F+ V$ `8 r
  22. Format/Info                    : Advanced Video Codec
    8 U% T/ l6 C. @# M# b, g: ]9 g
  23. Format profile                 : [email protected]
    8 Q1 V0 ~6 O9 b( [6 m
  24. Format settings, CABAC         : Yes6 L# r2 I7 Z, v% _0 ]9 g6 T; Y
  25. Format settings, ReFrames      : 5 frames* P- X( |% V; K; b1 B4 ^) U9 P
  26. Codec ID                       : V_MPEG4/ISO/AVC7 P% s* f' |* k
  27. Duration                       : 41mn 32s
    8 X" a: I% a# W  [) x: e- g
  28. Bit rate                       : 4 500 Kbps- d- s) `* E( t( E" k
  29. Width                          : 1 280 pixels
      f" m8 X: M1 V# E, R# [
  30. Height                         : 720 pixels- b7 ]. M& c" m( m
  31. Display aspect ratio           : 16:9
    % o9 E% S  U: I) @) p. r& J
  32. Frame rate mode                : Constant
    1 I2 e# Q. b& Y  c/ j* p
  33. Frame rate                     : 24.000 fps
    7 i4 B) Q: s$ I9 \3 y
  34. Color space                    : YUV* g1 m: J* X1 d
  35. Chroma subsampling             : 4:2:0
    % a0 T2 r9 H) T# i$ X
  36. Bit depth                      : 8 bits
    3 ?, t3 g/ d1 J& ]% r7 C
  37. Scan type                      : Progressive
    " f9 x" G/ R, k9 I) t; B8 S
  38. Bits/(Pixel*Frame)             : 0.203" }9 ?' q) ?  ?. ?
  39. Stream size                    : 1.28 GiB (91%)
    7 x& V9 ?6 m6 m
  40. Writing library                : x264 core 133 r2334 a3ac64b
    # k$ g' b* }2 B- ^" s6 I
  41. Encoding settings              : cabac=1 / ref=5 / deblock=1:-3:-3 / analyse=0x3:0x113 / me=umh / subme=7 / psy=1 / psy_rd=1.00:0.00 / mixed_ref=1 / me_range=16 / chroma_me=1 / trellis=1 / 8x8dct=1 / cqm=0 / deadzone=21,11 / fast_pskip=0 / chroma_qp_offset=-2 / threads=12 / lookahead_threads=2 / sliced_threads=0 / nr=0 / decimate=1 / interlaced=0 / bluray_compat=0 / constrained_intra=0 / bframes=3 / b_pyramid=2 / b_adapt=2 / b_bias=0 / direct=3 / weightb=1 / open_gop=0 / weightp=2 / keyint=250 / keyint_min=23 / scenecut=40 / intra_refresh=0 / rc_lookahead=50 / rc=2pass / mbtree=1 / bitrate=4500 / ratetol=1.0 / qcomp=0.70 / qpmin=0 / qpmax=69 / qpstep=4 / cplxblur=20.0 / qblur=0.5 / vbv_maxrate=14000 / vbv_bufsize=14000 / nal_hrd=none / ip_ratio=1.40 / aq=1:1.00
    4 S4 l9 ^. H' B9 m
  42. Language                       : English
    ) n; ]% \( Q0 t& O% P" d" u
  43. Default                        : Yes- n# m2 [2 V; S/ T9 t2 @
  44. Forced                         : No( w" }1 U- n9 m3 e) E

  45. & t6 ], D0 [4 }0 y" v
  46. Audio
    - o: |4 ^* l0 w) z% R2 n9 e4 g0 v- V7 _
  47. ID                             : 2* C1 V" L, j3 }, J
  48. Format                         : AC-3
    9 e4 j3 D4 \- d( K& Y/ q8 y: N: U( W- d
  49. Format/Info                    : Audio Coding 3
    - k, ?- Z/ C- D1 p# @( `: V' ]
  50. Mode extension                 : CM (complete main)
    # M& h/ I) ?2 Q' {. i
  51. Format settings, Endianness    : Big
    & a8 m- d( M0 A5 l2 k1 K* G( |
  52. Codec ID                       : A_AC3+ k; K+ D* K4 Y$ M: o1 Y
  53. Duration                       : 41mn 32s' C) R3 f- c1 p8 Q
  54. Bit rate mode                  : Constant% u# a' ?. j& E/ _8 c
  55. Bit rate                       : 320 Kbps/ ]( _1 c* h( W5 P; v9 u2 K
  56. Channel(s)                     : 2 channels
    + f1 Z" c5 u* ?
  57. Channel positions              : Front: L R0 E! m" U7 R4 O# A8 m
  58. Sampling rate                  : 48.0 KHz
    ) D4 H7 P1 I2 S" n. e
  59. Bit depth                      : 16 bits
    0 T, `8 ]1 q- ^8 X
  60. Compression mode               : Lossy8 D/ o; L5 @; W9 B! }! a9 [; q/ y
  61. Stream size                    : 95.1 MiB (7%)
    * M8 H- D! u8 S% h$ N. c  \% G1 ?' }4 g
  62. Language                       : English9 h& k% O8 J! w
  63. Default                        : Yes
    0 `) z) n1 F' q5 Z
  64. Forced                         : No
复制代码

" |) v: C: g6 J& a" K! m9 ^( A9 m' ~$ B9 }8 t7 Z, j
115网盘  受分享限制,请自行修改文件扩展名*.mkv3 W% W( `* u3 }; C# K6 x0 n
$ l. R2 `# K/ T
游客,如果您要查看本帖隐藏内容请回复  捐助论坛可免回复查看隐藏内容详情请点击
最近访问 头像模式 列表模式
HD一条街,身边的一条街。
发表于 2015-4-5 12:23:35 | 显示全部楼层
thank you very much
HD一条街,身边的一条街。
发表于 2015-4-5 12:42:53 | 显示全部楼层
HD一条街,是我心中的一条街
HD一条街,身边的一条街。
发表于 2015-4-5 15:55:18 | 显示全部楼层
感谢资源分享
HD一条街,身边的一条街。
头像被屏蔽
发表于 2015-4-5 16:10:27 | 显示全部楼层
提示: 作者被禁止或删除 内容自动屏蔽
HD一条街,身边的一条街。
lingding 该用户已被删除
发表于 2015-4-5 17:45:27 | 显示全部楼层
提示: 作者被禁止或删除 内容自动屏蔽
HD一条街,身边的一条街。
头像被屏蔽
发表于 2015-4-5 19:38:39 | 显示全部楼层
提示: 作者被禁止或删除 内容自动屏蔽
HD一条街,身边的一条街。
发表于 2015-4-5 22:02:50 | 显示全部楼层
这东西我收了!谢谢楼主!,love 115
HD一条街,身边的一条街。
发表于 2015-4-5 23:23:41 | 显示全部楼层
谢谢大神分享
HD一条街,身边的一条街。
发表于 2015-4-5 23:56:13 | 显示全部楼层
楼主发贴辛苦了,谢谢楼主分享!
HD一条街,身边的一条街。
您需要登录后才可以回帖 登录 | 立即注册

本版积分规则

手机版|小黑屋|有问题发邮件到admin#(换成@)hd1tj.org|微博|免责申明|HD一条街

GMT+8, 2016-12-4 14:05

Powered by Discuz! X3.1

© 2001-2013 Comsenz Inc.

快速回复 返回顶部 返回列表