HD一条街

 找回密码
 立即注册
搜索
查看: 1177|回复: 10

[720P] [115][韩剧:杀了我治愈我][720P/27.69G][AVI][韩语][黄静茵/池城/朴瑞俊/金釉利/吴民硕]

[复制链接]
发表于 2015-3-13 11:14:59 | 显示全部楼层 |阅读模式
[attach]20392[/attach]


导演: 金镇万
编剧: 陈秀完
主演: 黄静茵 / 池城 / 朴瑞俊 / 金釉利 / 吴民硕
类型: 剧情 / 喜剧 / 爱情
官方网站: www.imbc.com/broad/tv/drama/kmhm/
制片国家/地区: 韩国
语言: 韩语
首播: 2015-01-07(韩国)
集数: 20
单集片长: 60
又名: 杀了我,治愈我 / Kill Me, Heal Me

杀了我治愈我的剧情简介  ·  ·  ·  ·  ·  ·
  《kill me heal me》(《杀了我治愈我》)为韩国MBC电视台于2015年1月7日播出的水木迷你连续剧,由《拥抱太阳的月亮》的编剧陈秀完与《伊甸园之东》的导演金镇万、《Hotel King》的导演金大镇联手打造的以多重人格障碍为题材的新剧,并加入神秘推理情节,首次挑战韩剧前所未有的全新题材。
  本剧由中韩合作投资亿元联合打造,是首部结合韩国公司策划和制作实力以及中方资本的电视剧作品。讲述有七重人格的财阀三世车度贤(池城 饰)和他的秘密女主治医生——第一年实习医生吴悧珍(黄静茵 饰)的治愈系、搞笑、浪漫、爱情故事。
  伴随着治疗逐步揭开的残酷家族史,以及男主角的主人格和他的六种交替人格为了占据自己的身体和时间而展开的争夺战,将会为观众带来时而惊心动魄,时而欢天喜地,又时而令人潸然泪下的冬日暖阳般的故事。
  1. Video
  2. ID                               : 0
  3. Format                           : AVC
  4. Format/Info                      : Advanced Video Codec
  5. Format profile                   : High@L5.1
  6. Format settings, CABAC           : Yes
  7. Format settings, ReFrames        : 4 frames
  8. Codec ID                         : H264
  9. Duration                         : 1h 4mn
  10. Bit rate                         : 3 000 Kbps
  11. Width                            : 1 280 pixels
  12. Height                           : 720 pixels
  13. Display aspect ratio             : 16:9
  14. Frame rate mode                  : Variable
  15. Frame rate                       : 29.970 fps
  16. Color space                      : YUV
  17. Chroma subsampling               : 4:2:0
  18. Bit depth                        : 8 bits
  19. Scan type                        : Progressive
  20. Bits/(Pixel*Frame)               : 0.109
  21. Stream size                      : 1.35 GiB (94%)
  22. Writing library                  : x264 core 112
  23. Encoding settings                : cabac=1 / ref=3 / deblock=1:-1:-1 / analyse=0x3:0x113 / me=hex / subme=6 / psy=1 / psy_rd=1.00:1.00 / mixed_ref=1 / me_range=16 / chroma_me=1 / trellis=1 / 8x8dct=1 / cqm=0 / deadzone=21,11 / fast_pskip=0 / chroma_qp_offset=-4 / threads=12 / sliced_threads=0 / nr=0 / decimate=1 / interlaced=0 / constrained_intra=0 / bframes=3 / b_pyramid=2 / b_adapt=1 / b_bias=1 / direct=3 / weightb=1 / open_gop=0 / weightp=2 / keyint=299 / keyint_min=25 / scenecut=1 / intra_refresh=0 / rc_lookahead=40 / rc=abr / mbtree=1 / bitrate=3000 / ratetol=1.0 / qcomp=0.60 / qpmin=10 / qpmax=51 / qpstep=4 / ip_ratio=1.40 / aq=1:1.00

  24. Audio
  25. ID                               : 1
  26. Format                           : MPEG Audio
  27. Format version                   : Version 1
  28. Format profile                   : Layer 3
  29. Mode                             : Joint stereo
  30. Mode extension                   : MS Stereo
  31. Codec ID                         : 55
  32. Codec ID/Hint                    : MP3
  33. Duration                         : 1h 4mn
  34. Bit rate mode                    : Constant
  35. Bit rate                         : 192 Kbps
  36. Channel(s)                       : 2 channels
  37. Sampling rate                    : 48.0 KHz
  38. Stream size                      : 88.0 MiB (6%)
  39. Alignment                        : Split accross interleaves
  40. Interleave, duration             : 33 ms (1.00 video frame)
  41. Interleave, preload duration     : 500 ms
  42. Writing library                  : LAME3.98.2
复制代码


[attach]20393[/attach]

115网盘
购买主题 已有 6 人购买  本主题需向作者支付 30 金币 才能浏览 VIP+用户组可免费查看,详情请点击
钟意 该用户已被删除
发表于 2015-3-14 09:41:41 | 显示全部楼层
提示: 作者被禁止或删除 内容自动屏蔽
头像被屏蔽
发表于 2015-3-14 18:41:06 | 显示全部楼层
提示: 作者被禁止或删除 内容自动屏蔽
发表于 2015-3-14 21:36:02 | 显示全部楼层
下载下来看看
发表于 2015-3-15 16:06:02 | 显示全部楼层
既然你诚信诚意的推荐了,那我就勉为其难的看看吧!
_『娜』メ 该用户已被删除
发表于 2015-3-16 12:14:38 | 显示全部楼层
提示: 作者被禁止或删除 内容自动屏蔽
liveinbj 该用户已被删除
发表于 2015-3-16 12:31:51 | 显示全部楼层
提示: 作者被禁止或删除 内容自动屏蔽
发表于 2015-3-16 14:19:16 | 显示全部楼层
这个帖子不回对不起自己!
凌雪汐 该用户已被删除
发表于 2015-4-26 18:23:14 | 显示全部楼层
提示: 作者被禁止或删除 内容自动屏蔽
发表于 2015-5-5 14:34:46 | 显示全部楼层
楼主发贴辛苦了,谢谢楼主分享!
您需要登录后才可以回帖 登录 | 立即注册

本版积分规则

QQ|封号公示|有问题发邮件到admin#(换成@)hd1tj.org|微博|免责申明|HD一条街

GMT+8, 2021-4-12 08:45

快速回复 返回顶部 返回列表