HD一条街

 找回密码
 立即注册
搜索
查看: 1707|回复: 12

[720P] [无台标无字幕纯净版][台剧:终极恶女 全26集][720P/11.86G][MP4][国语 无字幕][那维勋/蔡芷纭/陈博正]

[复制链接]
发表于 2015-2-17 20:41:54 | 显示全部楼层 |阅读模式
[free][attach]19704[/attach]

导演: 翁靖廷 / 柯政铭
编剧: 龚敏惠
主演: 那维勋 / 蔡芷纭 / 陈博正 / 文雨非 / 程予希 / 更多...
类型: 剧情 / 科幻
制片国家/地区: 台湾
语言: 汉语普通话
首播: 2014-11-22
集数: 26
单集片长: 60分钟
又名: K.O. Bad Girls / Angel 'N' Devil

终极恶女的剧情简介  ·  ·  ·  ·  ·  ·
  不管是在哪个时空,善与恶的战争,永远都不会结束,有光的地方就有黑暗,在光明遮蔽时,黑暗就会产生…
  铜时空的战士们与黑暗对抗,出生入死,默默守护着铜时空,如果最后的希望…
  1. Video
  2. ID                                       : 1
  3. Format                                   : AVC
  4. Format/Info                              : Advanced Video Codec
  5. Format profile                           : Main@L3.1
  6. Format settings, CABAC                   : Yes
  7. Format settings, ReFrames                : 4 frames
  8. Codec ID                                 : avc1
  9. Codec ID/Info                            : Advanced Video Coding
  10. Duration                                 : 45mn 4s
  11. Bit rate                                 : 1 405 Kbps
  12. Width                                    : 1 280 pixels
  13. Height                                   : 720 pixels
  14. Display aspect ratio                     : 16:9
  15. Frame rate mode                          : Constant
  16. Frame rate                               : 25.000 fps
  17. Color space                              : YUV
  18. Chroma subsampling                       : 4:2:0
  19. Bit depth                                : 8 bits
  20. Scan type                                : Progressive
  21. Bits/(Pixel*Frame)                       : 0.061
  22. Stream size                              : 453 MiB (84%)
  23. Writing library                          : x264 core 138 r2 9e941d1
  24. Encoding settings                        : cabac=1 / ref=1 / deblock=1:0:0 / analyse=0x1:0 / me=dia / subme=2 / psy=1 / psy_rd=1.00:0.00 / mixed_ref=0 / me_range=16 / chroma_me=1 / trellis=0 / 8x8dct=0 / cqm=0 / deadzone=21,11 / fast_pskip=1 / chroma_qp_offset=0 / threads=12 / lookahead_threads=4 / sliced_threads=0 / nr=0 / decimate=1 / interlaced=0 / bluray_compat=0 / constrained_intra=0 / bframes=3 / b_pyramid=2 / b_adapt=1 / b_bias=0 / direct=1 / weightb=1 / open_gop=0 / weightp=2 / keyint=300 / keyint_min=25 / scenecut=40 / intra_refresh=0 / rc_lookahead=40 / rc=crf / mbtree=1 / crf=23.0 / qcomp=0.60 / qpmin=0 / qpmax=69 / qpstep=4 / ip_ratio=1.40 / aq=1:1.00
  25. Tagged date                              : UTC 2014-11-22 13:16:31

  26. Audio
  27. ID                                       : 2
  28. Format                                   : AAC
  29. Format/Info                              : Advanced Audio Codec
  30. Format profile                           : LC
  31. Codec ID                                 : 40
  32. Duration                                 : 45mn 5s
  33. Bit rate mode                            : Constant
  34. Bit rate                                 : 192 Kbps
  35. Channel(s)                               : 2 channels
  36. Channel positions                        : Front: L R
  37. Sampling rate                            : 48.0 KHz
  38. Compression mode                         : Lossy
  39. Stream size                              : 61.9 MiB (11%)
  40. Language                                 : English
  41. Tagged date                              : UTC 2014-11-22 13:16:31
复制代码


[attach]19700[/attach]
[attach]19701[/attach]
[attach]19702[/attach]
[attach]19703[/attach]

购买主题 已有 9 人购买  本主题需向作者支付 100 金币 才能浏览 VIP+用户组可免费查看,详情请点击
发表于 2015-2-17 21:18:58 | 显示全部楼层
这个帖子不回对不起自己!
发表于 2015-2-17 21:38:26 | 显示全部楼层
楼主发贴辛苦了,谢谢楼主分享!
发表于 2015-2-17 23:49:56 | 显示全部楼层
台湾挺不错
发表于 2015-2-18 05:18:55 | 显示全部楼层
楼主发贴辛苦了,谢谢楼主分享!
发表于 2015-2-18 13:45:46 | 显示全部楼层
在HD一条街找到好多东西
发表于 2015-2-20 20:57:52 | 显示全部楼层
買完30金幣的帖子 才知道是115的禮包,要接收禮包還要買115的會員,暈了
化蝶 该用户已被删除
发表于 2015-3-7 13:03:04 | 显示全部楼层
提示: 作者被禁止或删除 内容自动屏蔽
发表于 2015-3-7 19:24:32 | 显示全部楼层
影视资源尽在HD一条街中, 哦也!
caihong1052 该用户已被删除
发表于 2015-3-10 12:37:34 | 显示全部楼层
提示: 作者被禁止或删除 内容自动屏蔽
您需要登录后才可以回帖 登录 | 立即注册

本版积分规则

QQ|封号公示|有问题发邮件到admin#(换成@)hd1tj.org|微博|免责申明|HD一条街

GMT+8, 2021-4-12 08:14

快速回复 返回顶部 返回列表