HD一条街

 找回密码
 立即注册
搜索
查看: 1256|回复: 22

[MV] 韩国女团Apink新曲《LUV》MV 1080P全高清 APink LUV (Bugs ver)._FULL HD 343M

[复制链接]
发表于 2014-11-25 17:21:27 | 显示全部楼层 |阅读模式

马上注册,结交更多好友,享用更多功能,让你轻松玩转社区。

您需要 登录 才可以下载或查看,没有帐号?立即注册

x
本帖最后由 让心灵去旅行 于 2014-11-25 18:14 编辑
9 u/ x, B& S# b! L2 z7 k7 @
8 R' @5 Z2 k" d; V/ E 988592012_8B16gipJ_LUV_BFA1C0CCC7CEC5A928Apink29_28Bugs_ver29._FULL_HD.mp4_20141.jpg   K; _, H6 N) E- d2 I' ]
988592012_i0T3w4BF_LUV_BFA1C0CCC7CEC5A928Apink29_28Bugs_ver29._FULL_HD.mp4_20141.jpg
8 ~- W9 v& N1 I4 @; \; \/ N, }* n 988592012_KdCN4qOu_LUV_BFA1C0CCC7CEC5A928Apink29_28Bugs_ver29._FULL_HD.mp4_20141.jpg
4 f% T/ u7 D8 N, U! }) l# ?( ]; K1 F2 C

0 v: j" T+ q& o$ |: p- q
1 y- s0 U4 c$ s4 k据韩国《亚洲经济》报道,截至24日上午7时,韩国人气女团Apink的新曲《LUV》自当日零时公开后,迅速登上了Melon、Mnet、Olleh Music、Soribada等韩国八大音乐排行榜冠军。
  T) r, j5 n3 {  V1 I
5 e2 e, g! U, _' h  据了解,新曲《LUV》出自Apink第五张迷你专辑《Pink LUV》,Apink通过该曲展现了女性成熟美的魅力,也彰显Apink不同于以往的崭新曲风。
5 p, A& Q, c7 g. j9 f$ ?: D- x
: Z7 s! l" b' j; e% Q  另外,20日下午,Apink在首尔江南区三城洞JBK Convention Hall举行了第五张迷你专辑《Pink LUV》的回归Showcase,表演了专辑主打歌《LUV》和收录曲《Secret》。    % w) q1 D: K5 m+ i3 l) X7 C3 j4 m
" h! P& S7 [* m7 q' l% n
  1. Video
    . y0 F5 U! a- u: x- f
  2. ID                             : 1
    * I; e) M3 X7 H% r& `
  3. Format                         : AVC
    / K8 H/ c/ \" i( q+ L2 Y# \
  4. Format/Info                    : Advanced Video Codec% U7 f: q) K0 t; P& _  W; [! a1 l; S, J
  5. Format profile                 : High@L3.1
    4 Q2 R8 i: }" p
  6. Format settings, CABAC         : Yes
    , q+ X% R- K0 n; l  h
  7. Format settings, ReFrames      : 1 frame% @: }* V# W$ ^2 k- B
  8. Codec ID                       : avc1; z. ]2 \. |5 P7 ]6 F' c& D
  9. Codec ID/Info                  : Advanced Video Coding+ p' V0 g3 F: e$ |) W" F! r- l* h
  10. Duration                       : 4mn 2s
    " z; I/ b  U( X/ w( V
  11. Bit rate                       : 10.4 Mbps
    * e/ T, ?; k9 m5 x8 o
  12. Maximum bit rate               : 19.7 Mbps8 V1 {1 f+ d' k! F* j
  13. Width                          : 1 920 pixels
    2 g  n- J- K" \. m
  14. Height                         : 1 080 pixels# o- V5 y' x' m' {% j
  15. Display aspect ratio           : 16:95 |: {0 Q$ h3 E( V& h  R: n3 k
  16. Frame rate mode                : Constant, p, d4 E. O( V0 d0 S
  17. Frame rate                     : 23.976 fps
    1 R1 ^/ D# m. I2 ]! ^3 m% |6 n
  18. Color space                    : YUV
    4 E. W  N6 r% v2 e8 x
  19. Chroma subsampling             : 4:2:05 y1 ^5 o! c8 y8 h" C
  20. Bit depth                      : 8 bits/ \) e( u4 Z6 {' L, ]* [/ q
  21. Scan type                      : Progressive
    2 [# N' X0 }- B+ ?0 [; B) t- U' Y
  22. Bits/(Pixel*Frame)             : 0.210
    ' |5 [9 {% p: S' l
  23. Stream size                    : 302 MiB (88%)( ?; \3 g& f! K" `0 ^
  24. Title                          : Apink - LUV Original Bugs MV
    3 `( ]# h: |9 ~# I7 M, K7 ~
  25. Encoded date                   : UTC 1970-01-01 00:00:00
    / m- G# b! n. i. e) O) `. a7 i
  26. Tagged date                    : UTC 2014-11-24 07:02:11$ P4 D7 G0 N; W& ?

  27. % S$ T) I+ T! @" h  e, O& ]# P
  28. Audio #1
    8 J5 \$ _- c3 V5 D# B
  29. ID                             : 2- p6 F: M' D9 s! d4 ]0 J1 M
  30. Format                         : ALAC
    7 W7 _1 L# p1 u% q; k" a4 N- _; C4 S
  31. Codec ID                       : alac& X$ V+ u" \. _5 ^! O& w3 S
  32. Codec ID/Info                  : Apple Lossless Audio Codec* \7 z" e+ U6 q  w( N0 W8 `# j
  33. Duration                       : 4mn 2s$ L2 C5 [2 A& Q
  34. Bit rate mode                  : Variable
    5 X4 j3 P! U- A, o6 O& v
  35. Bit rate                       : 1 107 Kbps
      A' p# x1 p2 k! U) c; I
  36. Channel(s)                     : 2 channels. k& |' G& G; z- |5 u8 Y7 K  _
  37. Sampling rate                  : 48.0 KHz, b7 A  w' `% y9 j. |" e9 W
  38. Bit depth                      : 16 bits
    ( ?$ r7 W* c4 |3 O! I( @7 T: p
  39. Stream size                    : 32.0 MiB (9%)
    7 h9 B- }( {% W' U0 ^
  40. Title                          : Bugs lossless Music Sync EDIT by SKullHD$ w7 K" ^/ s* F% K, F2 s$ b& {
  41. Language                       : Korean  [2 I% F$ x: a1 W
  42. Encoded date                   : UTC 2014-11-24 06:59:33
    1 d7 d, G2 D+ O# r
  43. Tagged date                    : UTC 2014-11-24 07:02:11- A4 I1 P- z1 z

  44. * J$ j6 {# j! ?4 @7 _% c
  45. Audio #2: s# k0 S6 I9 P9 |0 p6 A7 u# O
  46. ID                             : 3
    5 k' f' ^; e- U% J0 u+ k
  47. Format                         : AAC( K$ V5 B# p+ J7 {+ ?- I
  48. Format/Info                    : Advanced Audio Codec. H6 _  a* ], G
  49. Format profile                 : LC
    ( @/ F2 \7 R! A. a5 J( }
  50. Codec ID                       : 401 B* N' d1 _( E- q7 t
  51. Duration                       : 4mn 2s
    - W# E. o+ S7 |8 t# E4 z
  52. Bit rate mode                  : Variable' r' V' n) t5 _; K  M4 I
  53. Bit rate                       : 324 Kbps! N: q5 d' K7 J4 q4 h4 b! o
  54. Maximum bit rate               : 493 Kbps6 k0 }# }( g; m# F5 E6 I; j
  55. Channel(s)                     : 2 channels
    / G1 W/ C0 ]( _) c# X$ b
  56. Channel positions              : Front: L R" u  ^5 k/ r0 F; {0 v
  57. Sampling rate                  : 48.0 KHz
    # @+ X- X" ~4 G. N% q1 }1 E* K
  58. Compression mode               : Lossy
    7 x  `* I/ M# g$ _9 I, N1 m
  59. Stream size                    : 9.38 MiB (3%)
    9 ~5 d+ T8 E$ G0 G
  60. Title                          : Music Sync EDIT by SKullHD; a+ x! @/ w: y7 f3 C% w
  61. Language                       : Korean0 X1 f. o) S' Y# V+ C( i) c
  62. Encoded date                   : UTC 2014-11-24 06:59:25& c# ?% E/ w5 z, k  y: R9 L9 g
  63. Tagged date                    : UTC 2014-11-24 07:02:11
复制代码

" p- c2 @( u; Q5 w! z3 v
/ X/ @3 h" M' B4 z, h  u' ` euQ9p.jpg ( n1 d- s$ `7 r; i" t7 m
GyMnX.jpg
' a. Y, `+ o. A0 T KtA1Y.jpg
. Z2 \7 r1 Z2 t: b Nn8wp.jpg
3 m6 H4 J, V' V& N8 j- b qyvak.jpg
3 k4 B8 }; ]# c7 b2 Y2 d, W* _
0 s3 J  l+ l) k  d: _" `* {0 B
游客,如果您要查看本帖隐藏内容请回复  VIP可免回复查看隐藏内容 详情请点击
发表于 2014-11-25 17:59:35 | 显示全部楼层
韩国Apink.MV,高清的, 出来的蛮快的  谢谢分享
发表于 2014-11-25 18:16:26 | 显示全部楼层
为了维护HD一条街的和平,我必须打满这些字,拒绝灌水,拒绝广告,争做论坛良好公民!
发表于 2014-11-25 19:31:13 | 显示全部楼层
HD一条街,是我心中的一条街
发表于 2014-11-25 20:34:21 | 显示全部楼层
HD一条街,是我心中的一条街
发表于 2014-11-25 21:16:58 | 显示全部楼层
hao de bu de liao
咬住粒雪 该用户已被删除
发表于 2014-11-25 22:58:39 | 显示全部楼层
提示: 作者被禁止或删除 内容自动屏蔽
反派角色 该用户已被删除
发表于 2014-11-25 23:07:54 | 显示全部楼层
提示: 作者被禁止或删除 内容自动屏蔽
头像被屏蔽
发表于 2014-11-26 08:42:54 | 显示全部楼层
提示: 作者被禁止或删除 内容自动屏蔽
发表于 2014-11-26 11:35:03 | 显示全部楼层
希望楼主在HD一条街里多多发布更好的资源
您需要登录后才可以回帖 登录 | 立即注册

本版积分规则

QQ|封号公示|有问题发邮件到admin#(换成@)hd1tj.org|微博|免责申明|HD一条街

GMT+8, 2021-4-13 06:25

快速回复 返回顶部 返回列表