开启辅助访问 切换到窄版

HD一条街论坛

 找回密码
 立即注册
查看: 484|回复: 31

[其它] 超时空要爱[国粤双语 中英字幕]Timeless.Romance.1998.2Audio.DVDRip.XVID.AC3.iNT-HKDY 1.36G

[复制链接]
发表于 2014-9-25 23:09:41 | 显示全部楼层 |阅读模式
本帖最后由 让心灵去旅行 于 2014-9-25 23:11 编辑 $ U. L# H. F' _
- S, o5 I& t3 B# t* e  w) o2 B* V& e
TjoUy.jpg ! E7 {8 j7 h1 c5 E0 K

: M" G/ |: u  i' }9 U2 ~
+ [+ W( ^. Y0 O- D7 h$ o导演: 黎大炜
6 K3 {# ]7 [6 I编剧: 刘镇伟
9 k2 l2 e, R7 q7 f, p0 c& b主演: 梁朝伟 / 李绮虹 / 刘以达 / 林尚义 / 赵银淑 / 八两金 / 李枫
0 M4 k& y- W9 m0 s3 K类型: 喜剧 / 动作 / 犯罪 / 奇幻
. H! P; ?1 U  y2 E) m2 t制片国家/地区: 香港- M: Z2 X" f6 y! g7 q( @
语言: 粤语/国语$ i6 j1 L' N* A
上映日期: 1998-03-05(香港)' O4 |/ [; y, v* N7 A
片长: 95分钟
8 P& C4 A1 j# B, g! M又名: Timeless Romance / Chiu si hung yiu oi / Beyond Time Space Want Love0 \- d4 u/ c0 e
IMDb链接: http://www.imdb.com/title/tt01635814 L% N# c# K8 ]# n9 c" J
9 P8 A" g5 f( Z3 ~8 y
, h4 n+ @6 g6 @# [
超时空要爱的剧情简介  ·  ·  ·  ·  ·  ·( y, a0 G- |+ R
  警察刘一路(梁朝伟饰)某天在路上突然接到一个电话,告诉他千万要劝阻“那个”女孩自杀,因为女孩的生死会成为他人生的转折点。刘一路对这通电话感到莫名无比,而就在这时,两个流氓Gigi(李绮虹饰)大飞(刘以达饰)在街上枪战,刘一路喉部误中大飞子弹。
8 r8 ^) F( Q; @" |' r  被送到医院抢救后,刘一路灵魂出窍,遇上了一个身无寸缕的少女,一番言语后,刘一路却突然重返人间,但刚才的少女已经躺在他身边死了。刘回想起之前的奇怪电话,突然觉得这也许就是上帝的启示,于是,他决定仔细调查少女的死因。
" C6 I7 R+ v4 q) r  原来,少女是被富豪曹强奸后割腕自杀,而重要的证人Gigi和大飞也欲为富豪所灭口,开始了逃亡生涯。刘一路为了追随两人,居然回到了三国时代?
  1. Format                                   : AVI
    6 g5 |- t# o  m: J6 \
  2. Format/Info                              : Audio Video Interleave
    5 Z' A% v) v9 O" S9 @% t4 B
  3. File size                                : 1.36 GiB
    ) g9 _; n% K, ^  y9 |* b% _
  4. Duration                                 : 1h 34mn7 h" W- e" D' [0 f0 s
  5. Overall bit rate                         : 2 060 Kbps! ~& i" E( [$ {- G5 Y
  6. Writing application                      : VirtualDubMod 1.5.10.2 (build 2540/release)2 p; h3 e8 O& e0 I
  7. Writing library                          : VirtualDubMod build 2540/release
    : D) n: F6 E8 L- Z; z
  8.   z* F6 e5 y, @6 l+ ~
  9. Video
    4 a. A7 L( ^  W+ C8 x5 G, I3 X8 k
  10. ID                                       : 0
    3 T( }8 }7 E' i2 J
  11. Format                                   : MPEG-4 Visual
    / O! W( V% E  Y8 I( T+ |& P5 a1 c
  12. Format profile                           : Advanced [email protected]
    ! y, v" S& B( K9 \$ @8 q$ J5 M
  13. Format settings, BVOP                    : 24 E. |, m6 A% U( }+ `6 b* E
  14. Format settings, QPel                    : No" F2 X8 h: s7 Z* |- {! `: X
  15. Format settings, GMC                     : No warppoints
    8 h8 @* w5 J5 R3 f6 z
  16. Format settings, Matrix                  : Default (H.263)
    & n5 R% k/ Z; |! [% E' v
  17. Muxing mode                              : Packed bitstream
    ) Q$ S8 J" {, D; I8 e
  18. Codec ID                                 : XVID8 Z# n, R9 I8 e
  19. Codec ID/Hint                            : XviD
    - v6 q8 X8 t' w1 S. k5 s
  20. Duration                                 : 1h 34mn
    5 X) {+ u4 n8 G. x1 T" {
  21. Bit rate                                 : 1 470 Kbps; @% q5 n- X3 O4 E0 C! T
  22. Width                                    : 640 pixels; N- o4 o! Q" {) E! j  Z- |6 o
  23. Height                                   : 352 pixels
    # g* \5 j7 e, L
  24. Display aspect ratio                     : 16:9- N5 B7 ^! M7 _7 h8 ]: w; M; k
  25. Frame rate                               : 23.976 fps4 y5 n  x  ]- D% n: l* H7 m) r
  26. Color space                              : YUV
    6 c8 I0 N" F* G4 h3 U7 h" {# X
  27. Chroma subsampling                       : 4:2:0
    ( c( I7 D; Y" B/ m3 j
  28. Bit depth                                : 8 bits
    1 ]! Q, M, v' A7 c
  29. Scan type                                : Progressive& f8 q6 H, Q2 g- y6 K( W% j
  30. Compression mode                         : Lossy- s) Y* p& g) T; M
  31. Bits/(Pixel*Frame)                       : 0.272
    . m# Y! U) L, c; b9 K0 k) F: k
  32. Stream size                              : 997 MiB (71%)
    4 v; S' w. W: i8 I+ a5 p1 r( M
  33. Writing library                          : XviD 1.2.1 (UTC 2008-12-04)
    " K+ a6 d  I0 c2 X8 z9 [/ v
  34. . B1 N  U# [+ b( Y
  35. Audio #1
    , G# L6 v3 G( H1 _' C
  36. ID                                       : 1! L; `) G5 u5 a; `1 X
  37. Format                                   : AC-31 U7 w5 {0 i4 J1 l
  38. Format/Info                              : Audio Coding 3- y' C  k' e; ?( T6 {8 d9 E$ e
  39. Mode extension                           : CM (complete main)) R# n* Y/ c" n+ ]; O, \
  40. Format settings, Endianness              : Big+ L/ P# o  x5 @" j* h
  41. Codec ID                                 : 2000; K5 n( p- U# U2 R7 w: M9 e
  42. Duration                                 : 1h 34mn9 y# y& @3 k4 B1 ]3 m/ h
  43. Bit rate mode                            : Constant3 m1 }7 B% L% z
  44. Bit rate                                 : 384 Kbps
    + U8 H( M! C6 n
  45. Channel(s)                               : 3 channels
    & P8 l. g: b: C6 p3 |+ w/ N( t# M0 n
  46. Channel positions                        : Front: L R, LFE
    ' F; [2 I. z! R' A# ]4 M
  47. Sampling rate                            : 48.0 KHz1 t7 R! Z; v% s1 m
  48. Bit depth                                : 16 bits8 w. E4 F: U/ E/ C# u" g& q. @
  49. Compression mode                         : Lossy& i: u/ ^( }3 `6 O7 ^+ _
  50. Stream size                              : 260 MiB (19%)6 x  J1 N& o) M, s: h) H' t
  51. Alignment                                : Split accross interleaves* {8 l: e1 H- g9 {! P
  52. Interleave, duration                     : 42 ms (1.00 video frame)6 ~9 ?  g' o& H, u
  53. Interleave, preload duration             : 500 ms
    ' t- O1 |- V! e1 r3 i' S5 k% G2 J( s+ O

  54. # H4 K. E9 s2 G1 G  J, n. F
  55. Audio #23 ^1 p; B: `8 \0 c( f
  56. ID                                       : 2
    9 d* t5 C/ {2 W
  57. Format                                   : AC-3
    , |$ O. R; ?+ Y$ |5 O: J7 B$ S
  58. Format/Info                              : Audio Coding 3
    9 ?0 T& X+ o/ y; @7 r+ @- d
  59. Mode extension                           : CM (complete main)
    3 f3 G6 g0 V+ L& Q5 R6 u! @
  60. Format settings, Endianness              : Big9 h9 i1 s0 ?5 i" T
  61. Codec ID                                 : 20004 \4 J8 ?/ c+ o$ p
  62. Duration                                 : 1h 34mn! L, b* _; {) ^# D. Q; V
  63. Bit rate mode                            : Constant
    ( f* h2 ]9 M# J  i; `: K3 \
  64. Bit rate                                 : 192 Kbps
    ' f2 C; m' P3 c- k0 V
  65. Channel(s)                               : 3 channels
    + m% L: @3 K2 R% P3 J
  66. Channel positions                        : Front: L R,   Side: C
    4 m; \0 I& Z0 t
  67. Sampling rate                            : 48.0 KHz
    2 U- m% @& L( S5 v
  68. Bit depth                                : 16 bits
    # A& A, M( Y8 ?8 y5 P
  69. Compression mode                         : Lossy
    ( ~: L! Z0 S( s9 k
  70. Stream size                              : 130 MiB (9%)9 v/ |7 ?( C' B$ Y7 w2 v) j
  71. Alignment                                : Split accross interleaves
    - S- A5 t% B9 s: \# X
  72. Interleave, duration                     : 42 ms (1.00 video frame)! V/ D2 d4 o7 y8 |* g9 Q6 w) H
  73. Interleave, preload duration             : 500 ms
复制代码
- k7 S0 ^' z# d& u% u$ Y

% D2 o( l8 D! t) F5 Q
$ W! ]) o. ^, I( |/ G 4sdIi.png , _1 c7 v, j, Y" Z& j2 ]
8GIjK.png 4 p! [8 H9 B. N9 ^* P
9saLm.png
! Z' C, n. ?1 ^0 D" y iETIq.png # ?$ F6 }0 ]0 R( @/ s
JBhaF.png - H+ N2 X- Z2 L) c7 r+ i" S
KXiDB.png   }3 [  @( g* _5 Q1 k
mLPt5.png
8 C' i# b% x- Z3 ^$ \ pk87O.png
4 g# W! b7 @3 \' S$ q publ.png / w! {2 ?( s( @4 b( G
SK0bc.png
! g) j# d* R5 Y& F8 ^( n( j vwDqK.png ) @- |5 B' w2 H( C; M
XajK.png 2 M' u# L. O+ L4 F; d( M) w
Y2HcE.png + `, @  M" ]1 \% G! W/ `" f! T
! d! z! Q1 w' O9 {6 T
7 ^& j& M9 G, Q! ~5 z8 j
游客,如果您要查看本帖隐藏内容请回复  捐助论坛可免回复查看隐藏内容详情请点击

0 s) X1 ~3 A' E0 Q+ ^& d* E5 p( _4 Q" S7 p, u
中英字幕' F* }8 u: j0 @( ?/ o* `  O1 J
4 J3 F% M& o, y9 e: i$ ~1 c
游客,如果您要查看本帖隐藏内容请回复  捐助论坛可免回复查看隐藏内容详情请点击
最近访问 头像模式 列表模式
HD一条街,身边的一条街。
发表于 2014-9-25 23:36:10 | 显示全部楼层
不错,又占了一个沙发!
HD一条街,身边的一条街。
发表于 2014-9-25 23:39:38 | 显示全部楼层
为了维护HD一条街的和平,我必须打满这些字,拒绝灌水,拒绝广告,争做论坛良好公民!
HD一条街,身边的一条街。
发表于 2014-9-25 23:47:06 | 显示全部楼层
啥也不说了,楼主就是给力!
HD一条街,身边的一条街。
发表于 2014-9-26 00:09:08 | 显示全部楼层
为了维护HD一条街的和平,我必须打满这些字,拒绝灌水,拒绝广告,争做论坛良好公民!
HD一条街,身边的一条街。
发表于 2014-9-26 00:30:59 | 显示全部楼层
影视资源尽在HD一条街中, 哦也!
HD一条街,身边的一条街。
发表于 2014-9-26 00:42:36 | 显示全部楼层
多谢版主分享好电影,喜欢的类型
HD一条街,身边的一条街。
发表于 2014-9-26 01:22:15 | 显示全部楼层
看了LZ的帖子,我只想说一句很好很强大!
HD一条街,身边的一条街。
tkphilip 该用户已被删除
发表于 2014-9-26 01:41:30 | 显示全部楼层
提示: 作者被禁止或删除 内容自动屏蔽
HD一条街,身边的一条街。
发表于 2014-9-26 02:12:36 | 显示全部楼层
貌似是值得支持的好东西
HD一条街,身边的一条街。
您需要登录后才可以回帖 登录 | 立即注册

本版积分规则

手机版|小黑屋|有问题发邮件到admin#(换成@)hd1tj.org|微博|免责申明|HD一条街

GMT+8, 2016-12-9 07:55

Powered by Discuz! X3.1

© 2001-2013 Comsenz Inc.

快速回复 返回顶部 返回列表