开启辅助访问 切换到窄版

HD一条街论坛

 找回密码
 加入我们
查看: 554|回复: 31

[其它] 超时空要爱[国粤双语 中英字幕]Timeless.Romance.1998.2Audio.DVDRip.XVID.AC3.iNT-HKDY 1.36G

[复制链接]
发表于 2014-9-25 23:09:41 | 显示全部楼层 |阅读模式
本帖最后由 让心灵去旅行 于 2014-9-25 23:11 编辑
' L; ?4 v& V) S8 u. e) `8 E& ?& i/ d: K+ @$ `% E
TjoUy.jpg / [2 ?$ K) Q, j
& g4 w; |. A1 a; h! S0 [( k
. z: O$ i" z8 |8 W
导演: 黎大炜) q% m: T" E7 D+ H0 q3 ?
编剧: 刘镇伟$ E% E$ M3 T: n9 o# |) b) l
主演: 梁朝伟 / 李绮虹 / 刘以达 / 林尚义 / 赵银淑 / 八两金 / 李枫6 N2 q# P: q; T+ b  T7 \
类型: 喜剧 / 动作 / 犯罪 / 奇幻, ~: {2 O% `; [
制片国家/地区: 香港
: n& ~( s9 B% O! [; E- W语言: 粤语/国语
7 o, p: ]2 o  h" b0 ~上映日期: 1998-03-05(香港): }6 L7 a& I2 N4 W, a' ^) L
片长: 95分钟
/ _6 e/ ^7 H% i( u+ v7 x又名: Timeless Romance / Chiu si hung yiu oi / Beyond Time Space Want Love
- w$ v0 T2 t/ k6 l, ^' \5 T) qIMDb链接: http://www.imdb.com/title/tt0163581
1 o2 A: ?/ L8 V. x1 b) p. |7 X- }& s( b; @6 t7 C8 K; x% m; h3 T  ]

$ |( Q' o  q; Q超时空要爱的剧情简介  ·  ·  ·  ·  ·  ·
) ?+ u2 Y7 F9 {  警察刘一路(梁朝伟饰)某天在路上突然接到一个电话,告诉他千万要劝阻“那个”女孩自杀,因为女孩的生死会成为他人生的转折点。刘一路对这通电话感到莫名无比,而就在这时,两个流氓Gigi(李绮虹饰)大飞(刘以达饰)在街上枪战,刘一路喉部误中大飞子弹。   ~' r5 e; o( L5 h
  被送到医院抢救后,刘一路灵魂出窍,遇上了一个身无寸缕的少女,一番言语后,刘一路却突然重返人间,但刚才的少女已经躺在他身边死了。刘回想起之前的奇怪电话,突然觉得这也许就是上帝的启示,于是,他决定仔细调查少女的死因。
7 z8 J# W7 S" J* o# n) Q) O: K  原来,少女是被富豪曹强奸后割腕自杀,而重要的证人Gigi和大飞也欲为富豪所灭口,开始了逃亡生涯。刘一路为了追随两人,居然回到了三国时代?
  1. Format                                   : AVI
    5 S. l0 n$ L- J6 G3 k
  2. Format/Info                              : Audio Video Interleave
    5 ~5 @$ i2 t! T: ^$ z
  3. File size                                : 1.36 GiB
    + s# j2 s5 L( X! c* C  |
  4. Duration                                 : 1h 34mn+ ]) x# B" b& l
  5. Overall bit rate                         : 2 060 Kbps0 G7 C/ F" Y5 }9 q2 W
  6. Writing application                      : VirtualDubMod 1.5.10.2 (build 2540/release)
    4 a- g% Q( ^' l1 L
  7. Writing library                          : VirtualDubMod build 2540/release
    $ q4 X8 g( V% @
  8. 7 Y0 }2 z% q( Y* z+ {
  9. Video
    2 U0 l& ~. b$ o/ }* o! T7 ~
  10. ID                                       : 0; [3 G* R  S' L8 ?$ \& [. n
  11. Format                                   : MPEG-4 Visual( R7 c5 H6 p3 y. Q& r
  12. Format profile                           : Advanced [email protected]
    ( H( {& s! ~+ v
  13. Format settings, BVOP                    : 2! Q' s. C3 D- m; Q: t
  14. Format settings, QPel                    : No
    % q3 L3 }* O9 A' d
  15. Format settings, GMC                     : No warppoints2 ?9 ~6 \; `# R  N6 }1 q5 a
  16. Format settings, Matrix                  : Default (H.263)  j, b& K! M6 K5 C/ V! b% B
  17. Muxing mode                              : Packed bitstream
    9 w3 f8 \. R& @4 f- V" `" g
  18. Codec ID                                 : XVID" t6 \1 M" _8 `9 A- a1 g% g
  19. Codec ID/Hint                            : XviD) Y- J; o8 L: w6 u) C( V
  20. Duration                                 : 1h 34mn) L; \( J% b9 _- P. Z# f5 ^0 e
  21. Bit rate                                 : 1 470 Kbps
    5 S4 o; y/ c7 P% M/ L
  22. Width                                    : 640 pixels
    4 ~# Z# j! z# v# j4 j- {3 U; ^6 j7 W
  23. Height                                   : 352 pixels, ?1 N" r) y" u' T! z. N# _
  24. Display aspect ratio                     : 16:9: E: L, ^6 A0 D9 X
  25. Frame rate                               : 23.976 fps" o5 k& B2 n- D& l( B1 c
  26. Color space                              : YUV1 T/ ~3 l" K/ b. N  _( |+ ^3 ^/ a
  27. Chroma subsampling                       : 4:2:05 m* p2 Y6 V  z: j; R% x
  28. Bit depth                                : 8 bits
    ! @5 v1 C! P3 J/ G3 g
  29. Scan type                                : Progressive3 H& a$ ~0 }; w7 @- g- v9 O
  30. Compression mode                         : Lossy
    8 d8 M: a% x0 }
  31. Bits/(Pixel*Frame)                       : 0.272
    6 Y# Y9 b! r& S5 ?
  32. Stream size                              : 997 MiB (71%)1 y1 \5 ^$ u% J9 x8 k
  33. Writing library                          : XviD 1.2.1 (UTC 2008-12-04)
    : l6 V6 A, g" c  _6 A$ R2 V
  34. , ?7 s5 P8 A% v! }
  35. Audio #1
    ! |, R9 |& c: J% ?& J( U: P$ B
  36. ID                                       : 1
    5 h1 z/ P- V+ z( G8 S7 G% i0 [. m
  37. Format                                   : AC-3& ]7 d; Z9 {  S# v* U
  38. Format/Info                              : Audio Coding 3. V, I4 O. l8 O6 n" Z5 |1 |' @; |9 m: E
  39. Mode extension                           : CM (complete main)! Q0 G, T0 r1 _: X
  40. Format settings, Endianness              : Big6 ?' `3 u% [8 ^$ I7 o. @
  41. Codec ID                                 : 2000' K5 z! f. e9 K8 a' x6 G
  42. Duration                                 : 1h 34mn
    ( A& P( w: c6 \0 ^% N4 h8 F" P
  43. Bit rate mode                            : Constant7 r: O: S7 V" I5 n1 l! P- B( _
  44. Bit rate                                 : 384 Kbps
    5 ]' u7 d6 \6 t; o1 k- p% y3 D
  45. Channel(s)                               : 3 channels
    5 i* }7 {6 Z8 C8 N  @
  46. Channel positions                        : Front: L R, LFE( m9 D% A$ J! F. \/ K0 Y
  47. Sampling rate                            : 48.0 KHz  U5 |+ y3 w: i% u; S# a/ A# w5 f' Y
  48. Bit depth                                : 16 bits
    $ k) g- r4 u: J  i* T( q
  49. Compression mode                         : Lossy% q( T  P9 S5 i5 s/ I
  50. Stream size                              : 260 MiB (19%)
    # O! W, m& Y2 C" d2 }: y' B2 a
  51. Alignment                                : Split accross interleaves  Y) T9 I* y8 l4 _& o8 M
  52. Interleave, duration                     : 42 ms (1.00 video frame)
    , }) e# P, Z- k: e2 S
  53. Interleave, preload duration             : 500 ms$ Z+ X; [4 W  A- q$ T
  54. & [) l# g* e3 N" O) z
  55. Audio #2
    * W2 z" X& g' g
  56. ID                                       : 26 B+ T# `, U, s0 \. u
  57. Format                                   : AC-3* s" n2 N' K8 A4 |# o
  58. Format/Info                              : Audio Coding 3, x( ]' _5 R) r/ q: D' h9 D
  59. Mode extension                           : CM (complete main). R5 E. o, V% r0 k) T" H
  60. Format settings, Endianness              : Big
    $ B+ J( _2 e  @2 c- H6 {) i/ f! E  d
  61. Codec ID                                 : 20004 q1 h7 W" W7 j9 |
  62. Duration                                 : 1h 34mn
    0 a) c, Y: X/ e5 d+ t6 A
  63. Bit rate mode                            : Constant0 P4 {* V( v8 {2 ^. R
  64. Bit rate                                 : 192 Kbps
    + d5 C9 r* D- M" x
  65. Channel(s)                               : 3 channels+ Q3 [8 b( O, i8 `& M0 \" k
  66. Channel positions                        : Front: L R,   Side: C
    : E# F! K, x2 l2 i/ ]9 N
  67. Sampling rate                            : 48.0 KHz
    5 t( F: G* o9 d$ Q
  68. Bit depth                                : 16 bits9 o8 n5 q) U1 |7 a. `
  69. Compression mode                         : Lossy# v! |+ t$ A# v5 ^+ C0 ]
  70. Stream size                              : 130 MiB (9%)1 B. M! N( ], S7 C7 ]6 z
  71. Alignment                                : Split accross interleaves  N0 B" Y9 u5 D
  72. Interleave, duration                     : 42 ms (1.00 video frame)
    3 |. w! _; J  v( a( O
  73. Interleave, preload duration             : 500 ms
复制代码
, a/ ?3 m1 n7 y9 k. q9 b, v  \9 L

. C& k1 u+ l1 E1 g4 |( W* l
' I* w( W$ j( R( w$ O; f, x 4sdIi.png 3 S( E8 s; |. |" A
8GIjK.png 8 Q* m, O; u1 F% H: B
9saLm.png
- \) I$ @+ Y1 @2 V  [/ X! e iETIq.png % a$ T5 o6 F/ U5 P( X/ k$ D
JBhaF.png
  z, {& J3 S& R% s  D% S KXiDB.png
  V( s" \/ I1 \8 Y7 r mLPt5.png $ K6 [: Z5 x! V% f: \7 Y- R
pk87O.png
( \8 _. q8 Q' j* H publ.png
7 ^9 o, h: n- @" R, ?' Z1 j SK0bc.png & o) Y  U1 v+ \/ a: Z. h9 J
vwDqK.png 3 ^$ g/ j% w! O+ t
XajK.png * n4 W; ]8 Z; e9 ]
Y2HcE.png # D! J" ]# L& }

* Y7 `9 H8 ~1 v' E% s1 S
. {" }% L# M/ D
游客,如果您要查看本帖隐藏内容请回复  捐助论坛可免回复查看隐藏内容 详情请点击

0 t( t& d8 ~  Q8 a% y: w6 \1 l) B7 r6 ]! p# f: E9 l5 n# u( |. Z
中英字幕9 V" R/ \8 F6 S4 H

, H5 p6 n" a8 U" ?/ ]4 k1 s, L4 G
游客,如果您要查看本帖隐藏内容请回复  捐助论坛可免回复查看隐藏内容 详情请点击
最近访问 头像模式 列表模式
HD一条街,身边的一条街。
发表于 2014-9-25 23:36:10 | 显示全部楼层
不错,又占了一个沙发!
HD一条街,身边的一条街。
发表于 2014-9-25 23:39:38 | 显示全部楼层
为了维护HD一条街的和平,我必须打满这些字,拒绝灌水,拒绝广告,争做论坛良好公民!
HD一条街,身边的一条街。
发表于 2014-9-25 23:47:06 | 显示全部楼层
啥也不说了,楼主就是给力!
HD一条街,身边的一条街。
发表于 2014-9-26 00:09:08 | 显示全部楼层
为了维护HD一条街的和平,我必须打满这些字,拒绝灌水,拒绝广告,争做论坛良好公民!
HD一条街,身边的一条街。
发表于 2014-9-26 00:30:59 | 显示全部楼层
影视资源尽在HD一条街中, 哦也!
HD一条街,身边的一条街。
发表于 2014-9-26 00:42:36 | 显示全部楼层
多谢版主分享好电影,喜欢的类型
HD一条街,身边的一条街。
发表于 2014-9-26 01:22:15 | 显示全部楼层
看了LZ的帖子,我只想说一句很好很强大!
HD一条街,身边的一条街。
tkphilip 该用户已被删除
发表于 2014-9-26 01:41:30 | 显示全部楼层
提示: 作者被禁止或删除 内容自动屏蔽
HD一条街,身边的一条街。
发表于 2014-9-26 02:12:36 | 显示全部楼层
貌似是值得支持的好东西
HD一条街,身边的一条街。
您需要登录后才可以回帖 登录 | 加入我们

本版积分规则

手机版|小黑屋|有问题发邮件到admin#(换成@)hd1tj.org|微博|免责申明|HD一条街

GMT+8, 2017-2-24 09:38

Powered by Discuz! X3.1

© 2001-2013 Comsenz Inc.

快速回复 返回顶部 返回列表