开启辅助访问 切换到窄版

HD一条街论坛

 找回密码
 立即注册
搜索
查看: 612|回复: 31

[其它] 超时空要爱[国粤双语 中英字幕]Timeless.Romance.1998.2Audio.DVDRip.XVID.AC3.iNT-HKDY 1.36G

[复制链接]
发表于 2014-9-25 23:09:41 | 显示全部楼层 |阅读模式
本帖最后由 让心灵去旅行 于 2014-9-25 23:11 编辑 / j# g" ~6 `! r* c1 F

; e6 z4 B, b* f& f- a$ ^' G& z TjoUy.jpg
' r. v5 ~% e8 J
4 A. B* `( g1 r9 K; P4 D/ ?: W  l/ m# F% E/ k
导演: 黎大炜
1 Y8 c& d; S* b8 G& p编剧: 刘镇伟* c# k) N& z: f3 h1 K" y
主演: 梁朝伟 / 李绮虹 / 刘以达 / 林尚义 / 赵银淑 / 八两金 / 李枫
: V$ t! I" a) L. u$ o0 n类型: 喜剧 / 动作 / 犯罪 / 奇幻; M; Y- {! x9 H8 |1 n# f
制片国家/地区: 香港
( F) G( j# Z+ E( B( J. }语言: 粤语/国语
5 f; z/ D  A/ O/ y. F4 f上映日期: 1998-03-05(香港): Z; T. _# {9 D% H2 ~) x
片长: 95分钟
4 L7 P/ h* s9 P, ~6 [/ y0 ?又名: Timeless Romance / Chiu si hung yiu oi / Beyond Time Space Want Love
- ]5 r' V' _+ X: BIMDb链接: http://www.imdb.com/title/tt01635814 o1 n! [2 ~. {1 Q2 X" M# Y2 S
# N& i/ G7 W3 V2 A: n
! j/ C$ @' m# |  }# _; J
超时空要爱的剧情简介  ·  ·  ·  ·  ·  ·
* p! \7 T$ K, b0 f  g) U  警察刘一路(梁朝伟饰)某天在路上突然接到一个电话,告诉他千万要劝阻“那个”女孩自杀,因为女孩的生死会成为他人生的转折点。刘一路对这通电话感到莫名无比,而就在这时,两个流氓Gigi(李绮虹饰)大飞(刘以达饰)在街上枪战,刘一路喉部误中大飞子弹。
& f, w* o) x" D$ D4 V  被送到医院抢救后,刘一路灵魂出窍,遇上了一个身无寸缕的少女,一番言语后,刘一路却突然重返人间,但刚才的少女已经躺在他身边死了。刘回想起之前的奇怪电话,突然觉得这也许就是上帝的启示,于是,他决定仔细调查少女的死因。
; F# _5 h! Z7 K1 j/ M5 @  原来,少女是被富豪曹强奸后割腕自杀,而重要的证人Gigi和大飞也欲为富豪所灭口,开始了逃亡生涯。刘一路为了追随两人,居然回到了三国时代?
  1. Format                                   : AVI- X. N& @/ e( z' k
  2. Format/Info                              : Audio Video Interleave9 |; X6 h5 C/ @" r
  3. File size                                : 1.36 GiB" ]0 ^' a% Y; _; T6 D% D6 Q% N
  4. Duration                                 : 1h 34mn
    3 @$ q* ]1 O* ]  ^: o
  5. Overall bit rate                         : 2 060 Kbps
    / ]  j6 J$ l' H$ I
  6. Writing application                      : VirtualDubMod 1.5.10.2 (build 2540/release)$ i! r! G) E* o; }2 A( |5 h: o
  7. Writing library                          : VirtualDubMod build 2540/release5 g. T& ?8 q3 ^9 m. r$ p  M8 `

  8. 7 n0 |8 y6 I( x4 S
  9. Video, n" Z$ N: Q5 ?3 @, v
  10. ID                                       : 0
    $ f% a0 a0 S# ?+ ]7 @4 X
  11. Format                                   : MPEG-4 Visual
    0 ?, ^" M7 S$ T3 ^
  12. Format profile                           : Advanced [email protected]
    # w+ }. T0 Q. z3 z
  13. Format settings, BVOP                    : 23 ^* U- L( H! f% K& @0 T
  14. Format settings, QPel                    : No
    : l" q3 A3 Y8 v
  15. Format settings, GMC                     : No warppoints/ E$ O3 {6 b7 f
  16. Format settings, Matrix                  : Default (H.263)
    . N1 U+ O1 I& A0 \
  17. Muxing mode                              : Packed bitstream
    ! i) M/ y7 a) h1 w7 @% H; W5 z
  18. Codec ID                                 : XVID
    / }% i* ~. c/ O& N- o; b/ [( s% l# {
  19. Codec ID/Hint                            : XviD
    - Q6 N- N: f7 N/ R
  20. Duration                                 : 1h 34mn( I, E1 R! Y3 x6 ~1 [8 C; \" w, w
  21. Bit rate                                 : 1 470 Kbps7 P1 V9 s# E  E( x7 p7 `
  22. Width                                    : 640 pixels
    " d6 ~* n- i  s! S8 K' T; M) o7 u
  23. Height                                   : 352 pixels
    / M+ J. C! h- ~7 q* N, Q  ?
  24. Display aspect ratio                     : 16:9
    2 w9 O8 z1 E; ?! l3 [
  25. Frame rate                               : 23.976 fps
    + u& t$ d! L) _8 e
  26. Color space                              : YUV
    + V: |0 b% Y5 b) X) Y9 A- }/ [
  27. Chroma subsampling                       : 4:2:0  ?/ R+ N/ d2 B& f. A: o! p
  28. Bit depth                                : 8 bits0 T# G7 E1 S) e3 P' T( r
  29. Scan type                                : Progressive
      b( `6 j$ C* {" R4 ~
  30. Compression mode                         : Lossy
    ! C4 r6 E& V# k
  31. Bits/(Pixel*Frame)                       : 0.272
    8 J3 i9 W2 s$ Z" k/ }) D' `
  32. Stream size                              : 997 MiB (71%)* K3 c. Y, u% o4 Z9 D4 j9 L( S% R
  33. Writing library                          : XviD 1.2.1 (UTC 2008-12-04)+ q- ~  F8 g' Y! B  q. P+ t

  34. 7 W4 [1 a, S" F
  35. Audio #1% u7 X0 K. r4 N3 D0 G2 J
  36. ID                                       : 1* e+ ^, O$ r: L4 b: w8 |0 j, B- m
  37. Format                                   : AC-3
    ( e  a* ~8 i0 [& V
  38. Format/Info                              : Audio Coding 3' k) g& [- R* f& g" ~  g3 G1 [
  39. Mode extension                           : CM (complete main)
    2 j: {2 X9 u$ a6 l) \
  40. Format settings, Endianness              : Big
    " l0 C3 Y: l' k! l0 I6 O6 y
  41. Codec ID                                 : 2000
    * V% ]$ y9 K5 M& j0 G
  42. Duration                                 : 1h 34mn
    3 o3 ~( \( w3 A5 K$ f
  43. Bit rate mode                            : Constant8 p" u% p5 n+ M0 p# Q
  44. Bit rate                                 : 384 Kbps9 G" Y3 s4 d9 j9 L/ ]8 t
  45. Channel(s)                               : 3 channels
    1 i  ]9 z# u4 b5 W; H
  46. Channel positions                        : Front: L R, LFE- L- H- X; W/ {& b
  47. Sampling rate                            : 48.0 KHz& U, \" X) v; C& A3 w5 q4 A
  48. Bit depth                                : 16 bits1 d+ e8 ]. J, k1 Y
  49. Compression mode                         : Lossy  c$ }) b$ E0 n0 J: B* I
  50. Stream size                              : 260 MiB (19%)- l. B# u1 v% G- B% l' k9 c% N5 T
  51. Alignment                                : Split accross interleaves
    - y% u0 }2 L8 `4 P9 x: W. W
  52. Interleave, duration                     : 42 ms (1.00 video frame)
    % @: j8 G  g& ?# Q' R$ G
  53. Interleave, preload duration             : 500 ms  K  V- _3 V1 j

  54. 9 B4 Z  N' I! r; D9 ?9 h: \( y
  55. Audio #2
    ( R! e& A1 p# l
  56. ID                                       : 2
    1 b! ^# ?( i6 q( p
  57. Format                                   : AC-3
    : ]3 u' o7 Q! t7 u2 e1 T
  58. Format/Info                              : Audio Coding 3
    # |3 q- b, O+ ?* a+ {- w
  59. Mode extension                           : CM (complete main)
    ; l) a- x' ~) q) S2 ^' z" v
  60. Format settings, Endianness              : Big4 j* N# m; L9 d0 _
  61. Codec ID                                 : 20002 ~* l( V' J2 y4 C/ T0 v9 r; n, H( K' w
  62. Duration                                 : 1h 34mn
    : z% M/ n: y& K9 r0 S
  63. Bit rate mode                            : Constant8 S( U7 D7 t4 ^6 [. X" u) ]
  64. Bit rate                                 : 192 Kbps
    + v  A$ y4 D7 k' g8 c5 ]0 R
  65. Channel(s)                               : 3 channels
    7 q: O6 K; k7 h
  66. Channel positions                        : Front: L R,   Side: C' C8 \  t" E9 }3 P
  67. Sampling rate                            : 48.0 KHz
    " H8 `* j% J' M/ c8 |
  68. Bit depth                                : 16 bits' i3 H+ J0 V) U5 I" P
  69. Compression mode                         : Lossy2 e* y+ b% e; V, z. s7 f
  70. Stream size                              : 130 MiB (9%)# g. c$ I' f8 b1 a9 @
  71. Alignment                                : Split accross interleaves0 ~5 Q5 P5 Z8 Q* h/ A: P
  72. Interleave, duration                     : 42 ms (1.00 video frame)/ y- ~+ X, |4 C: q' t
  73. Interleave, preload duration             : 500 ms
复制代码

# X2 o4 e" Y; D# T+ ^$ o0 _; a9 r2 C+ M3 d$ l

+ k% y. w$ P% q! M3 k 4sdIi.png ! k' U5 A: @. {+ D+ E  n6 d
8GIjK.png
( z- D; Z  a  U, \6 W 9saLm.png
/ A3 w8 k9 c3 s/ E1 m9 l iETIq.png * S0 C" k7 K/ v. d+ q
JBhaF.png # u" n) D5 S- a% ]+ I8 }6 C# w
KXiDB.png
, U( w$ `/ S2 E: y; ]  W" P mLPt5.png ( I- O' l% M; @8 `
pk87O.png
, a1 F2 U( U0 W0 h0 L6 P4 p- l publ.png
7 `1 c7 |' v5 R. r SK0bc.png # u$ }3 U( h( y) c! [: h
vwDqK.png % k+ i4 L- I' }  l: O2 ~: W
XajK.png ( u, i& Z. ]) m6 p! h4 A- V! B
Y2HcE.png
; a3 O% {8 C' v( _- m0 e$ Q! q+ \/ ^' c/ O, Q1 r

3 ^% m* p) ^5 u5 ?2 B# [5 ?: o+ O
游客,如果您要查看本帖隐藏内容请回复  捐助论坛可免回复查看隐藏内容 详情请点击

4 b; y/ x! ?# y! G" X: i( J9 v* a1 c7 l7 Q8 k0 x  k. l1 O1 w
中英字幕
/ B* d9 `* z$ }+ A/ k% G: Y- k. p+ C- Z; S
游客,如果您要查看本帖隐藏内容请回复  捐助论坛可免回复查看隐藏内容 详情请点击
最近访问 头像模式 列表模式
HD一条街,身边的一条街。
发表于 2014-9-25 23:36:10 | 显示全部楼层
不错,又占了一个沙发!
HD一条街,身边的一条街。
发表于 2014-9-25 23:39:38 | 显示全部楼层
为了维护HD一条街的和平,我必须打满这些字,拒绝灌水,拒绝广告,争做论坛良好公民!
HD一条街,身边的一条街。
发表于 2014-9-25 23:47:06 | 显示全部楼层
啥也不说了,楼主就是给力!
HD一条街,身边的一条街。
发表于 2014-9-26 00:09:08 | 显示全部楼层
为了维护HD一条街的和平,我必须打满这些字,拒绝灌水,拒绝广告,争做论坛良好公民!
HD一条街,身边的一条街。
发表于 2014-9-26 00:30:59 | 显示全部楼层
影视资源尽在HD一条街中, 哦也!
HD一条街,身边的一条街。
发表于 2014-9-26 00:42:36 | 显示全部楼层
多谢版主分享好电影,喜欢的类型
HD一条街,身边的一条街。
发表于 2014-9-26 01:22:15 | 显示全部楼层
看了LZ的帖子,我只想说一句很好很强大!
HD一条街,身边的一条街。
tkphilip 该用户已被删除
发表于 2014-9-26 01:41:30 | 显示全部楼层
提示: 作者被禁止或删除 内容自动屏蔽
HD一条街,身边的一条街。
发表于 2014-9-26 02:12:36 | 显示全部楼层
貌似是值得支持的好东西
HD一条街,身边的一条街。

手机版|小黑屋|有问题发邮件到admin#(换成@)hd1tj.org|微博|免责申明|HD一条街

GMT+8, 2017-4-27 01:36

Powered by Discuz! X3.1

© 2001-2013 Comsenz Inc.

快速回复 返回顶部 返回列表