开启辅助访问 切换到窄版

HD一条街论坛

 找回密码
 加入我们
查看: 558|回复: 31

[其它] 超时空要爱[国粤双语 中英字幕]Timeless.Romance.1998.2Audio.DVDRip.XVID.AC3.iNT-HKDY 1.36G

[复制链接]
发表于 2014-9-25 23:09:41 | 显示全部楼层 |阅读模式
本帖最后由 让心灵去旅行 于 2014-9-25 23:11 编辑
; P7 j$ c; m& p
, p1 R6 B4 |, w$ s1 t) @- t, ~* A TjoUy.jpg
5 q8 f' \- U% k# b5 c3 w( g. @# t. @3 k2 C

# }& q' @5 S& ?' u7 ^导演: 黎大炜
1 n6 D  r' @; C7 ]' F0 ^编剧: 刘镇伟: V0 |. h. i. x* a: C
主演: 梁朝伟 / 李绮虹 / 刘以达 / 林尚义 / 赵银淑 / 八两金 / 李枫
% _; I1 L- ~( d/ x类型: 喜剧 / 动作 / 犯罪 / 奇幻
2 y8 A" b" B# X% N( i制片国家/地区: 香港. D3 b  O' j1 a: G
语言: 粤语/国语
8 ^2 c9 {( m4 i5 P0 H上映日期: 1998-03-05(香港)
$ g! ~1 p9 F" y4 |( e片长: 95分钟" s! V: M" E) A+ v
又名: Timeless Romance / Chiu si hung yiu oi / Beyond Time Space Want Love' s! K3 w; F/ O
IMDb链接: http://www.imdb.com/title/tt0163581; K2 Z2 r+ u* X7 o5 l; E
, g' |: A) i; C7 R+ L5 N

* Z: Q) s7 G4 T  a5 i超时空要爱的剧情简介  ·  ·  ·  ·  ·  ·# P% `5 x, \' C0 h, w
  警察刘一路(梁朝伟饰)某天在路上突然接到一个电话,告诉他千万要劝阻“那个”女孩自杀,因为女孩的生死会成为他人生的转折点。刘一路对这通电话感到莫名无比,而就在这时,两个流氓Gigi(李绮虹饰)大飞(刘以达饰)在街上枪战,刘一路喉部误中大飞子弹。 5 h+ y1 M+ \# k; j) u4 [+ y) u
  被送到医院抢救后,刘一路灵魂出窍,遇上了一个身无寸缕的少女,一番言语后,刘一路却突然重返人间,但刚才的少女已经躺在他身边死了。刘回想起之前的奇怪电话,突然觉得这也许就是上帝的启示,于是,他决定仔细调查少女的死因。 - W% _; v( j5 s' N3 v
  原来,少女是被富豪曹强奸后割腕自杀,而重要的证人Gigi和大飞也欲为富豪所灭口,开始了逃亡生涯。刘一路为了追随两人,居然回到了三国时代?
  1. Format                                   : AVI9 g) @4 e% [/ X: n+ `
  2. Format/Info                              : Audio Video Interleave
    ' y6 M4 p. d& |& o  S2 S8 g
  3. File size                                : 1.36 GiB
    $ J% r( a3 N0 |7 ~1 J' c: k9 m
  4. Duration                                 : 1h 34mn
    2 K- V; [; L  O$ r
  5. Overall bit rate                         : 2 060 Kbps; N# H6 x1 A  I2 m* k; S
  6. Writing application                      : VirtualDubMod 1.5.10.2 (build 2540/release), Q, {) E3 Y5 t2 p' g! \' D* h4 m
  7. Writing library                          : VirtualDubMod build 2540/release3 m( [' S* g! X

  8. 4 M8 t! M! B3 _7 q( ?2 ^
  9. Video9 y# o9 G6 |& T6 A5 ^- |& T, Z
  10. ID                                       : 0
      Q$ Q. b, P8 C2 b. }- B
  11. Format                                   : MPEG-4 Visual
    5 H' Y. L+ F  ?
  12. Format profile                           : Advanced [email protected]
    ' d# _$ X6 t# K$ {
  13. Format settings, BVOP                    : 2
    $ s0 A' R# q% ^9 a! C
  14. Format settings, QPel                    : No  v* v1 z: g2 ^
  15. Format settings, GMC                     : No warppoints
    3 S* p6 L  N3 Y9 z. m3 i: [
  16. Format settings, Matrix                  : Default (H.263)
      A- v$ H) \" E  m& s9 y! R8 Y
  17. Muxing mode                              : Packed bitstream* \% Z- t* F& W8 {( I4 B
  18. Codec ID                                 : XVID
    : s& K3 {, g3 p' G3 i% E" t. e
  19. Codec ID/Hint                            : XviD
    " [3 m9 O3 ?& d+ y: L# z. C; i
  20. Duration                                 : 1h 34mn
    / E7 V7 b7 z/ a
  21. Bit rate                                 : 1 470 Kbps
    ; z9 n" J& K% _/ {3 F: C9 a
  22. Width                                    : 640 pixels
    7 p& V5 Z7 u2 O0 `) V
  23. Height                                   : 352 pixels5 y" d$ H' A% {$ ], ^7 b, k# `
  24. Display aspect ratio                     : 16:9
    7 g# W. d9 L$ b8 J- N% i7 ^
  25. Frame rate                               : 23.976 fps+ _  v, \. k  n  J
  26. Color space                              : YUV
    / O- m0 o( q0 U) y7 h: J8 ]( E4 O
  27. Chroma subsampling                       : 4:2:01 W0 g) \2 j# _% w4 d2 Y
  28. Bit depth                                : 8 bits$ s  ~6 n3 w" y+ e  d, k
  29. Scan type                                : Progressive9 L! y; c4 E" e
  30. Compression mode                         : Lossy: y; P. x) ]/ c
  31. Bits/(Pixel*Frame)                       : 0.272
    # M3 K4 @2 e4 L# p/ \
  32. Stream size                              : 997 MiB (71%). [# y* {* g1 x4 Y, k9 c9 a' b+ s
  33. Writing library                          : XviD 1.2.1 (UTC 2008-12-04)
    " b' V% Z  F& K% q' Z  I+ k% k
  34. - ^7 ?3 e) Q+ a& q% F6 b3 u
  35. Audio #16 ?$ K2 C6 p# H3 Y. {0 z) Y1 V
  36. ID                                       : 15 |  u, j) u+ Y  ]$ G
  37. Format                                   : AC-3$ p. a$ q  s' E1 M4 U
  38. Format/Info                              : Audio Coding 3( D8 P# g; n$ j6 n
  39. Mode extension                           : CM (complete main)
    $ k! c9 w) t* E6 U
  40. Format settings, Endianness              : Big
    ! b% v) x: \. q
  41. Codec ID                                 : 20002 Y( B7 n. V1 `. g3 ~1 {( \- v, o
  42. Duration                                 : 1h 34mn  ]8 ]: d9 _+ K1 }
  43. Bit rate mode                            : Constant: V5 H- k; ?3 P3 f. A
  44. Bit rate                                 : 384 Kbps, d7 T+ d; u  ]3 n; t
  45. Channel(s)                               : 3 channels+ s+ v/ Y) H1 }0 A, H
  46. Channel positions                        : Front: L R, LFE, ~# `  K- J9 `+ P0 H0 `2 W( S
  47. Sampling rate                            : 48.0 KHz; r3 z( M7 N9 e
  48. Bit depth                                : 16 bits  J4 x. _4 R- R) B% z4 L
  49. Compression mode                         : Lossy& L) V9 j4 R+ j3 Z0 w3 z6 p
  50. Stream size                              : 260 MiB (19%)
    : y0 L3 b  M4 j5 _) f0 U9 I- w/ z
  51. Alignment                                : Split accross interleaves
    5 Z4 E( k$ n4 I: Q- j$ ]
  52. Interleave, duration                     : 42 ms (1.00 video frame)8 ]. X" s( e4 ^' W2 m, y
  53. Interleave, preload duration             : 500 ms
    - o' n  i- V/ u, Y

  54. " U7 C! j9 f) y
  55. Audio #2
    : f, K  ~/ E$ ^/ D& [1 `
  56. ID                                       : 2
    7 M, n; e  _( m% r
  57. Format                                   : AC-3* c2 l% ?+ p, Z7 f& t) _
  58. Format/Info                              : Audio Coding 36 O5 x; m  f! h$ Z( k& f/ b
  59. Mode extension                           : CM (complete main)
    3 D% u* B6 e6 f* x- l
  60. Format settings, Endianness              : Big
    * U# _' n' e. `! d; ^# X
  61. Codec ID                                 : 2000( U; A( B! R3 \6 ?
  62. Duration                                 : 1h 34mn
    7 w. n/ h8 `( q/ c( t( T( Z/ O, N
  63. Bit rate mode                            : Constant6 |* Q( S; x- U; F
  64. Bit rate                                 : 192 Kbps# f) F4 P% x8 H9 q
  65. Channel(s)                               : 3 channels
    : ]) Z. Q7 Z3 ?* ?& e% l4 [2 K
  66. Channel positions                        : Front: L R,   Side: C) N) n5 `7 ^1 u$ v/ n
  67. Sampling rate                            : 48.0 KHz
    ; I3 \, L% O* H% h
  68. Bit depth                                : 16 bits9 P7 i  @+ K; V) ~- ^/ N
  69. Compression mode                         : Lossy
    ( L5 C' v# R1 V0 k! w7 o2 q; {
  70. Stream size                              : 130 MiB (9%)
    : s2 q( u( E$ c' K: {
  71. Alignment                                : Split accross interleaves
    8 k0 q- s. J- a% f7 i) B
  72. Interleave, duration                     : 42 ms (1.00 video frame)
    6 S! D- f; c% ?6 p* j6 @: Y6 W
  73. Interleave, preload duration             : 500 ms
复制代码
* W2 m* s) A- W: X& M6 s0 _+ Y
! T2 z. O0 T/ J- W
3 B- M5 W+ i; U0 Y9 y7 W! K
4sdIi.png 2 t6 m2 D( e/ w4 K% k/ R- b" Q
8GIjK.png 1 ~+ b* `7 @  a, p6 \
9saLm.png
; \$ B& h0 ?0 j/ P. ?0 w iETIq.png 8 j) w  U5 ?: `; d! p/ p! U4 p
JBhaF.png . n. b* {5 Y, y5 I; [* l2 B0 g: i
KXiDB.png $ w: _. t. d. D8 q) @
mLPt5.png
3 ?/ e8 r# `$ f. p4 ~ pk87O.png
( D/ T5 j9 J; k9 f publ.png
6 a3 B+ `' {6 P6 T4 l( e5 S SK0bc.png
+ Q! I+ N" J) L# c vwDqK.png ) G( F" D2 H5 w5 [/ w% a! t
XajK.png 9 P3 T- q& l" [+ C
Y2HcE.png
! ]) p( u* M) r; O. R1 {/ }& I1 M0 v5 m; w5 w* }
  t/ U' R' \2 h8 w/ ]( ?
游客,如果您要查看本帖隐藏内容请回复  捐助论坛可免回复查看隐藏内容 详情请点击
( K4 q) \: ?9 z4 Y. y
+ X$ Z! p6 k6 l
中英字幕- f; G4 l4 A* o2 I
! j& D) Y$ @. |0 K; S6 X
游客,如果您要查看本帖隐藏内容请回复  捐助论坛可免回复查看隐藏内容 详情请点击
最近访问 头像模式 列表模式
HD一条街,身边的一条街。
发表于 2014-9-25 23:36:10 | 显示全部楼层
不错,又占了一个沙发!
HD一条街,身边的一条街。
发表于 2014-9-25 23:39:38 | 显示全部楼层
为了维护HD一条街的和平,我必须打满这些字,拒绝灌水,拒绝广告,争做论坛良好公民!
HD一条街,身边的一条街。
发表于 2014-9-25 23:47:06 | 显示全部楼层
啥也不说了,楼主就是给力!
HD一条街,身边的一条街。
发表于 2014-9-26 00:09:08 | 显示全部楼层
为了维护HD一条街的和平,我必须打满这些字,拒绝灌水,拒绝广告,争做论坛良好公民!
HD一条街,身边的一条街。
发表于 2014-9-26 00:30:59 | 显示全部楼层
影视资源尽在HD一条街中, 哦也!
HD一条街,身边的一条街。
发表于 2014-9-26 00:42:36 | 显示全部楼层
多谢版主分享好电影,喜欢的类型
HD一条街,身边的一条街。
发表于 2014-9-26 01:22:15 | 显示全部楼层
看了LZ的帖子,我只想说一句很好很强大!
HD一条街,身边的一条街。
tkphilip 该用户已被删除
发表于 2014-9-26 01:41:30 | 显示全部楼层
提示: 作者被禁止或删除 内容自动屏蔽
HD一条街,身边的一条街。
发表于 2014-9-26 02:12:36 | 显示全部楼层
貌似是值得支持的好东西
HD一条街,身边的一条街。
您需要登录后才可以回帖 登录 | 加入我们

本版积分规则

手机版|小黑屋|有问题发邮件到admin#(换成@)hd1tj.org|微博|免责申明|HD一条街

GMT+8, 2017-2-25 17:07

Powered by Discuz! X3.1

© 2001-2013 Comsenz Inc.

快速回复 返回顶部 返回列表