开启辅助访问 切换到窄版

HD一条街论坛

 找回密码
 立即注册
查看: 487|回复: 31

[其它] 超时空要爱[国粤双语 中英字幕]Timeless.Romance.1998.2Audio.DVDRip.XVID.AC3.iNT-HKDY 1.36G

[复制链接]
发表于 2014-9-25 23:09:41 | 显示全部楼层 |阅读模式
本帖最后由 让心灵去旅行 于 2014-9-25 23:11 编辑
0 S% t% k* k0 P
( c  ^7 _0 c$ d, `4 G  a TjoUy.jpg 4 N4 {5 q; y6 I6 ?1 y  f+ e( v6 e

0 V. f0 |/ F# e% Q+ H3 _1 {: F1 @2 X" P+ g5 W& x# k. n
导演: 黎大炜
5 @' R! j1 Z+ s" t& y编剧: 刘镇伟
2 B5 f, f8 `6 k: U: N9 v主演: 梁朝伟 / 李绮虹 / 刘以达 / 林尚义 / 赵银淑 / 八两金 / 李枫
' l( ~9 A: c9 ^类型: 喜剧 / 动作 / 犯罪 / 奇幻6 J. Q% u! N1 u, g
制片国家/地区: 香港
1 U! P0 z) a7 p, y; `$ @语言: 粤语/国语: `; f6 ?6 D- v+ m9 ^: K
上映日期: 1998-03-05(香港)5 [* B: c* P7 M5 P# R: g
片长: 95分钟# c: z0 E0 y' L  P/ R/ A$ e
又名: Timeless Romance / Chiu si hung yiu oi / Beyond Time Space Want Love! Q7 w. d8 d- h' }" M
IMDb链接: http://www.imdb.com/title/tt0163581+ Z5 @) H' J5 d
& _0 P0 [' C, X: G

" s' Y7 G+ ?4 R7 G4 \超时空要爱的剧情简介  ·  ·  ·  ·  ·  ·
0 H6 e: c0 p$ ?7 }0 \  警察刘一路(梁朝伟饰)某天在路上突然接到一个电话,告诉他千万要劝阻“那个”女孩自杀,因为女孩的生死会成为他人生的转折点。刘一路对这通电话感到莫名无比,而就在这时,两个流氓Gigi(李绮虹饰)大飞(刘以达饰)在街上枪战,刘一路喉部误中大飞子弹。
" ?4 \3 P) G6 Y+ l* ], M. M  被送到医院抢救后,刘一路灵魂出窍,遇上了一个身无寸缕的少女,一番言语后,刘一路却突然重返人间,但刚才的少女已经躺在他身边死了。刘回想起之前的奇怪电话,突然觉得这也许就是上帝的启示,于是,他决定仔细调查少女的死因。 0 I+ \7 K* m9 G+ S; Y) J
  原来,少女是被富豪曹强奸后割腕自杀,而重要的证人Gigi和大飞也欲为富豪所灭口,开始了逃亡生涯。刘一路为了追随两人,居然回到了三国时代?
  1. Format                                   : AVI" E  f- o! W, i* ?1 A! O4 `
  2. Format/Info                              : Audio Video Interleave
    ) k, u. R! l$ J7 u: j# d  [
  3. File size                                : 1.36 GiB$ ]  c' S& X; C& v- H; f3 a" A8 O
  4. Duration                                 : 1h 34mn
    8 ]. }* w* L7 C% D* N# i* I( t
  5. Overall bit rate                         : 2 060 Kbps& R5 c" e7 j" V+ `. ?
  6. Writing application                      : VirtualDubMod 1.5.10.2 (build 2540/release)9 G" O. M& {7 D8 c- N! M5 ]+ c
  7. Writing library                          : VirtualDubMod build 2540/release
    : ?# ?7 X0 B, P- A

  8. & y: q9 i" \9 s; R
  9. Video
    ; y+ ]+ [% X8 [7 W
  10. ID                                       : 07 ?1 f- P/ `- }: f2 ?) `: Y9 I
  11. Format                                   : MPEG-4 Visual3 Q" Y* h; h4 Z3 S
  12. Format profile                           : Advanced [email protected]% B9 h! S  z! q4 R6 ^  W
  13. Format settings, BVOP                    : 2
    2 P' U: Y# B3 V% r$ U; B- O
  14. Format settings, QPel                    : No* ?$ h: S8 F6 e# \1 @
  15. Format settings, GMC                     : No warppoints, R8 L, I, R8 L% ^
  16. Format settings, Matrix                  : Default (H.263)
    " j1 @/ S8 t8 D8 p, i: r0 D& d
  17. Muxing mode                              : Packed bitstream+ t2 W$ P) E/ r$ _. R% s) Z2 s
  18. Codec ID                                 : XVID$ Y$ D. b/ F* z# l5 I2 W$ [4 T7 [
  19. Codec ID/Hint                            : XviD
    4 ]- m2 f$ J. s2 q" p8 b0 X1 G* o
  20. Duration                                 : 1h 34mn
    " L+ B" @6 N2 o$ h1 G# f
  21. Bit rate                                 : 1 470 Kbps
    7 w9 V0 E* t, M" F" L
  22. Width                                    : 640 pixels
    ( [: H* Y- m4 r0 O( s8 F
  23. Height                                   : 352 pixels
    + a! S. n: @" [) R
  24. Display aspect ratio                     : 16:9
    / T: }! m. c7 }( y
  25. Frame rate                               : 23.976 fps
    2 ?9 ^. g* L* ^3 k# ]
  26. Color space                              : YUV0 Y7 I: K) N6 H: H# Q0 ^
  27. Chroma subsampling                       : 4:2:0
    % c0 {5 U- H, c, @$ a# e/ z- o
  28. Bit depth                                : 8 bits
    1 w) ~# s2 `6 N# \3 `
  29. Scan type                                : Progressive2 X, N/ K! a9 q4 T, i
  30. Compression mode                         : Lossy
    7 ~: B( D6 @" L# ^. `
  31. Bits/(Pixel*Frame)                       : 0.272
    & X. m( \" ~# z$ o
  32. Stream size                              : 997 MiB (71%)
    - G2 h4 z  h; N: ^9 T$ g3 ]! f
  33. Writing library                          : XviD 1.2.1 (UTC 2008-12-04)( o; ]8 X2 O2 o3 W( ]- D( W

  34. 3 h5 K1 Q, g, N7 B
  35. Audio #1. h; a. O3 w. V! }' G* V( T1 b
  36. ID                                       : 1$ l& b: M8 {; {" Q
  37. Format                                   : AC-3
    , s# h: X; s# p, k4 A# V" U
  38. Format/Info                              : Audio Coding 3
    8 ]4 f! M( x6 L: T
  39. Mode extension                           : CM (complete main)" X% B  K- j7 L' D
  40. Format settings, Endianness              : Big; v8 f% w0 p. u( ?' k
  41. Codec ID                                 : 2000
    & g6 T) t# j& R/ B/ M
  42. Duration                                 : 1h 34mn
    ( n5 ^1 `9 M5 O- j; |* n
  43. Bit rate mode                            : Constant
    8 ^/ C, i4 G; l6 X
  44. Bit rate                                 : 384 Kbps0 A4 x# M2 z. x. X4 ?* @
  45. Channel(s)                               : 3 channels% ~( D1 R  d& H; y6 s
  46. Channel positions                        : Front: L R, LFE' \7 A) K4 v+ e" ~1 t  Z9 ]' Y
  47. Sampling rate                            : 48.0 KHz! G* [% W1 C8 U6 [. M9 W# ^7 G
  48. Bit depth                                : 16 bits0 v- Y, X8 O) e1 z# t& G
  49. Compression mode                         : Lossy4 P+ K: y. H+ @7 C6 U5 B
  50. Stream size                              : 260 MiB (19%)
    ) h; g, Z1 T' [7 U' K8 q
  51. Alignment                                : Split accross interleaves
    * H5 `; q& D! \5 R/ @; H
  52. Interleave, duration                     : 42 ms (1.00 video frame)2 r0 p& w2 T3 B
  53. Interleave, preload duration             : 500 ms2 ?+ D- ?( c% U: V6 @
  54. " q  h+ ], p- m+ K  U: C: V
  55. Audio #2
    ! R% z- P" A. p3 m: \
  56. ID                                       : 2. l5 q) j, A( m6 G2 Y' q' j
  57. Format                                   : AC-3
    3 }8 t5 S6 w* F; d% u
  58. Format/Info                              : Audio Coding 33 p( @3 Y  K' k/ ~* R: f/ F* F
  59. Mode extension                           : CM (complete main). o  ^  r* A! ^6 `5 p! t8 R$ I4 u
  60. Format settings, Endianness              : Big2 {! J8 i  B- y9 b, L2 q4 f
  61. Codec ID                                 : 2000
    3 ]( w; r8 y( P0 h, B: C2 S
  62. Duration                                 : 1h 34mn
    1 R) O' g; n1 p9 s1 b4 J
  63. Bit rate mode                            : Constant+ o/ c8 }& X9 h
  64. Bit rate                                 : 192 Kbps+ l# j* v6 C. _* k4 p; p
  65. Channel(s)                               : 3 channels
    # M+ _' P; W$ ^' y1 E
  66. Channel positions                        : Front: L R,   Side: C
    ' \0 |* ]/ M' K5 V, j+ F
  67. Sampling rate                            : 48.0 KHz; f$ ?3 \0 e. ^! s6 [! j  N
  68. Bit depth                                : 16 bits
    ; f0 |' q) O( z8 }  T
  69. Compression mode                         : Lossy
    5 h" p" k- w7 a2 h; I
  70. Stream size                              : 130 MiB (9%)
    6 y+ {7 r3 F0 g2 ?, V
  71. Alignment                                : Split accross interleaves/ P3 d2 @5 a, p) ^4 d, y' t
  72. Interleave, duration                     : 42 ms (1.00 video frame). W. i3 {4 }+ J# o, |9 E' B  `+ U7 f
  73. Interleave, preload duration             : 500 ms
复制代码

! Y# u/ P# c. I
7 p" [- |% K! u( n6 a" f- ?3 u- d, c% i/ N7 k5 C/ b
4sdIi.png 3 K! [5 f/ T6 Y( b) f! Y
8GIjK.png
* u1 S4 T" N6 F; T 9saLm.png
, y5 L* @( G1 K iETIq.png
) m5 B3 [6 u8 q9 |7 A JBhaF.png
+ o3 G0 p( o* ?" T) g. @( d, ~ KXiDB.png
8 Q# c* l2 ?& h* H mLPt5.png
& G3 y4 L9 ]; v: h pk87O.png
) w# M6 x) I8 K9 y- s publ.png
% y; j" y2 [0 c; S" U1 z SK0bc.png
0 P! w) f( R/ K- U" a8 Y vwDqK.png
4 [( {5 o5 ^7 Z3 S& h8 S( O XajK.png 0 g0 ~! {( ]3 N2 `! [1 X
Y2HcE.png $ M* c/ ^& `. [) {4 Z
8 r) y! A% J5 y8 n! N# U5 e

$ u; h6 ~. l: ~3 J2 e3 j
游客,如果您要查看本帖隐藏内容请回复  捐助论坛可免回复查看隐藏内容详情请点击

/ A; r2 p( p$ q! u7 b; y9 ]5 t2 P6 L1 K) z3 T
中英字幕* p& t  G* l5 O( F7 \1 o  n
/ j' y5 M" G7 a- ~8 i
游客,如果您要查看本帖隐藏内容请回复  捐助论坛可免回复查看隐藏内容详情请点击
最近访问 头像模式 列表模式
HD一条街,身边的一条街。
发表于 2014-9-25 23:36:10 | 显示全部楼层
不错,又占了一个沙发!
HD一条街,身边的一条街。
发表于 2014-9-25 23:39:38 | 显示全部楼层
为了维护HD一条街的和平,我必须打满这些字,拒绝灌水,拒绝广告,争做论坛良好公民!
HD一条街,身边的一条街。
发表于 2014-9-25 23:47:06 | 显示全部楼层
啥也不说了,楼主就是给力!
HD一条街,身边的一条街。
发表于 2014-9-26 00:09:08 | 显示全部楼层
为了维护HD一条街的和平,我必须打满这些字,拒绝灌水,拒绝广告,争做论坛良好公民!
HD一条街,身边的一条街。
发表于 2014-9-26 00:30:59 | 显示全部楼层
影视资源尽在HD一条街中, 哦也!
HD一条街,身边的一条街。
发表于 2014-9-26 00:42:36 | 显示全部楼层
多谢版主分享好电影,喜欢的类型
HD一条街,身边的一条街。
发表于 2014-9-26 01:22:15 | 显示全部楼层
看了LZ的帖子,我只想说一句很好很强大!
HD一条街,身边的一条街。
tkphilip 该用户已被删除
发表于 2014-9-26 01:41:30 | 显示全部楼层
提示: 作者被禁止或删除 内容自动屏蔽
HD一条街,身边的一条街。
发表于 2014-9-26 02:12:36 | 显示全部楼层
貌似是值得支持的好东西
HD一条街,身边的一条街。
您需要登录后才可以回帖 登录 | 立即注册

本版积分规则

手机版|小黑屋|有问题发邮件到admin#(换成@)hd1tj.org|微博|免责申明|HD一条街

GMT+8, 2016-12-10 13:00

Powered by Discuz! X3.1

© 2001-2013 Comsenz Inc.

快速回复 返回顶部 返回列表