开启辅助访问 切换到窄版

HD一条街论坛

 找回密码
 立即注册
查看: 431|回复: 26

[720p] 玩具总动员之派对恐龙/玩具总动员之恐龙雷克斯/玩具总动员之抱抱龙大英雄 [国英3音轨] [原盘简繁英SUP字幕]Toy.Story.Toons.Partysaurus.Rex.2012.BluRay.720P.AC3.3Audio.x264-[email protected] 282M

[复制链接]
发表于 2014-8-18 11:31:41 | 显示全部楼层 |阅读模式

7 H/ {! Y4 m' b  \% E                               
登录/注册后可看大图

' Q$ x. T% G' C" ?: ~% \1 E. y, A" d8 Y/ S1 d. I& j( B
5 H# B* b/ P2 I8 q! j! h7 N! }
本影片封装有五条SUP字幕:原盘英文一条,原盘简体中文、原盘繁体中文各两条。其中一条简体中文对应国语1与一条繁体中文对应国语2。关于SUP字幕的播放,如有需要,下载后请参考文件夹中的“SUP字幕简单播放方法”。

# m3 j6 w& E4 r# o
3 k! m! w5 G, T% w) P1 ?
封装的SUP字幕,主要目的是让大家观影时多一个选择,但是如果你由于某种原因不满意,请无视它的存在。就当该影片没有封装任何字幕。你可以等待其他会员上传srt或ssa或ass字幕或自己制作字幕即可。

/ |- [" V# U7 y$ y* N+ K% i( K, \: a$ _. Z

: B- B- A: S# B7 N※※※※※※※ 影片信息 ※※※※※※※& h; J  E5 u% Y+ \/ |
/ `; N" z: [& X# U! s
◎片    名: Partysaurus Rex
0 D1 ?# V/ m+ H- K( v8 |◎译    名: 派对恐龙/恐龙雷克斯/抱抱龙大英雄& x/ P. D" X/ a1 W  @; M' x
◎类    型: 喜剧 / 动画 / 短片
5 M% \5 T# \. e; X' n8 I; w4 B◎制片国家/地区: 美国
- x- l- G- b3 P" }, d◎语    言: 英语/普通话
) |! n! J( w0 k% |◎字    幕:英文/简体中文/繁体中文/# K  W6 w' |: G  I) M9 `
◎上映日期: 2012-09-14(美国): N- c7 P8 w; v8 G% S- X2 x: }  v# s2 B
◎片    长: 7分钟
1 e7 M, i. I* k+ _  l◎IMDb链接: http://www.imdb.com/title/tt2340678
- o8 q$ ~+ K1 Q  w% r◎IMDB评分:7.7/10 (1513 votes)
# J8 h1 R  u6 r& V' i3 s8 C◎导    演: Mark A. Walsh4 B7 g, Y6 S" h1 I, t
◎主    演: 汤姆·汉克斯 / Corey Burton / Tony Cox / 华莱士·肖恩 / Emily Hahn
; O* H- p9 @0 B# S* A) ~  t$ \+ n2 o+ U% u7 H* K7 V0 s2 M

/ p' K" e" I* z4 d7 I◎简  介% w& K' f0 w% ]
; A  V4 X$ h) i% F: ?3 c0 _
  与相濡以沫十几个年头的小主人告别后,胡迪、巴斯光年这群《玩具总动员》的好朋友们来到了新的小主人邦妮(艾米丽·哈恩 Emily Hahn 配音)家中继续他们的快乐生活。这一日,他们正在房间内游戏,可是笨乎乎的恐龙雷克斯(沃伦斯·肖恩 Wallace Shawn 配音)突然出现,搞砸了一切,蛋头先生气急败坏,甚至称它为“搞砸派对的雷克斯”。就在这时,邦妮决定找个玩具去洗澡,躲闪不及的雷克斯被她带入了浴室中。在邦妮的搜索游戏中,雷克斯扮演了一个冰海大恐龙,同时还结识了橡皮鸭、船长这群平常只待在浴室中的新朋友。 8 a& d& ?% B( n/ P

  W8 X) @1 Q! z+ L4 f  邦妮走后,浴缸的水渐渐抽空,橡皮鸭们倍感无趣。自称派对之王的雷克斯决定打开水龙头,为新朋友们开一个超级大派对,但是派对却朝着失控的方向发展……
3 T8 x+ {3 H1 s) W" y
# k+ H+ b- D+ f/ `+ V+ `5 V$ z0 i# |4 B# ]0 o
※※※※※※※ 参数信息 ※※※※※※※
  1. General
    0 T( S. ?- y3 y: p/ J7 r
  2. Unique ID                                : 191394934768184597415480279018762269780 (0x8FFD52D7EF65B58C91068762D0A1F454)0 C+ [$ H7 v" v; |% N" A! `. p# f
  3. Complete name                            : O:\Partysaurus.Rex.2012.BluRay.720p.AC3.3Audio.x264-CMCT\Partysaurus.Rex.2012.BluRay.720P.AC3.3Audio.x264-CMCT.mkv% r" X% A4 ~& Q  [/ w
  4. Format                                   : Matroska3 Q8 {  |1 Q7 I: l5 \
  5. Format version                           : Version 4 / Version 2
    ; W% p! \; a, V* Q; ^; ]2 |- b
  6. File size                                : 282 MiB5 n7 _  T# ]5 S9 F9 u
  7. Duration                                 : 6mn 34s( e6 |( a$ B7 W
  8. Overall bit rate                         : 6 003 Kbps% D( h1 H- t  M- |' f" |) ~
  9. Encoded date                             : UTC 2014-08-16 13:33:202 r0 T' u, {) ?& |+ O: |
  10. Writing application                      : mkvmerge v6.6.0 ('The Edge Of The In Between') built on Dec  1 2013 17:55:001 r7 G* c6 I/ w2 y7 A
  11. Writing library                          : libebml v1.3.0 + libmatroska v1.4.1' u5 N8 w0 ^8 w/ W
  12. 3 K) W: e$ C6 [  C
  13. Video
    ) s/ Q- U! s' J4 M/ p
  14. ID                                       : 1! R3 ~" j( v0 v( N
  15. Format                                   : AVC7 W! ^! w( R9 v0 z& \' J
  16. Format/Info                              : Advanced Video Codec3 _4 h) U: p5 Y; w" m4 g
  17. Format profile                           : [email protected]
      g( ~4 l7 ?5 U% u* O7 a
  18. Format settings, CABAC                   : Yes' V: w% C/ R; a
  19. Format settings, ReFrames                : 9 frames% j$ O# S% Y9 k# W3 Y
  20. Codec ID                                 : V_MPEG4/ISO/AVC' d  J- \& k' v
  21. Duration                                 : 6mn 34s8 y  R! d' s- `
  22. Bit rate                                 : 4 000 Kbps$ i7 F) j) C) U& Y
  23. Width                                    : 1 280 pixels2 r+ G) P8 K3 g8 V
  24. Height                                   : 720 pixels; H0 s& d4 R1 [) s
  25. Display aspect ratio                     : 16:9, w0 j7 l5 T: X% a4 j' E9 z
  26. Frame rate mode                          : Constant+ v( W+ \( G0 o( Q6 L
  27. Frame rate                               : 23.976 fps- B# [# _6 ^1 V( f( B  R
  28. Color space                              : YUV
    $ p0 d! s9 H% v2 e# L! L! i+ m
  29. Chroma subsampling                       : 4:2:0) w$ J$ X5 n" K: R
  30. Bit depth                                : 8 bits
    & r/ |1 I/ o* I8 P
  31. Scan type                                : Progressive  y+ p# \! Z4 ~; I' c) b  {* y
  32. Bits/(Pixel*Frame)                       : 0.181
    ) o1 n1 k4 @# }
  33. Stream size                              : 186 MiB (66%)
    7 N- `& K- \8 y
  34. Title                                    : Partysaurus Rex
    1 u1 v. L% A: o! c% K' ]
  35. Writing library                          : x264 core 142 r2431 ac76440  o: ]/ I, H$ p
  36. Encoding settings                        : cabac=1 / ref=9 / deblock=1:-1:-1 / analyse=0x3:0x113 / me=umh / subme=11 / psy=1 / psy_rd=1.10:0.15 / mixed_ref=1 / me_range=48 / chroma_me=1 / trellis=2 / 8x8dct=1 / cqm=0 / deadzone=21,11 / fast_pskip=0 / chroma_qp_offset=-3 / threads=16 / lookahead_threads=1 / sliced_threads=0 / nr=0 / decimate=1 / interlaced=0 / bluray_compat=0 / constrained_intra=0 / bframes=6 / b_pyramid=2 / b_adapt=2 / b_bias=0 / direct=3 / weightb=1 / open_gop=0 / weightp=2 / keyint=240 / keyint_min=23 / scenecut=40 / intra_refresh=0 / rc_lookahead=60 / rc=2pass / mbtree=1 / bitrate=4000 / ratetol=1.0 / qcomp=0.60 / qpmin=10 / qpmax=51 / qpstep=4 / cplxblur=20.0 / qblur=0.5 / vbv_maxrate=40000 / vbv_bufsize=30000 / nal_hrd=none / filler=0 / ip_ratio=1.40 / aq=1:1.009 X3 s2 Y% v5 @# Q) a& }1 I/ k4 M
  37. Default                                  : Yes+ B/ A( g* y8 r; D& }" s$ O
  38. Forced                                   : No" F6 e8 s, H  |
  39. ) e8 p7 N- ~3 Y5 P! q2 g0 }; }
  40. Audio #1
    . i5 l3 s( C' G. W# Z( l
  41. ID                                       : 2
    8 f+ [. e2 V- m6 S, s
  42. Format                                   : AC-3
    . F; L6 q3 G8 R  s  r: A$ O) V) Q
  43. Format/Info                              : Audio Coding 3; n, _0 M2 y+ X# \% H
  44. Mode extension                           : CM (complete main)
    9 E5 S; U. v( _1 b; J8 O- C8 B
  45. Format settings, Endianness              : Big
    ( Z+ r8 o2 b; T; c+ X  A' M" a
  46. Codec ID                                 : A_AC3% [& \  _3 k6 l& L+ d0 Y) r
  47. Duration                                 : 6mn 34s
    ; O: S' W) e+ \7 z2 j7 s
  48. Bit rate mode                            : Constant
    3 j1 ]5 c' i1 }! j( }
  49. Bit rate                                 : 640 Kbps
    & c! U- X/ I# \# w5 Z
  50. Channel(s)                               : 6 channels) f& _# H2 W4 [
  51. Channel positions                        : Front: L C R, Side: L R, LFE5 F) H8 m# F2 ?
  52. Sampling rate                            : 48.0 KHz: j- V8 T8 N) `
  53. Bit depth                                : 16 bits" @, G! S! M! \! R- Z) E! ~
  54. Compression mode                         : Lossy
      U, O8 X6 G! g- W
  55. Stream size                              : 30.1 MiB (11%)
    : {: S) C7 x6 m6 j  R( F& d' E
  56. Title                                    : DD5.1 640Kbps
    ( b" W; s9 ~" X1 Q
  57. Language                                 : English" y6 D  C$ b; b3 E# B
  58. Default                                  : Yes
    - v  D" h  l" y& O. U$ K/ c
  59. Forced                                   : No5 s8 K$ ~9 U( d  ?+ C& b% @5 C8 E

  60. 2 Q5 R3 \4 Q% f- G0 g0 V+ `3 j; P
  61. Audio #2
    3 [; F# [! B8 s
  62. ID                                       : 3
    2 K# X/ ^2 Z: N: [
  63. Format                                   : AC-3
    8 T: ]& C1 Z3 G( g3 W. y
  64. Format/Info                              : Audio Coding 3! k5 J7 P- K3 r/ k. T& _7 A# ~
  65. Mode extension                           : CM (complete main)
    9 s/ m. ~' U" k$ t3 M
  66. Format settings, Endianness              : Big0 u8 m' z6 X4 y" G
  67. Codec ID                                 : A_AC3! J% q' W0 ?5 j- Q; U
  68. Duration                                 : 6mn 34s# S" A; x; C. X0 {
  69. Bit rate mode                            : Constant
    ( K% y5 U# X2 h" J: P5 r. `; N$ f
  70. Bit rate                                 : 640 Kbps. u6 S3 L* ~* b( y: {  q
  71. Channel(s)                               : 6 channels; C5 E. N& l0 x1 P8 n  v) n$ d, f' b
  72. Channel positions                        : Front: L C R, Side: L R, LFE% \( A" b+ v% l
  73. Sampling rate                            : 48.0 KHz
    % O3 y1 s: w& y
  74. Bit depth                                : 16 bits
    & n  ]. z. o# P( U: Z" }, s* ^# R7 z
  75. Compression mode                         : Lossy/ u' N6 M2 @3 U- c
  76. Stream size                              : 30.1 MiB (11%)
    % g7 {; r' V4 L+ z- [3 z6 x
  77. Title                                    : DD5.1 640Kbps(国语1)
    1 f% z+ ^6 t! s0 H
  78. Language                                 : Chinese- W1 e$ g% L3 l- C
  79. Default                                  : No
    4 K# @4 J/ D2 V# H$ \* \
  80. Forced                                   : No6 b" T& s, _! r

  81. ( _: R# s' p0 Z
  82. Audio #3
    2 f: F4 n5 L# e
  83. ID                                       : 4
    * l8 K& b; y! u3 c2 x
  84. Format                                   : AC-3* m! P  R$ J1 k- j# k/ {8 E7 W/ j
  85. Format/Info                              : Audio Coding 3
    7 R1 ]( i5 N* f6 q- N& D# K
  86. Mode extension                           : CM (complete main)
    $ a9 t& V7 _% Q- Q6 ^3 n
  87. Format settings, Endianness              : Big( [! T- F! o; M) S3 `
  88. Codec ID                                 : A_AC3
    ! b+ c: G9 Z( p7 z, o4 ?
  89. Duration                                 : 6mn 34s& i/ i; r# N, i: h
  90. Bit rate mode                            : Constant
    3 _& W, I: t" K
  91. Bit rate                                 : 640 Kbps
      v. ^, o/ c9 z7 C) J' z
  92. Channel(s)                               : 6 channels  c6 }: s; a7 \& i0 f5 {  P
  93. Channel positions                        : Front: L C R, Side: L R, LFE
    , X! g2 q5 a$ v" l
  94. Sampling rate                            : 48.0 KHz
    - {0 @, Z( g4 V
  95. Bit depth                                : 16 bits) m1 h* W& l& s/ z: Q
  96. Compression mode                         : Lossy
    4 k( R6 R& o. a2 k. S/ r
  97. Stream size                              : 30.1 MiB (11%)3 f- I/ ^& I) c
  98. Title                                    : DD5.1 640Kbps(国语2)
    1 K# I! |) {( \- O4 z
  99. Language                                 : Chinese0 G5 S& }( }! w, D# N  l2 V
  100. Default                                  : No- k9 h# n  o- t
  101. Forced                                   : No
    0 G) Z1 Z: Y( O& y/ y

  102. ; d9 M5 k& N2 x2 H" y" s2 R/ ?6 I
  103. Text #1
    2 c, n1 E' ]  @# f" O% t
  104. ID                                       : 5
    9 j6 y. ?- p& h6 h1 {
  105. Format                                   : PGS
    ( e$ I' c+ y' i: f5 m
  106. Muxing mode                              : zlib3 B- ~( N# L2 I, X5 t
  107. Codec ID                                 : S_HDMV/PGS
    $ o1 M- |6 E9 M
  108. Codec ID/Info                            : The same subtitle format used on BDs/HD-DVDs" O' |- v! h; J9 a
  109. Title                                    : 原盘英文
    1 H) M- \6 s7 Y
  110. Language                                 : English, W1 M: S( E# x0 g
  111. Default                                  : No
    " G/ f3 ?) I! v5 g! h# v; i
  112. Forced                                   : No
    0 ~9 F' }) D& d3 W% j3 d/ ~

  113. & [8 m) h" G8 y: T. u# F4 T2 q* o* u( e
  114. Text #2) K5 a) U, y/ [- R5 A
  115. ID                                       : 62 L8 G! k: |1 Q7 Q' Z) R: R
  116. Format                                   : PGS* J5 E. O9 Q3 E+ `- D1 @3 u: }( }
  117. Muxing mode                              : zlib
    3 L" Y) |; p0 g3 N6 }
  118. Codec ID                                 : S_HDMV/PGS
    8 t2 B3 A3 X, k
  119. Codec ID/Info                            : The same subtitle format used on BDs/HD-DVDs
      r0 m7 {+ `) H
  120. Title                                    : 原盘简体中文' B4 d) C/ _0 @) }! ^$ s* @
  121. Language                                 : Chinese& X0 p1 w: N# @$ o
  122. Default                                  : Yes
    : V$ u6 G" g; V$ p& ^2 E0 y
  123. Forced                                   : No# U/ k/ C# A! |% B6 y

  124. 9 S$ d) D5 w: x2 d3 }, N* S
  125. Text #3
    ) w$ Z! C( o7 s3 Z9 ^+ J" S/ T
  126. ID                                       : 7
    2 Q* \; z) {4 _; W/ K
  127. Format                                   : PGS" A, ]0 i& y2 l0 K- u
  128. Muxing mode                              : zlib
      d" A# n7 `9 f# d
  129. Codec ID                                 : S_HDMV/PGS# N8 c7 b! k$ w" `/ z5 E6 {
  130. Codec ID/Info                            : The same subtitle format used on BDs/HD-DVDs; c. G; a6 Q1 `; f# \
  131. Title                                    : 原盘简体中文(对应国语1)& V4 b6 w8 h+ R- D
  132. Language                                 : Chinese3 x8 m& ]( Y2 K7 v$ d4 v
  133. Default                                  : No% @% l1 X" [) o( R
  134. Forced                                   : No
    4 T  h. k8 Y) m8 g, d& p
  135. * }: }% p4 Z# a
  136. Text #49 Y. `; n0 u$ u' P
  137. ID                                       : 8# c) |  s: b8 w: c
  138. Format                                   : PGS
    8 c1 G* x0 D# M1 t6 W6 L3 Y
  139. Muxing mode                              : zlib- {3 M7 s0 Z. N' @4 S2 L
  140. Codec ID                                 : S_HDMV/PGS
    3 j' `( y, @6 m$ D* w  q( F% c
  141. Codec ID/Info                            : The same subtitle format used on BDs/HD-DVDs
    5 Z  ~2 }4 X) ~9 F& c
  142. Title                                    : 原盘繁体中文(对应国语2)
    " A2 }3 W: W5 x9 {, j. h/ P
  143. Language                                 : Chinese$ J" _! y3 M. k" g  F
  144. Default                                  : No
    3 t6 g! m2 N2 Q  T
  145. Forced                                   : No
    , h+ V: |& m8 O5 t

  146. " T  h# _( G, Z2 v2 Q
  147. Text #5# n9 j" Q' C' o, T; a/ w0 @
  148. ID                                       : 9; n* H& J7 ^0 c  t
  149. Format                                   : PGS7 P1 c- Z. o$ t5 p' h/ U  R1 E
  150. Muxing mode                              : zlib
    + g- J3 [3 ]- e- I  Y+ J# M! B; R4 ^
  151. Codec ID                                 : S_HDMV/PGS- ?7 B+ }& C  m$ ?" i0 W
  152. Codec ID/Info                            : The same subtitle format used on BDs/HD-DVDs" O- w$ [/ q: p1 V3 l: k
  153. Title                                    : 原盘繁体中文
    % q" J" @, o8 c8 j
  154. Language                                 : Chinese
    ) i+ ]6 d1 O" |# u
  155. Default                                  : No' o6 l4 s8 n9 a9 ]) S9 f5 i/ k. k  v
  156. Forced                                   : No
复制代码

' {0 I. ]( e5 y% ^3 c1 ?1 |" g5 C4 _3 e8 q9 h" i; o

" W2 r8 \' S) Y. b' B
游客,如果您要查看本帖隐藏内容请回复  捐助论坛可免回复查看隐藏内容详情请点击
最近访问 头像模式 列表模式
HD一条街,身边的一条街。
netfox2008 该用户已被删除
发表于 2014-8-18 12:04:20 | 显示全部楼层
提示: 作者被禁止或删除 内容自动屏蔽
HD一条街,身边的一条街。
发表于 2014-8-18 12:10:07 | 显示全部楼层
果断回帖,如果沉了就是我弄沉的很有成就感
HD一条街,身边的一条街。
发表于 2014-8-18 12:10:15 | 显示全部楼层
HD一条街,是我心中的一条街
HD一条街,身边的一条街。
发表于 2014-8-18 12:29:35 | 显示全部楼层
又是一部7分钟的小电影,我喜欢,谢谢。
HD一条街,身边的一条街。
发表于 2014-8-18 13:28:05 | 显示全部楼层
进来支持下吧
HD一条街,身边的一条街。
头像被屏蔽
发表于 2014-8-18 13:28:43 | 显示全部楼层
提示: 作者被禁止或删除 内容自动屏蔽
HD一条街,身边的一条街。
huadi 该用户已被删除
发表于 2014-8-18 14:27:49 | 显示全部楼层
提示: 作者被禁止或删除 内容自动屏蔽
HD一条街,身边的一条街。
发表于 2014-8-18 15:33:09 | 显示全部楼层
看看再说吧
HD一条街,身边的一条街。
您需要登录后才可以回帖 登录 | 立即注册

本版积分规则

手机版|小黑屋|有问题发邮件到admin#(换成@)hd1tj.org|微博|免责申明|HD一条街

GMT+8, 2016-12-4 22:17

Powered by Discuz! X3.1

© 2001-2013 Comsenz Inc.

快速回复 返回顶部 返回列表