开启辅助访问 切换到窄版

HD一条街论坛

 找回密码
 加入我们
查看: 506|回复: 26

[720p] 玩具总动员之派对恐龙/玩具总动员之恐龙雷克斯/玩具总动员之抱抱龙大英雄 [国英3音轨] [原盘简繁英SUP字幕]Toy.Story.Toons.Partysaurus.Rex.2012.BluRay.720P.AC3.3Audio.x264-[email protected] 282M

[复制链接]
发表于 2014-8-18 11:31:41 | 显示全部楼层 |阅读模式
" S5 [9 t" P7 T9 o" d0 i4 ^
                               
登录/注册后可看大图

5 N+ S4 |" i+ c* D: I# n, v9 N8 c1 i0 O3 f
0 f8 p: O; {- [& y) y; q. F! U% ^# M/ Z3 H& u5 f! U; s
本影片封装有五条SUP字幕:原盘英文一条,原盘简体中文、原盘繁体中文各两条。其中一条简体中文对应国语1与一条繁体中文对应国语2。关于SUP字幕的播放,如有需要,下载后请参考文件夹中的“SUP字幕简单播放方法”。
% a+ C; r/ A3 C7 D/ F4 D- Q

" V* [( p4 R( C0 b( ~0 E
封装的SUP字幕,主要目的是让大家观影时多一个选择,但是如果你由于某种原因不满意,请无视它的存在。就当该影片没有封装任何字幕。你可以等待其他会员上传srt或ssa或ass字幕或自己制作字幕即可。
5 V" O. }% U( I# q3 |. u7 X( b

: u9 w1 {8 j8 {6 |- U8 A0 p' v* P1 M0 `& f7 {( E+ r
※※※※※※※ 影片信息 ※※※※※※※
. R; S( {/ m: L& e9 P: b% d
# \$ y" q5 {( ^! k◎片    名: Partysaurus Rex( y5 J5 j) |6 A  o+ x
◎译    名: 派对恐龙/恐龙雷克斯/抱抱龙大英雄7 `8 {& t+ n6 i, q$ H
◎类    型: 喜剧 / 动画 / 短片
* \( q7 K1 M# S" v◎制片国家/地区: 美国
, M  @4 n7 ?& I% i4 A7 o◎语    言: 英语/普通话
0 h& X4 D  e) t& E9 f2 ?$ @+ d( [$ X◎字    幕:英文/简体中文/繁体中文/
1 q8 R% h9 R+ H. C" x0 a) J◎上映日期: 2012-09-14(美国)
' p8 h. T. d7 b, e5 Z# ]# g◎片    长: 7分钟
* d7 n: x8 L- d6 O1 p3 c◎IMDb链接: http://www.imdb.com/title/tt2340678
  _) c/ i9 B- e◎IMDB评分:7.7/10 (1513 votes)
+ C- _% w9 E3 P/ f% n. e◎导    演: Mark A. Walsh
0 D& D8 i6 n3 V◎主    演: 汤姆·汉克斯 / Corey Burton / Tony Cox / 华莱士·肖恩 / Emily Hahn
( J' @7 P; v6 A/ A: N6 R' t- E
* m. D( I0 C5 b6 {" J  v0 c
9 e+ q" ^5 d& A, f◎简  介
7 ~3 T8 Q  N) v7 k! t6 H
* ~7 l9 m8 S' ?, T9 G  与相濡以沫十几个年头的小主人告别后,胡迪、巴斯光年这群《玩具总动员》的好朋友们来到了新的小主人邦妮(艾米丽·哈恩 Emily Hahn 配音)家中继续他们的快乐生活。这一日,他们正在房间内游戏,可是笨乎乎的恐龙雷克斯(沃伦斯·肖恩 Wallace Shawn 配音)突然出现,搞砸了一切,蛋头先生气急败坏,甚至称它为“搞砸派对的雷克斯”。就在这时,邦妮决定找个玩具去洗澡,躲闪不及的雷克斯被她带入了浴室中。在邦妮的搜索游戏中,雷克斯扮演了一个冰海大恐龙,同时还结识了橡皮鸭、船长这群平常只待在浴室中的新朋友。
% K5 l8 ^& O! W3 f& o/ G0 R$ [
8 s/ R7 _1 G1 h+ `& K  邦妮走后,浴缸的水渐渐抽空,橡皮鸭们倍感无趣。自称派对之王的雷克斯决定打开水龙头,为新朋友们开一个超级大派对,但是派对却朝着失控的方向发展……
* f8 l* E; i2 A$ o& k" s
5 S8 R* y7 n: Y# X3 Z! Y; [5 L% d. W- }8 k
※※※※※※※ 参数信息 ※※※※※※※
  1. General: _2 U" S- W/ I! w' ?1 L' V
  2. Unique ID                                : 191394934768184597415480279018762269780 (0x8FFD52D7EF65B58C91068762D0A1F454)
    * z# A+ T1 Q  G3 I
  3. Complete name                            : O:\Partysaurus.Rex.2012.BluRay.720p.AC3.3Audio.x264-CMCT\Partysaurus.Rex.2012.BluRay.720P.AC3.3Audio.x264-CMCT.mkv$ V) O7 ^0 k* h* y
  4. Format                                   : Matroska
    / n/ G3 I$ U5 _8 B2 h4 b
  5. Format version                           : Version 4 / Version 25 l$ ]- M* \: [, e; X7 y" ?
  6. File size                                : 282 MiB% s( C/ [: `( {$ B
  7. Duration                                 : 6mn 34s
    # d1 F4 |* D6 b; m* I  s: r0 U
  8. Overall bit rate                         : 6 003 Kbps
    4 }4 L; l  |( V' l% Y
  9. Encoded date                             : UTC 2014-08-16 13:33:20+ G; B4 c' E, S
  10. Writing application                      : mkvmerge v6.6.0 ('The Edge Of The In Between') built on Dec  1 2013 17:55:00% r, i8 S4 d, x0 Q, \  L
  11. Writing library                          : libebml v1.3.0 + libmatroska v1.4.1
    % p- N; \8 w9 Z) W+ O, n8 a# J

  12. $ N2 P- b$ X6 j
  13. Video
    / }0 e+ o& \6 `! {
  14. ID                                       : 13 w7 C; ?4 j+ v3 X9 z
  15. Format                                   : AVC2 N/ D6 e  z6 V7 |# h5 X- v# r
  16. Format/Info                              : Advanced Video Codec
    % {# \% i3 ]2 r  @* l/ Z: U
  17. Format profile                           : [email protected]
    / B) {8 E6 `+ _8 K* ]! |! S
  18. Format settings, CABAC                   : Yes
    + _* G( u- ?" P! F& o1 ]/ W2 o
  19. Format settings, ReFrames                : 9 frames; C" c- z) x% E0 l: B0 @- E
  20. Codec ID                                 : V_MPEG4/ISO/AVC
    6 f. i2 h" L0 p. u! O0 o) P3 a% |9 s" ^
  21. Duration                                 : 6mn 34s6 I# f. T0 n2 s9 A9 Z8 a% l' B
  22. Bit rate                                 : 4 000 Kbps8 \6 ]1 Y' a4 D, ^. J
  23. Width                                    : 1 280 pixels
    1 u% B3 a0 f' i- _5 k: o* _9 P+ Y
  24. Height                                   : 720 pixels* J5 f8 Z) }6 q
  25. Display aspect ratio                     : 16:9
    2 G3 U. t$ ]% F7 b$ [1 k5 Q- v1 C
  26. Frame rate mode                          : Constant
    4 K2 b6 f8 c) r9 V: ]! k
  27. Frame rate                               : 23.976 fps5 N5 i# W, p# a+ f8 j
  28. Color space                              : YUV
    , B, w- r1 ^2 V. C$ u3 W
  29. Chroma subsampling                       : 4:2:0- z. Y( i( w4 Z
  30. Bit depth                                : 8 bits6 E: W8 d7 F) S. P7 U0 [6 M  C( L
  31. Scan type                                : Progressive) g2 U: x% d9 W* v- e
  32. Bits/(Pixel*Frame)                       : 0.1812 v; j$ L& s- B' P* _$ F
  33. Stream size                              : 186 MiB (66%)
    . |8 W' t5 h8 O6 \  O. o, L' b
  34. Title                                    : Partysaurus Rex
    5 q7 m. C: K  f3 c
  35. Writing library                          : x264 core 142 r2431 ac76440' H4 w. C. ?7 C8 ?8 [3 i
  36. Encoding settings                        : cabac=1 / ref=9 / deblock=1:-1:-1 / analyse=0x3:0x113 / me=umh / subme=11 / psy=1 / psy_rd=1.10:0.15 / mixed_ref=1 / me_range=48 / chroma_me=1 / trellis=2 / 8x8dct=1 / cqm=0 / deadzone=21,11 / fast_pskip=0 / chroma_qp_offset=-3 / threads=16 / lookahead_threads=1 / sliced_threads=0 / nr=0 / decimate=1 / interlaced=0 / bluray_compat=0 / constrained_intra=0 / bframes=6 / b_pyramid=2 / b_adapt=2 / b_bias=0 / direct=3 / weightb=1 / open_gop=0 / weightp=2 / keyint=240 / keyint_min=23 / scenecut=40 / intra_refresh=0 / rc_lookahead=60 / rc=2pass / mbtree=1 / bitrate=4000 / ratetol=1.0 / qcomp=0.60 / qpmin=10 / qpmax=51 / qpstep=4 / cplxblur=20.0 / qblur=0.5 / vbv_maxrate=40000 / vbv_bufsize=30000 / nal_hrd=none / filler=0 / ip_ratio=1.40 / aq=1:1.00! w3 D5 {5 {5 S+ D9 G1 w0 v" F8 F
  37. Default                                  : Yes3 z& u! E- r5 U  X; [
  38. Forced                                   : No. x1 r0 b3 a/ G$ V
  39. ; v2 U) w* `+ }) ~) w( A! b
  40. Audio #19 I- L+ P+ c$ l* R" P) W# `
  41. ID                                       : 2% P" ?! F1 Y  f/ ^  F6 F1 c
  42. Format                                   : AC-3
    2 ^$ E# ~+ S- j# c
  43. Format/Info                              : Audio Coding 3
    ) ~7 Q) o) T0 i6 [
  44. Mode extension                           : CM (complete main)
    2 `* o% Y5 m2 `  {* O5 ~# O+ M
  45. Format settings, Endianness              : Big
    , f2 ]: J1 D- j' J. ]
  46. Codec ID                                 : A_AC3
    0 M( Y% r- L- P. X9 ^9 Z2 f
  47. Duration                                 : 6mn 34s* a% ]$ @7 {  B. ?5 p9 Y
  48. Bit rate mode                            : Constant3 l" t) V+ F/ ]2 v
  49. Bit rate                                 : 640 Kbps& D' t- M$ A  j" L
  50. Channel(s)                               : 6 channels2 Y) ^! D5 z/ X) N% a* Y/ D
  51. Channel positions                        : Front: L C R, Side: L R, LFE
    $ o; `- a6 E. n1 d" L2 q! @
  52. Sampling rate                            : 48.0 KHz
    2 c6 U  g! F1 _9 Y, z, y
  53. Bit depth                                : 16 bits4 U/ q( }& @' L/ g
  54. Compression mode                         : Lossy
    . Q4 p8 X) ?; ~1 E6 U% V6 J
  55. Stream size                              : 30.1 MiB (11%)
    0 m5 c: n5 y7 J8 M+ Y' h
  56. Title                                    : DD5.1 640Kbps3 O+ h$ [) s. R' n: Q, h
  57. Language                                 : English! u  u& }" v2 o- A0 U) a
  58. Default                                  : Yes
    / b- Y' Y% g7 D0 x4 z; ~; }% [
  59. Forced                                   : No2 u) A' z( q5 l' W. T2 p6 l3 O
  60. : c) ]' N7 r' H) o
  61. Audio #2
    , y  x  D4 s4 z2 Z
  62. ID                                       : 3
    6 k/ O1 S5 A- }  p, _. z7 C4 a2 `
  63. Format                                   : AC-3
    # f. C- B5 F% U( v
  64. Format/Info                              : Audio Coding 3
    0 I$ n+ z4 [1 r
  65. Mode extension                           : CM (complete main)3 _# i1 C/ V: [; l; s8 w/ Z- [
  66. Format settings, Endianness              : Big
    & v1 l2 U. f  q. I
  67. Codec ID                                 : A_AC3
    * S/ I+ v/ _& Z+ ]
  68. Duration                                 : 6mn 34s4 P! u- T  |7 Z5 J3 v
  69. Bit rate mode                            : Constant
    4 o, A" P) V# J
  70. Bit rate                                 : 640 Kbps) m4 b7 x, k4 U2 q5 l: p
  71. Channel(s)                               : 6 channels$ _2 V' j" G& k* n" F1 j7 C
  72. Channel positions                        : Front: L C R, Side: L R, LFE2 Q' Q) d1 T8 c4 f; g- ?& f) b; ?
  73. Sampling rate                            : 48.0 KHz: f$ C" E/ M" \- j& }" L. Q! ?1 t# ?9 x
  74. Bit depth                                : 16 bits2 k) U' b, n/ f
  75. Compression mode                         : Lossy
    8 W5 r1 f+ E* F; h/ R9 _& H
  76. Stream size                              : 30.1 MiB (11%)
      ?3 Z3 M. d( B8 ^7 I
  77. Title                                    : DD5.1 640Kbps(国语1)
      e7 c$ C* I; ?* g- B
  78. Language                                 : Chinese% P0 v6 t1 a5 j. Q/ }/ Z
  79. Default                                  : No/ t' m* T4 i9 J  i1 f9 |+ Q. u
  80. Forced                                   : No3 {1 V" u0 v3 P4 W
  81. 0 F* w- i2 |3 o! h: ^6 m
  82. Audio #3$ }6 a4 s/ m# Z7 z& i1 D
  83. ID                                       : 47 P* k" B# G& k+ H+ T  H
  84. Format                                   : AC-3
    ! ]/ z" e4 u7 I3 {: m
  85. Format/Info                              : Audio Coding 3! {7 l$ I3 I7 }- Z
  86. Mode extension                           : CM (complete main)
    $ _" }+ V: i* p- k' {& C# L
  87. Format settings, Endianness              : Big
    $ \  V- i9 K- t4 P( D0 Z" @
  88. Codec ID                                 : A_AC3; W6 z' p! h  L4 Z' R9 r$ y) Y) i$ S
  89. Duration                                 : 6mn 34s% g9 D- u9 l$ T% X9 M
  90. Bit rate mode                            : Constant) |/ p1 {3 P& ?' i
  91. Bit rate                                 : 640 Kbps0 U6 l+ U! `- ?% z: c
  92. Channel(s)                               : 6 channels
    ! D/ a6 a  G7 F% w" O6 `
  93. Channel positions                        : Front: L C R, Side: L R, LFE3 ]$ _: A' q$ q8 j: ~
  94. Sampling rate                            : 48.0 KHz3 U5 z/ {( I1 U5 r. C
  95. Bit depth                                : 16 bits
    ' I4 f0 B; B8 ]6 a$ T* \
  96. Compression mode                         : Lossy
    3 m& y# w, i0 G# T
  97. Stream size                              : 30.1 MiB (11%)9 ^& w0 Y! Z7 ?1 E
  98. Title                                    : DD5.1 640Kbps(国语2)
    % I* m( R& C- H; I
  99. Language                                 : Chinese4 G7 u; ?8 b& Y/ w" r9 H
  100. Default                                  : No4 Y% a, j$ [! p* T" {8 G2 J
  101. Forced                                   : No! V- f& U8 p8 S! M  N+ n/ I0 t
  102. 8 s8 Y. G$ Q: R3 [! o
  103. Text #1, D1 |- p9 b) L
  104. ID                                       : 5
    : x7 R1 X! ]! ^3 V  R: \1 Y! B
  105. Format                                   : PGS+ I, Q4 F+ @& L& H9 L
  106. Muxing mode                              : zlib
    2 e, Y* H6 c$ L
  107. Codec ID                                 : S_HDMV/PGS
    - ]; N$ d4 m4 I% s: X. ]
  108. Codec ID/Info                            : The same subtitle format used on BDs/HD-DVDs
    3 N" {1 n* ?1 H; h3 ]$ _: v' B
  109. Title                                    : 原盘英文
    - N7 ]4 z) {, |- C3 r; A! A
  110. Language                                 : English8 E0 Z7 m- A$ G" O( p
  111. Default                                  : No
    , y/ x$ {) n# s- N/ S
  112. Forced                                   : No
    # |$ b( I" y9 k3 [( H& R* J
  113. ( v9 {$ Q# V! w$ q% F( E
  114. Text #2
    , Y$ H. Q( w* M1 d
  115. ID                                       : 6
    & V( L: c4 X$ U
  116. Format                                   : PGS
    1 I0 c0 H- T, s3 D& ^
  117. Muxing mode                              : zlib% O: B) k7 ^2 c
  118. Codec ID                                 : S_HDMV/PGS& G5 U8 {0 H0 K! ~" L: m, b7 a
  119. Codec ID/Info                            : The same subtitle format used on BDs/HD-DVDs4 k! ~' I% I: f6 c! g% e  {' L" r$ a
  120. Title                                    : 原盘简体中文
    2 I  E# T- C% r/ n
  121. Language                                 : Chinese
    ; ]3 R# U5 B3 |4 y% @  y" A
  122. Default                                  : Yes
    ( w9 G# H+ Z) o. x; v, n9 r; t- t
  123. Forced                                   : No6 f8 U' ^  f( f8 v7 J
  124. ' o7 U' W. n; k- W% z4 H
  125. Text #3& U4 g$ i# c- ]+ u# z# K/ B
  126. ID                                       : 7
    - V# O  T, x  F) h2 G) B
  127. Format                                   : PGS+ [1 r$ b/ O# U* t# }
  128. Muxing mode                              : zlib- u! ^* F! t/ N( |9 M7 F
  129. Codec ID                                 : S_HDMV/PGS
    % |. ^+ a! k& a* W
  130. Codec ID/Info                            : The same subtitle format used on BDs/HD-DVDs3 D- a% D$ K9 u& [& f& T  D
  131. Title                                    : 原盘简体中文(对应国语1)
    5 P  _/ P8 A* ?3 r" A" J
  132. Language                                 : Chinese
    4 U* }3 ]) C$ c, T) j) Z% Q" p
  133. Default                                  : No  k/ ~) Y0 l+ D, ^7 K, b
  134. Forced                                   : No
    3 g' }/ m( q  v; \( V7 n* @( s& A
  135. 6 b& O' k5 W3 O1 }" z
  136. Text #4) \: H8 Q% T6 f- \# A+ U
  137. ID                                       : 8
    ; B% `% G" z2 D, D
  138. Format                                   : PGS
    9 z, S7 Z. Z+ T. f/ m3 o
  139. Muxing mode                              : zlib5 M6 M6 E  R* B6 Z& H. F
  140. Codec ID                                 : S_HDMV/PGS5 J5 s, P# y& \
  141. Codec ID/Info                            : The same subtitle format used on BDs/HD-DVDs3 S: \/ |- E. r6 B. V* L& Z( \# w
  142. Title                                    : 原盘繁体中文(对应国语2)
    % P5 n4 G; E8 L1 G2 ^' f. a1 A
  143. Language                                 : Chinese
    % t- M2 V, _1 ]  d
  144. Default                                  : No3 O0 T7 J# Z4 i! h! P; w1 a% B/ ]! p
  145. Forced                                   : No) N( M9 `. f  f7 T( V+ _' d
  146. 9 i( d9 S6 ]0 m( F; @# |
  147. Text #5
    7 l! K5 b) G/ v* J
  148. ID                                       : 9
    5 X/ y" f: `5 D7 i
  149. Format                                   : PGS
    ! R1 Z0 x) c* g3 |
  150. Muxing mode                              : zlib
    4 }# F* G5 G. U) [
  151. Codec ID                                 : S_HDMV/PGS( S( R5 @/ O( A! y/ f$ J. ^6 a
  152. Codec ID/Info                            : The same subtitle format used on BDs/HD-DVDs7 [3 v& F* r0 A) c
  153. Title                                    : 原盘繁体中文
    5 {, `$ i: O5 L0 V) a1 j+ D# H
  154. Language                                 : Chinese6 i. z7 t) I3 \% ]8 U
  155. Default                                  : No: w1 \# A+ A/ B, H. C, S+ _" ?
  156. Forced                                   : No
复制代码
6 B6 Z3 ~+ e. Z: M
- ]7 U4 k& K0 T  T/ K

# b5 j* M  P/ z
游客,如果您要查看本帖隐藏内容请回复  捐助论坛可免回复查看隐藏内容 详情请点击
最近访问 头像模式 列表模式
HD一条街,身边的一条街。
netfox2008 该用户已被删除
发表于 2014-8-18 12:04:20 | 显示全部楼层
提示: 作者被禁止或删除 内容自动屏蔽
HD一条街,身边的一条街。
发表于 2014-8-18 12:10:07 | 显示全部楼层
果断回帖,如果沉了就是我弄沉的很有成就感
HD一条街,身边的一条街。
发表于 2014-8-18 12:10:15 | 显示全部楼层
HD一条街,是我心中的一条街
HD一条街,身边的一条街。
发表于 2014-8-18 12:29:35 | 显示全部楼层
又是一部7分钟的小电影,我喜欢,谢谢。
HD一条街,身边的一条街。
发表于 2014-8-18 13:28:05 | 显示全部楼层
进来支持下吧
HD一条街,身边的一条街。
头像被屏蔽
发表于 2014-8-18 13:28:43 | 显示全部楼层
提示: 作者被禁止或删除 内容自动屏蔽
HD一条街,身边的一条街。
huadi 该用户已被删除
发表于 2014-8-18 14:27:49 | 显示全部楼层
提示: 作者被禁止或删除 内容自动屏蔽
HD一条街,身边的一条街。
发表于 2014-8-18 15:33:09 | 显示全部楼层
看看再说吧
HD一条街,身边的一条街。
您需要登录后才可以回帖 登录 | 加入我们

本版积分规则

手机版|小黑屋|有问题发邮件到admin#(换成@)hd1tj.org|微博|免责申明|HD一条街

GMT+8, 2017-2-26 20:55

Powered by Discuz! X3.1

© 2001-2013 Comsenz Inc.

快速回复 返回顶部 返回列表