开启辅助访问 切换到窄版

HD一条街论坛

 找回密码
 立即注册
搜索
查看: 550|回复: 26

[720p] 玩具总动员之派对恐龙/玩具总动员之恐龙雷克斯/玩具总动员之抱抱龙大英雄 [国英3音轨] [原盘简繁英SUP字幕]Toy.Story.Toons.Partysaurus.Rex.2012.BluRay.720P.AC3.3Audio.x264-[email protected] 282M

[复制链接]
发表于 2014-8-18 11:31:41 | 显示全部楼层 |阅读模式
7 P1 s: k$ X9 j2 f* M* _+ |
                               
登录/注册后可看大图

% a# l& l0 W4 O2 j; D* k+ g2 x  M
3 w/ e  b- _, `3 o# p1 F
本影片封装有五条SUP字幕:原盘英文一条,原盘简体中文、原盘繁体中文各两条。其中一条简体中文对应国语1与一条繁体中文对应国语2。关于SUP字幕的播放,如有需要,下载后请参考文件夹中的“SUP字幕简单播放方法”。
& \0 e5 n& G; ]$ v" d

2 i  r6 C# s- k
封装的SUP字幕,主要目的是让大家观影时多一个选择,但是如果你由于某种原因不满意,请无视它的存在。就当该影片没有封装任何字幕。你可以等待其他会员上传srt或ssa或ass字幕或自己制作字幕即可。

: F# B: W3 q. o* m6 c- r4 @# V7 k& D5 w4 I* {% t

  s1 Y  C' [0 g2 _/ S% k※※※※※※※ 影片信息 ※※※※※※※
6 j" s& }; B; m6 t# T' L8 u' S, v& ~8 x- }
◎片    名: Partysaurus Rex1 Y) z. c7 u2 |: w! l  d
◎译    名: 派对恐龙/恐龙雷克斯/抱抱龙大英雄4 @4 v. |  c& M  u- p! o$ @. b
◎类    型: 喜剧 / 动画 / 短片
0 l1 F" i* R1 Q0 q◎制片国家/地区: 美国5 F' c) E+ G3 i! \; x' _& S
◎语    言: 英语/普通话7 E. v& N' n- P, J  O) r9 ]
◎字    幕:英文/简体中文/繁体中文/
4 W+ O$ z, C, e0 f7 k- b◎上映日期: 2012-09-14(美国)2 ^: R0 M( u$ [" n) e2 B$ u
◎片    长: 7分钟
0 n; `- z) G" v) U0 K( f◎IMDb链接: http://www.imdb.com/title/tt23406786 |% N+ B/ X2 z8 W2 |/ b
◎IMDB评分:7.7/10 (1513 votes)7 ?9 y9 j9 h  g, J
◎导    演: Mark A. Walsh8 x; m( U* ~" o# z8 s5 K9 Y9 F
◎主    演: 汤姆·汉克斯 / Corey Burton / Tony Cox / 华莱士·肖恩 / Emily Hahn
  o( ~: ^  x$ Q2 X) T( F# j2 n) `" w% v

  \: {9 E2 j8 V6 d& w  s. J◎简  介
' U/ h! u& `# g0 p( f  [& V  T; u8 y' y
  与相濡以沫十几个年头的小主人告别后,胡迪、巴斯光年这群《玩具总动员》的好朋友们来到了新的小主人邦妮(艾米丽·哈恩 Emily Hahn 配音)家中继续他们的快乐生活。这一日,他们正在房间内游戏,可是笨乎乎的恐龙雷克斯(沃伦斯·肖恩 Wallace Shawn 配音)突然出现,搞砸了一切,蛋头先生气急败坏,甚至称它为“搞砸派对的雷克斯”。就在这时,邦妮决定找个玩具去洗澡,躲闪不及的雷克斯被她带入了浴室中。在邦妮的搜索游戏中,雷克斯扮演了一个冰海大恐龙,同时还结识了橡皮鸭、船长这群平常只待在浴室中的新朋友。
  [7 Z6 b2 C# p
* A- M# {' C: @1 K+ I$ p  O( k  邦妮走后,浴缸的水渐渐抽空,橡皮鸭们倍感无趣。自称派对之王的雷克斯决定打开水龙头,为新朋友们开一个超级大派对,但是派对却朝着失控的方向发展……/ K# p8 q3 D( Y/ H0 d# v

$ t5 R" Q( G+ \; }# ?/ o/ ~+ C% f0 a  E5 v! g
※※※※※※※ 参数信息 ※※※※※※※
  1. General
    - }2 P6 W) L* Q
  2. Unique ID                                : 191394934768184597415480279018762269780 (0x8FFD52D7EF65B58C91068762D0A1F454)$ }; J$ H/ h9 [+ S! p2 s
  3. Complete name                            : O:\Partysaurus.Rex.2012.BluRay.720p.AC3.3Audio.x264-CMCT\Partysaurus.Rex.2012.BluRay.720P.AC3.3Audio.x264-CMCT.mkv4 t. F( O& T4 M; d: e
  4. Format                                   : Matroska
      X9 Y) w% R5 ], a9 h. {  b; N
  5. Format version                           : Version 4 / Version 2
    : j4 ]* P: E, j" H
  6. File size                                : 282 MiB
    ! {5 z3 r; p- U" O9 a+ I8 Z
  7. Duration                                 : 6mn 34s' i; Y  E/ q0 r) h
  8. Overall bit rate                         : 6 003 Kbps3 M+ b$ `$ l' W+ c8 B
  9. Encoded date                             : UTC 2014-08-16 13:33:20
    0 {3 D1 }+ l- G! Z1 _
  10. Writing application                      : mkvmerge v6.6.0 ('The Edge Of The In Between') built on Dec  1 2013 17:55:005 d- s* d" R3 d4 J$ `3 [( R
  11. Writing library                          : libebml v1.3.0 + libmatroska v1.4.11 q: P3 p7 G  F% p" b& h: r; ^

  12. 1 U1 i, t( c% F8 l- x
  13. Video
    * K: S: V& Y7 h; i
  14. ID                                       : 1" G$ n7 U# {  A+ M, P1 z; I* o# f- M
  15. Format                                   : AVC
    " ~  e: V- g/ i  P& I0 G* @
  16. Format/Info                              : Advanced Video Codec& r# n# J9 _' F5 f) F
  17. Format profile                           : [email protected]$ U5 W3 y, z2 y4 q0 y# `
  18. Format settings, CABAC                   : Yes6 |2 I1 ]  m" j. F$ {0 d  j7 ]
  19. Format settings, ReFrames                : 9 frames" I/ |% x4 Z* a4 M& U: R9 v1 L; ]. L* h
  20. Codec ID                                 : V_MPEG4/ISO/AVC
    # P  c+ \( x" x, |! J& G3 {! P
  21. Duration                                 : 6mn 34s
    5 }  v: p" T' W8 R
  22. Bit rate                                 : 4 000 Kbps
    ( J% G" F+ @! b1 B# v/ N# l/ r0 j
  23. Width                                    : 1 280 pixels( h8 T8 u: H; v5 Y) \
  24. Height                                   : 720 pixels/ ^9 U4 t& \3 a! s; b
  25. Display aspect ratio                     : 16:9; g! R- d/ x) Q: t- u6 \" M
  26. Frame rate mode                          : Constant: e) `- F- ~6 Q$ z& ^+ i+ I6 z5 g
  27. Frame rate                               : 23.976 fps
    % F9 ~& T' q7 v9 `
  28. Color space                              : YUV  e# ~8 Y7 [0 E5 r0 ~' }7 b
  29. Chroma subsampling                       : 4:2:0
    # q. U. @7 w2 q
  30. Bit depth                                : 8 bits4 s% F, R# Y9 ~+ L; b6 y
  31. Scan type                                : Progressive
    5 m6 Y3 J- b2 z2 y: f6 I
  32. Bits/(Pixel*Frame)                       : 0.181+ W0 A4 n+ \- Z7 o( s
  33. Stream size                              : 186 MiB (66%)+ T$ k; q. B3 E" b$ X5 z
  34. Title                                    : Partysaurus Rex
    6 `7 o; n3 [2 b, `- z* }' t5 _
  35. Writing library                          : x264 core 142 r2431 ac76440
    0 }& S$ B- f  V9 n: m; r" K
  36. Encoding settings                        : cabac=1 / ref=9 / deblock=1:-1:-1 / analyse=0x3:0x113 / me=umh / subme=11 / psy=1 / psy_rd=1.10:0.15 / mixed_ref=1 / me_range=48 / chroma_me=1 / trellis=2 / 8x8dct=1 / cqm=0 / deadzone=21,11 / fast_pskip=0 / chroma_qp_offset=-3 / threads=16 / lookahead_threads=1 / sliced_threads=0 / nr=0 / decimate=1 / interlaced=0 / bluray_compat=0 / constrained_intra=0 / bframes=6 / b_pyramid=2 / b_adapt=2 / b_bias=0 / direct=3 / weightb=1 / open_gop=0 / weightp=2 / keyint=240 / keyint_min=23 / scenecut=40 / intra_refresh=0 / rc_lookahead=60 / rc=2pass / mbtree=1 / bitrate=4000 / ratetol=1.0 / qcomp=0.60 / qpmin=10 / qpmax=51 / qpstep=4 / cplxblur=20.0 / qblur=0.5 / vbv_maxrate=40000 / vbv_bufsize=30000 / nal_hrd=none / filler=0 / ip_ratio=1.40 / aq=1:1.00
    / f4 L, W2 [3 P" z8 D! T6 T
  37. Default                                  : Yes' M# P, Q. Y7 o$ r$ Z# _2 p2 {
  38. Forced                                   : No
    6 [9 H/ \# @& b- X4 G8 e% O

  39. + ]1 c) K( A$ I3 b
  40. Audio #10 G! W- W5 Z' J' }0 \2 E. i
  41. ID                                       : 2
    $ h6 y6 {. N+ v. i3 y3 L- V7 N' v
  42. Format                                   : AC-33 Y% d% D9 F0 g# a( M4 e  b
  43. Format/Info                              : Audio Coding 3
    ( I" ?6 ?8 M+ o4 o
  44. Mode extension                           : CM (complete main)
    : M+ {( P2 C! o$ i
  45. Format settings, Endianness              : Big
    2 ~. ~- u9 y2 `  x# X& h4 |
  46. Codec ID                                 : A_AC3
    6 Y8 R7 b( f+ W. F
  47. Duration                                 : 6mn 34s
    7 y: ~/ Y+ ]+ Y
  48. Bit rate mode                            : Constant: `2 \) x# F; _+ s8 b4 w
  49. Bit rate                                 : 640 Kbps4 Y9 n- G% a* T. ^- R" f2 T% [: D
  50. Channel(s)                               : 6 channels
    ) X( ~8 l5 E) R2 v$ F
  51. Channel positions                        : Front: L C R, Side: L R, LFE, t! H7 n: S; b: I0 o
  52. Sampling rate                            : 48.0 KHz
    " f8 }3 P2 n6 I2 Z* U
  53. Bit depth                                : 16 bits
    3 w8 a4 n' O) q- l2 [  Y" }- c$ w
  54. Compression mode                         : Lossy
    , L0 W: r4 K- r. N4 O2 {  e
  55. Stream size                              : 30.1 MiB (11%)
    6 N# z& b7 T6 _% E, c. G
  56. Title                                    : DD5.1 640Kbps( ~2 u8 d/ Q6 s1 P+ m! M; J
  57. Language                                 : English" a$ ~4 m, H, [* D
  58. Default                                  : Yes
    ( n& A; s/ i7 p, ~
  59. Forced                                   : No
    2 F6 N% V; R0 b* V  e$ \4 E
  60. + |4 ~; \9 q# B: f1 F# v
  61. Audio #2
    ( L  J  _8 R8 ?% Q$ a* Q1 J1 o! \
  62. ID                                       : 3
    % w0 x  U- M& X6 Q; `7 q* b' P, ^
  63. Format                                   : AC-31 ^& e/ t& y5 t1 |6 ]
  64. Format/Info                              : Audio Coding 3
    * V. c. {! u( z3 H# |) Q
  65. Mode extension                           : CM (complete main)
    + Y" }9 }+ S# s4 U
  66. Format settings, Endianness              : Big3 k7 B8 z9 w% `8 M* Q5 S
  67. Codec ID                                 : A_AC3) H! g/ J) ]4 v! w  Z
  68. Duration                                 : 6mn 34s
    * g" f  \& _7 g; @
  69. Bit rate mode                            : Constant
    , U! M+ Y* d- x* O' G( l6 {( Q
  70. Bit rate                                 : 640 Kbps/ ^, e/ D$ y$ f! |3 \+ _  F
  71. Channel(s)                               : 6 channels
    - G% e; U+ j2 b; ]! A4 `8 ]
  72. Channel positions                        : Front: L C R, Side: L R, LFE
    , z0 ~  |0 ^1 a9 z! f/ Z8 P# G
  73. Sampling rate                            : 48.0 KHz9 t+ `( m& T; a5 s8 z
  74. Bit depth                                : 16 bits- f1 N% q9 z" S1 l: w6 \
  75. Compression mode                         : Lossy# Z' f4 [) t- @$ X. s( K1 j
  76. Stream size                              : 30.1 MiB (11%)/ i- |3 X( ^& Z% R4 ~7 P0 A3 t
  77. Title                                    : DD5.1 640Kbps(国语1)  V. o. s/ N4 Y$ T5 i
  78. Language                                 : Chinese
    2 [! T$ J+ ]* ?
  79. Default                                  : No' G1 A  R0 H/ `7 R) N/ F2 ]
  80. Forced                                   : No
    . [1 `" w9 n1 Q1 j1 y
  81.   `6 w& @  R) c. k3 D
  82. Audio #3! Q/ \5 N& X+ l  v% G
  83. ID                                       : 4" H6 `/ F3 b! S: x% `" x9 `, @
  84. Format                                   : AC-32 ], N/ T, F1 \2 c4 [3 T
  85. Format/Info                              : Audio Coding 3% R6 e& s0 R$ {' a3 I
  86. Mode extension                           : CM (complete main)
    4 a2 I2 o+ h8 U( g6 c5 H
  87. Format settings, Endianness              : Big
    4 I: Q; i) J# X* b" |! s( O$ n
  88. Codec ID                                 : A_AC3
      ^& I( y2 W3 U+ r0 A) }9 |
  89. Duration                                 : 6mn 34s
    6 `( ~/ U; {/ ?3 e0 V% }
  90. Bit rate mode                            : Constant( l5 K3 [# t7 n& H
  91. Bit rate                                 : 640 Kbps9 R0 J  W5 G5 R( j
  92. Channel(s)                               : 6 channels" H* e# }9 G9 X5 x5 X. a
  93. Channel positions                        : Front: L C R, Side: L R, LFE
    6 R' z- _3 T# z; D7 w( I1 N
  94. Sampling rate                            : 48.0 KHz" |) b" O4 S- |# t9 E5 J
  95. Bit depth                                : 16 bits( o9 d7 T" H; W/ ?2 H; F  r* i
  96. Compression mode                         : Lossy9 R" K* [. M1 k" D$ x
  97. Stream size                              : 30.1 MiB (11%). p" e2 Y! @/ j; A9 n; _6 y5 f
  98. Title                                    : DD5.1 640Kbps(国语2)
    4 H( p) M- a9 f# g* X1 |4 q8 A+ o
  99. Language                                 : Chinese
    . H6 p' g. ?  p3 e1 Z! X" M0 y. ?
  100. Default                                  : No% Q0 Z. Y! n( A# R5 q
  101. Forced                                   : No
    * Z4 }8 f* n1 f. R  X( f
  102. $ C# c2 {* A* n9 q8 Y1 h
  103. Text #17 N5 V6 Z0 a& {" `- K  L
  104. ID                                       : 5$ f5 d6 H" X# C# U, S. V
  105. Format                                   : PGS
    - Q0 E, a" O  v0 x4 w; Y5 Y# m
  106. Muxing mode                              : zlib: m$ y2 Z* J: p% B% a
  107. Codec ID                                 : S_HDMV/PGS; s0 P9 `# T& D; V
  108. Codec ID/Info                            : The same subtitle format used on BDs/HD-DVDs
    2 U/ j; \! s  M, Y
  109. Title                                    : 原盘英文: H- U/ h/ I. i0 t- R( H+ a7 O3 r# I
  110. Language                                 : English
    ' t: f) L/ c3 q1 P$ [
  111. Default                                  : No
    ) \& n" q$ b! `& B! N/ d! L
  112. Forced                                   : No6 e& r/ V; T2 c, f! a- n; _/ ?9 u

  113. $ V% J7 l# v3 i+ P  e
  114. Text #2
    , h* \; S5 N0 x' N$ ]
  115. ID                                       : 6
    / F* f% B* T$ t' O) K' b! y
  116. Format                                   : PGS
    0 j5 A, P2 E) m( l3 z
  117. Muxing mode                              : zlib
    7 Q2 J5 _$ w  G0 O! a9 W
  118. Codec ID                                 : S_HDMV/PGS
    6 u0 o" {& ~8 X: R9 o
  119. Codec ID/Info                            : The same subtitle format used on BDs/HD-DVDs
    5 }/ n, b+ T4 `0 M" `; }' u1 R
  120. Title                                    : 原盘简体中文* V! q1 u* N2 P1 `6 H' H) d
  121. Language                                 : Chinese8 V- g, S+ o- e8 o' r" E1 n  f% D2 v
  122. Default                                  : Yes
    6 K" a. x- [" r' b" m: E
  123. Forced                                   : No
    $ j- b1 Q: G0 b0 U; N2 X9 M$ _

  124.   P# i% U  ?! |
  125. Text #3
      [6 I6 |; g1 n
  126. ID                                       : 7* W+ A9 g: d4 R# k& C5 s6 a$ ^% m4 C
  127. Format                                   : PGS
    / S9 J7 }" c4 f0 `% ^4 s
  128. Muxing mode                              : zlib0 J) G6 N: p/ W0 {) r4 `
  129. Codec ID                                 : S_HDMV/PGS
      i; U+ y0 K( c# i
  130. Codec ID/Info                            : The same subtitle format used on BDs/HD-DVDs
    8 I: a  K% o% a: p4 S1 x5 e
  131. Title                                    : 原盘简体中文(对应国语1)
    8 C0 y* r$ C$ h: Y
  132. Language                                 : Chinese4 j/ M) J" t  Z) k; @7 d
  133. Default                                  : No' M) V7 }& R: l- }. C: d
  134. Forced                                   : No
    + @" ]6 z# W0 t: T, Y* q, o
  135. " ]( M  L5 e8 j
  136. Text #4
    5 O5 _/ @. U( L: G" ?& v- i+ J. z" B
  137. ID                                       : 8
    # p7 b4 S- g) p2 ]! @0 ?) P8 n: u
  138. Format                                   : PGS
    6 t4 g6 q, z5 s" X' B9 j, D0 N0 W
  139. Muxing mode                              : zlib
    & ?' F5 e8 V1 _, c. X, g
  140. Codec ID                                 : S_HDMV/PGS
    1 d- j  O! f$ ]
  141. Codec ID/Info                            : The same subtitle format used on BDs/HD-DVDs
    , ~# R# h  @, [. _1 U+ R7 R1 ]
  142. Title                                    : 原盘繁体中文(对应国语2)
    ( Y" F2 E# g: ~/ T) x7 p0 V
  143. Language                                 : Chinese- M" [- U, a- ]  t) B; {
  144. Default                                  : No
    / i  y: \5 L' W* }
  145. Forced                                   : No
    , X* w: {$ Z: O4 i7 _) s

  146. 4 O& K3 s5 S* ]9 r- A' r
  147. Text #5
    ( D+ B, p8 C3 T" {9 B; F9 j
  148. ID                                       : 9
    ' Z6 A  E. }' B" }2 c* S- \+ n$ N
  149. Format                                   : PGS
    . G$ E! E6 a5 F$ W2 y1 L( x; o
  150. Muxing mode                              : zlib
    . J# x6 A1 m- u5 @( ^
  151. Codec ID                                 : S_HDMV/PGS
    4 K; L: b5 K: M# f! y+ c
  152. Codec ID/Info                            : The same subtitle format used on BDs/HD-DVDs
    4 P" z, m6 r+ j! d1 F
  153. Title                                    : 原盘繁体中文
    & I6 U  L4 o( u' [- ~
  154. Language                                 : Chinese+ F5 [" [  M1 g4 q8 j4 ]+ W& _
  155. Default                                  : No% H9 l8 z1 v6 u$ J+ L# i
  156. Forced                                   : No
复制代码
$ q0 z- E  h/ e( n" a
* x# w7 {  S/ g# d, b) ~& w

, b0 h1 C$ R  Z8 Z) l" M; m
游客,如果您要查看本帖隐藏内容请回复  捐助论坛可免回复查看隐藏内容 详情请点击
最近访问 头像模式 列表模式
HD一条街,身边的一条街。
netfox2008 该用户已被删除
发表于 2014-8-18 12:04:20 | 显示全部楼层
提示: 作者被禁止或删除 内容自动屏蔽
HD一条街,身边的一条街。
发表于 2014-8-18 12:10:07 | 显示全部楼层
果断回帖,如果沉了就是我弄沉的很有成就感
HD一条街,身边的一条街。
发表于 2014-8-18 12:10:15 | 显示全部楼层
HD一条街,是我心中的一条街
HD一条街,身边的一条街。
发表于 2014-8-18 12:29:35 | 显示全部楼层
又是一部7分钟的小电影,我喜欢,谢谢。
HD一条街,身边的一条街。
发表于 2014-8-18 13:28:05 | 显示全部楼层
进来支持下吧
HD一条街,身边的一条街。
头像被屏蔽
发表于 2014-8-18 13:28:43 | 显示全部楼层
提示: 作者被禁止或删除 内容自动屏蔽
HD一条街,身边的一条街。
huadi 该用户已被删除
发表于 2014-8-18 14:27:49 | 显示全部楼层
提示: 作者被禁止或删除 内容自动屏蔽
HD一条街,身边的一条街。
发表于 2014-8-18 15:33:09 | 显示全部楼层
看看再说吧
HD一条街,身边的一条街。

手机版|小黑屋|有问题发邮件到admin#(换成@)hd1tj.org|微博|免责申明|HD一条街

GMT+8, 2017-4-27 15:14

Powered by Discuz! X3.1

© 2001-2013 Comsenz Inc.

快速回复 返回顶部 返回列表