HD一条街

 找回密码
 立即注册
搜索
查看: 539|回复: 6

[演唱会] 韩国女子组合 2NE1 马来西亚演唱会[CUT]140524 2NE1 Yoo Hee Yeol's Sketchbook [Come Back Home (U

[复制链接]
发表于 2014-5-26 00:34:08 | 显示全部楼层 |阅读模式

马上注册,结交更多好友,享用更多功能,让你轻松玩转社区。

您需要 登录 才可以下载或查看,没有帐号?立即注册

x
RVSe.jpg 6 r3 c; O2 \, n& Q1 A. x$ y2 u

, X) _( t0 t( A3 [5 m6 R4 P24日举行的演唱会中,2NE1为马来西亚粉丝们带来了除《Crush》、《Come Back Home》等新歌外还有《我最红》、《I Don't Care》等经典歌曲。马来西亚粉丝们用韩语跟唱着歌曲,与2NE1成员们共呼吸.。
, N2 g5 f: N& }' P" Z: L! [
: M7 i. \$ a4 r  Y- J" v公演结束后,Dara还通过推特留言传达对歌迷的感谢。 而2NE1也将在6月8日前往印尼雅加达,继续展开世界巡回演唱会。
7 X: E/ R" d* R/ q! ~- L& G+ A" D  n- ~, H
此前,YG方面表示 2NE1将发行世巡演唱会《ALL OR NOTHING》Live CD ,此次推出的《2014 2NE1 WORLD TOUR LIVE CD ALL OR NOTHING in SEOUL》,自15日起可在包括YG SHOP在内的韩国线上线下音乐卖场进行预约. 。8 B- s- F- {7 V0 h" _' I
/ z) ?7 a. n6 g) [& `; r6 G3 E- I
此外,今年是2NE1出道五周年,2NE1也成为首个举办两次世界巡演的韩国女团,向世界各地粉丝展现了KPOP女团的独特魅力。
  1. General" D( @2 P- f: Q/ _$ L& c
  2. Format                         : MPEG-4: z' {3 w# y5 x" S1 k( x
  3. Format profile                 : Base Media
    , p; H& y2 J8 {5 Y8 F/ U
  4. Codec ID                       : isom
    : r+ k  [* b9 H3 |+ V: _' C
  5. File size                      : 417 MiB1 L+ O3 M" I* I+ A( Y
  6. Duration                       : 6mn 55s
    - y1 B0 U; \/ l, V) q& u: P
  7. Overall bit rate               : 8 422 Kbps) r) C) X, I# `$ K' f2 Z; v/ `
  8. Encoded date                   : UTC 2014-05-25 01:11:167 W0 G& T; O; n+ ]6 _3 [/ d* j6 x
  9. Tagged date                    : UTC 2014-05-25 01:11:16$ X" M* K4 S8 }% B4 K- B0 K
  10. 8 F* i1 M* }# \! d3 f8 ^
  11. Video
    1 Y8 x- {" z9 D# \! E0 m, f" d1 X2 d
  12. ID                             : 2
    3 r) L: t. w$ Z' y( c, F
  13. Format                         : AVC
    - c3 v+ i3 a9 w! |: y7 Y! e- p
  14. Format/Info                    : Advanced Video Codec
    $ n1 u0 [) M7 U! b- f
  15. Format profile                 : Baseline@L3.0
    0 L; a( g* i8 g
  16. Format settings, CABAC         : No
    , |8 i5 s: j6 t$ d) |% c  x5 D
  17. Format settings, ReFrames      : 1 frame) C  c. g3 Y* D4 p
  18. Muxing mode                    : Container profile=Baseline@4.11 ]8 i" a- r/ Q' N2 Z# s  T6 T
  19. Codec ID                       : avc1
    9 `/ s4 ~; S5 N+ }- h
  20. Codec ID/Info                  : Advanced Video Coding; b) F& f3 |/ p
  21. Duration                       : 6mn 55s% I# r6 V* D1 X) C& s+ a+ j4 n) N4 Z+ _0 I
  22. Bit rate                       : 8 250 Kbps: g5 p. {$ T% o' u# G8 v
  23. Width                          : 1 280 pixels
    $ r7 c( E  b, ]% i( @2 @
  24. Height                         : 720 pixels
    & R' @4 P2 a" w; p+ W7 ~% H! v6 {
  25. Display aspect ratio           : 16:9
    ; G, Y/ Q, J! b  W# |/ T
  26. Frame rate mode                : Constant
    3 W% Z* o6 p  N8 \
  27. Frame rate                     : 29.970 fps
    " L6 p6 J6 X* q3 _" F" f
  28. Original frame rate            : 29.000 fps) [* R" f. U8 @) w: f, E9 a6 y4 ~
  29. Color space                    : YUV. |3 r, y* Z/ A: i/ n5 ]6 Y
  30. Chroma subsampling             : 4:2:0
    + L3 G) t6 R' Y/ V$ X
  31. Bit depth                      : 8 bits4 m4 b9 `: q+ U. T; ^3 j7 V
  32. Scan type                      : Progressive. N5 R; G8 A4 a& E2 P
  33. Bits/(Pixel*Frame)             : 0.299
    3 O) }7 v  ^: X/ o
  34. Stream size                    : 408 MiB (98%)
    + E. c# ?- c! Z8 P
  35. Language                       : English& I: `7 d6 [* C0 [* c$ t

  36. ; E0 _& b" p6 {; S
  37. Audio
    ! U) \9 I3 Z9 Z5 V" Z- }+ W
  38. ID                             : 1
    9 n: d; l  T9 D3 z" P
  39. Format                         : AAC$ ^: J2 a& w8 ?) M1 ]8 x
  40. Format/Info                    : Advanced Audio Codec# |) k& L: i( J1 a; A3 ]! H
  41. Format profile                 : LC& S6 S; i4 U/ E
  42. Codec ID                       : 40: [0 _$ S4 T1 `( Y/ k8 |
  43. Duration                       : 6mn 55s
    : \4 f0 H+ ?% \3 o( N
  44. Bit rate mode                  : Constant% }4 L/ x' `7 x3 N( ~) \
  45. Bit rate                       : 165 Kbps9 S& x' O1 i, @+ H- V3 f
  46. Channel(s)                     : 2 channels
    8 R* f9 G* N, @# U& o7 U/ _
  47. Channel positions              : Front: L R
    , ], E6 c8 t* \" {2 P
  48. Sampling rate                  : 48.0 KHz$ p: T3 |. h5 M  ]3 ]
  49. Compression mode               : Lossy
    8 L, ?" a$ f0 K( {9 {* n
  50. Stream size                    : 8.18 MiB (2%)% c+ U7 q$ ]3 A- i' W4 X  r) b
  51. Language                       : English
复制代码
" `# G/ C- `+ _6 M9 j
; ^+ }* G7 P& A% @

6 {1 Z' O5 f& f7 Q. q6 e5 y! v1 o sjCkv.jpg
3 A, [3 V' U" V% r; Q# u& a/ Q2 y8 G

& r# R& X+ P2 G+ U0 h8 w* l/ e+ O下载地址:推荐使用UT下载
+ V( \( a6 @; C; {( y# B% R3 x8 Y
3 p* o# f; _- b% A" p; h( f
游客,如果您要查看本帖隐藏内容请回复  VIP可免回复查看隐藏内容 详情请点击
gary2105 该用户已被删除
发表于 2014-5-26 00:49:45 | 显示全部楼层
提示: 作者被禁止或删除 内容自动屏蔽
zhangsifu 该用户已被删除
发表于 2014-5-26 08:54:33 | 显示全部楼层
提示: 作者被禁止或删除 内容自动屏蔽
发表于 2014-5-26 18:45:53 | 显示全部楼层
希望楼主在HD一条街里多多发布更好的资源
发表于 2014-5-26 22:55:24 | 显示全部楼层
影视资源尽在HD一条街中,
头像被屏蔽
发表于 2014-5-27 20:44:02 | 显示全部楼层
提示: 作者被禁止或删除 内容自动屏蔽
BPOOI 该用户已被删除
发表于 2014-7-17 22:00:32 | 显示全部楼层
提示: 作者被禁止或删除 内容自动屏蔽
您需要登录后才可以回帖 登录 | 立即注册

本版积分规则

QQ|封号公示|有问题发邮件到admin#(换成@)hd1tj.org|微博|免责申明|HD一条街

GMT+8, 2021-4-12 07:48

快速回复 返回顶部 返回列表