开启辅助访问 切换到窄版

HD一条街论坛

 找回密码
 立即注册
查看: 568|回复: 24

[其它] 维多利亚一号/維多利亞壹號[粤语 英文字幕] Dream.Home.Wai.dor.lei.ah.yut.ho.2010.DVDRip.Xvid.Eng.Subtitles.LKRG 878M

[复制链接]
发表于 2014-5-15 22:43:03 | 显示全部楼层 |阅读模式

1 w) o' h. T" z7 M! ^                               
登录/注册后可看大图
2 ]9 L4 L+ u9 ^2 Y6 L6 c
7 }  O, i( o( @8 j8 t+ A5 V4 x
4 x3 ], d! I# J( n2 B. M, N& ~* o
导演: 彭浩翔% k. W( o% L% T$ R% J9 e0 e/ s! N
编剧: 彭浩翔 / 曾国祥 / 尹志文
3 Y8 l0 Z8 `. x5 c7 Q$ }" b主演: 何超仪 / 陈奕迅 / 周俊伟 / 曾国祥 / 单立文 / 王青 / 卢海鹏 / 麦浚龙 / 叶璇 / 徐少强 / 鲍起静 / 宋娟 / 周楚楚 / 骆应钧 / 陈伟雄
0 S' Z7 W! G: m. Z& W0 y+ S类型: 剧情 / 动作 / 惊悚 / 犯罪
' M6 h3 v1 M8 v$ M5 z制片国家/地区: 香港% b2 E# U& {- P. g% j
语言: 粤语) r1 ]( |" u$ q" B% R$ E
上映日期: 2010-05-13) U) Y  J- |2 E) E
片长: 96分钟% z% E: N9 P: P1 z# M
又名: 维多利亚的港湾 / Dream Home
) Y/ k' l4 u6 Z7 j8 m( TIMDb链接: http://www.imdb.com/title/tt1407972
# z0 R. d& D% W: ?/ I0 Q* V) p/ N0 c+ K. `7 {2 h
维多利亚一号的剧情简介  ·  ·  ·  ·  ·  ·3 z% S* |# K' i' @" m5 @: [" p
  某银行话务员邓丽嫦(何超仪 饰)自幼生长在一个平民家庭,她始终有一个情结,那就是努力赚钱买一套可以看得见大海的房子。为了这个目标,阿嫦努力工作,下班后还干着两份兼职,甚至和同事利用职务之便聚敛外快。眼看就要存够豪华大厦维多利亚一号的首付,但是偏偏赶上楼市疯涨的时候,签合同当天房主反悔,宁可赔付违约金也不愿按原价出售。为了房子而不懈努力的阿嫦遭受巨大打击,在万圣节前夜,这个几近崩溃的女子带着一身杀意走进了维多利亚一号…… ) d/ v$ Y& P3 a
  本片在香港上映时被评为三级片,港三正版DVD发行时正片删掉5分钟左右过激镜头,被删镜头以花絮形式附录DVD中
0 c+ |% B" h+ P/ l
- Z, @: p4 f2 I2 y! H3 o) G维多利亚一号 維多利亞壹號 获奖情况4 _; V7 H0 f8 Z% F  J7 u
第47届台北金马影展 (2010)/ c* [" T9 n2 u" s

/ m" v! @. y& T( o金马奖 最佳视觉效果(提名) 何培坚 / 梁伟杰 / Vitaya Deerattakul / 连凯 / 吴炫辉 / 王英豪
/ d) _) N9 f2 C. a7 \" O, N. k第30届香港电影金像奖 (2011)
6 D+ {5 g3 n3 X( c# D* G0 p3 g3 X  t7 P, n+ k2 o6 }
最佳女主角(提名) 何超仪, m1 g5 V4 s6 [/ M2 a
最佳音响效果(提名) 杜笃之+ {0 J/ a) x& |* q2 I  Y' t& p, x
最佳视觉效果(提名) 吴炫辉 / 王英豪 / 何培坚 / 连凯
  1. Runtime ..........: 1h 32mn
    ! b, F! r2 \# u" P
  2. 1 q$ o( Q5 G7 i2 `8 I/ l
  3. File Size ........: 878 MB6 J$ D- m' j3 W' H

  4. $ k' i+ @7 Q" l1 J: e5 r
  5. Resolution .......: 720 x 352
    " B1 Y  N  s0 e" f  G# F" n

  6. 5 j+ E3 `+ N- I
  7. IMDb URL .........: http://www.imdb.com/title/tt1407972/?ref_=nv_sr_26 v. T  z$ O' D% R1 z

  8. 6 ?- A% |3 \; ?7 h) o0 j: M
  9. Genre ............: Horror,Drama
    , q. }( ?8 F* v' R4 F/ B

  10. ; P" R4 ?: C, q/ |/ f
  11. Language .........: Cantonese
    . t7 ^8 ?, y6 G* o" K

  12. $ z( \5 a4 N8 q: ?/ ~4 o6 g
  13. Subtitles ........: English
    * w6 z# g6 e; C( C4 q6 b% v

  14. $ o8 R0 F0 a# t' v: W9 u$ m' C  e
  15. Complete name                            : Dream Home Wai dor lei ah yut ho 2010 DVDRip Xvid Eng Subtitles LKRG\DH_Wai dor lei ah yut ho_LKRG.avi: |0 ?! p* a# B/ |( r
  16. $ q$ l  s$ C/ T( p& X
  17. Format                                   : AVI* e! z& T$ K2 z

  18. 1 I# N1 v; H6 L, d6 z% j
  19. Format/Info                              : Audio Video Interleave, U8 h7 G/ @) q2 ]
  20. ( V4 A6 j, |2 c, O0 y2 y6 H. r
  21. File size                                : 878 MiB, T: n- P, f" _2 h
  22. - h$ c  J8 x0 O' ]3 G
  23. Duration                                 : 1h 32mn
    5 D9 b( q2 _$ F5 f; N: s
  24. 0 B/ u! @: _$ B/ f2 R
  25. Overall bit rate                         : 1 329 Kbps
    $ H+ G9 z) w2 r/ {
  26. , n+ K( R1 D0 ~+ g8 `
  27. Writing application                      : VirtualDubMod 1.5.10.2 (build 2540/release)& @* I/ b/ g7 b6 z$ S4 o4 o" Y
  28. 9 B. [  S& @  _
  29. Writing library                          : VirtualDubMod build 2540/release
    0 G: b" J/ m' s; c( H

  30. : K' g8 k# j5 d- F4 y
  31. Video
    6 }2 k* ^! _; s# e4 V  ?3 ?/ ~

  32. 7 W8 E  [" b0 Z7 Q
  33. ID                                       : 0. y' {9 ^# L$ h4 A7 c1 Y
  34. ' A! f  D: K7 K; o: {
  35. Format                                   : MPEG-4 Visual- K# Q. t( J: j7 e
  36. 0 M3 l0 N0 |8 D: e
  37. Format profile                           : Advanced [email protected]. p6 D( W# }* z. K) R7 x7 C+ e% Z
  38. 4 }: j. p7 P0 h5 z8 d6 d
  39. Format settings, BVOP                    : 25 b4 V) _% g4 ~4 d' d4 p$ E

  40. # k3 f9 h9 F8 x7 G: A
  41. Format settings, QPel                    : No' f% z6 k  [0 @  j; }: U0 c+ Y5 a
  42. / k9 h9 C/ h- I1 I+ G
  43. Format settings, GMC                     : No warppoints1 u$ @$ P3 t/ p( `5 z' O1 X: [, d

  44. - L! l% S$ X/ Z4 C% b4 Z
  45. Format settings, Matrix                  : Default (H.263)3 ]. b3 X- L8 d" z
  46. 1 r* J( [+ F5 M$ Y; q( x
  47. Muxing mode                              : Packed bitstream
    3 |) O* g& C9 z

  48. " G8 K5 F/ ~2 R- ]" e1 J: i+ s. A
  49. Codec ID                                 : XVID+ _: j; Q& K1 z
  50. 2 Z6 I; `4 N. v) L0 B8 V1 F
  51. Codec ID/Hint                            : XviD0 U6 U  L0 C+ Z% a- N/ a. U
  52. 8 J) x7 b2 m7 ^% z4 t, x7 v# H
  53. Duration                                 : 1h 32mn4 \. }+ \7 l/ ~" C8 c1 w

  54. ) @2 N  ~$ M) _9 S% b& C" V0 v6 G
  55. Bit rate                                 : 869 Kbps
    - N+ t# }* w- {5 p: m/ _

  56. % b# E5 R/ Q/ l7 E
  57. Width                                    : 720 pixels
    7 j' B, ]( E% _0 Y) W
  58. % I. l! o# ~" K) {
  59. Height                                   : 352 pixels+ K  c, O; g/ k* r* S7 }  L
  60. 9 q& d- O3 ^8 r# p
  61. Display aspect ratio                     : 6.294
    ' K9 K% V4 ?2 h3 i  r

  62. / N$ l7 T7 I& ~  [6 o7 a2 ~8 x
  63. Frame rate                               : 29.970 fps7 g4 {' S, u5 g* L, V

  64. 0 _- w, b% d" j( J2 v* f
  65. Color space                              : YUV
    4 C) o6 h$ Y( h3 Q5 I$ C# H  R

  66. - B+ \# }: O' ~$ O. }' L
  67. Chroma subsampling                       : 4:2:0. S/ W  \8 A# L/ |6 D
  68. - s8 u" |" H5 }9 {: b2 N4 m
  69. Bit depth                                : 8 bits
    7 \- }1 {; f# x7 {7 R

  70. / R: q* H( R, U: i/ Q! g; A
  71. Scan type                                : Progressive
    2 ?  z0 P- F- G' |9 x8 l0 O. X1 D
  72. 2 O2 }5 O/ q/ x$ a' s
  73. Compression mode                         : Lossy. m' y  U& V5 r, s7 T" z

  74. , Y* I% @! ]" B8 B  V$ C" q
  75. Bits/(Pixel*Frame)                       : 0.114; {' J; q$ v5 k/ k" w. t
  76. 8 j' Z+ N; X- I' i$ m% I
  77. Stream size                              : 574 MiB (65%)
    ; W! H1 o+ E* K0 ?1 }+ P7 w

  78. + y# ?& Q6 {2 v" {0 Y* Q; m8 B
  79. Writing library                          : XviD 1.2.1 (UTC 2008-12-04)9 h6 [- L* f; ^

  80. 9 k. k+ t7 n( @. M; c
  81. Audio; H  O5 F+ s% i: i$ C

  82. 9 f+ F" I+ X/ N% }3 w
  83. ID                                       : 1
    : i) T. d6 O+ P0 ~% F2 ?
  84. * f% O; l/ ]6 h" g/ t6 ?1 o
  85. Format                                   : AC-3: }: H5 k2 }: `& s, {
  86. ; r1 I" U1 D2 L6 c' x. C; T+ q
  87. Format/Info                              : Audio Coding 3
    " W; w( O+ F7 d5 N

  88. 8 ~: D, v7 Z6 D1 n6 K, `# \4 ~% L
  89. Mode extension                           : CM (complete main)
    7 _5 ]+ @% v, t6 g) v

  90. 9 g5 e& e) ~0 D. D3 C  I
  91. Format settings, Endianness              : Big; o7 O3 B+ G, I" q3 ~) V1 D0 H9 z
  92. ) F, }. J6 P6 U! z& S* I0 L+ o
  93. Codec ID                                 : 2000
    / X* ]6 v3 _8 Q/ d$ S+ k; P
  94. 0 k. d# V; H2 P8 L
  95. Duration                                 : 1h 32mn1 N) A5 c* Q1 C

  96. ) m) Q0 x5 V, \) T+ W# j
  97. Bit rate mode                            : Constant
    : I2 J* _; f( p5 M9 d( r

  98. 9 d& g0 D! A5 S. @
  99. Bit rate                                 : 448 Kbps
    * t. M7 S, J) ]8 d
  100. 3 m# S/ x: I" F# Y: e
  101. Channel(s)                               : 6 channels
    % M1 H, X/ R! J
  102. 4 }# E7 d3 x! E. E0 J$ L! O* q; S
  103. Channel positions                        : Front: L C R, Side: L R, LFE
    + I4 X% q( G4 y+ `, n( n0 ~
  104.   d, S+ o4 T) ~" x9 s1 a
  105. Sampling rate                            : 48.0 KHz( B3 ^: P- A: Q$ n7 Q
  106. 4 K9 x+ t5 z) z' B6 O! t
  107. Bit depth                                : 16 bits, g9 d# L* b  @  O& v8 k$ P% x! T. d
  108. ( T1 l+ v7 @0 \% K1 p4 {
  109. Compression mode                         : Lossy1 Y( t" q/ P  Y+ t1 P: e

  110. * \  ^* Z) {8 W* W. |
  111. Stream size                              : 296 MiB (34%)9 n. ^2 v' U3 l, ^% A+ q4 e* r# A
  112. $ y$ P  i3 N* L6 z( p) q1 s( Y
  113. Alignment                                : Split accross interleaves
    5 h& z- B; L* b- k( h

  114. , y: V! |) G9 q0 U
  115. Interleave, duration                     : 33 ms (1.00 video frame)
    8 C, Q  R. Z# B
  116. ; {( v* I2 Y/ L2 ^3 k: A! I" m
  117. Interleave, preload duration             : 500 ms
复制代码
6 Z* J# G- R& Y$ F

7 h3 j3 ]4 W9 q5 O4 S2 X1 e

; Y; o6 r' ?/ m- e( c                               
登录/注册后可看大图
: A! E/ @7 g5 m8 k2 s  L% J+ J$ a

5 h7 q: S# [) j* Y/ F# H

" ^2 X0 a4 X% H2 b3 i                               
登录/注册后可看大图
5 ~+ C1 P+ B& r+ w+ E* {( u- L
3 x6 c' u5 s9 j! O: Q
1 b) z1 [* E$ U' _; I
                               
登录/注册后可看大图

. n" ^) W  ^" c4 Y1 p; Y7 E- @+ y5 g

5 w4 _" j. ^! A: P4 X7 V  t7 @) m6 A                               
登录/注册后可看大图

7 A* y, t5 J( g) s+ k( I. w# }, O0 i" Y( b

( ]. `& h5 j4 _( H; N9 W' W  E, D                               
登录/注册后可看大图
) g6 C6 E. W% b$ D
( Y/ s$ L) t; y# G9 V- M

9 y% I+ A$ h' {! Q/ n) Y【下载地址】3 S& o5 g& V; P; P

$ u( U0 K6 K3 Z, G7 @2 ?# Y
游客,如果您要查看本帖隐藏内容请回复  捐助论坛可免回复查看隐藏内容详情请点击
最近访问 头像模式 列表模式
HD一条街,身边的一条街。
dny28e 该用户已被删除
发表于 2014-5-15 22:45:28 | 显示全部楼层
提示: 作者被禁止或删除 内容自动屏蔽
HD一条街,身边的一条街。
[email protected] 该用户已被删除
发表于 2014-5-15 22:54:38 | 显示全部楼层
提示: 作者被禁止或删除 内容自动屏蔽
HD一条街,身边的一条街。
╄→┊.開始 该用户已被删除
发表于 2014-5-15 23:38:31 | 显示全部楼层
提示: 作者被禁止或删除 内容自动屏蔽
HD一条街,身边的一条街。
发表于 2014-5-15 23:58:21 | 显示全部楼层
看海报就不是一般的片子,值得一看,希望有更高清的就好了
HD一条街,身边的一条街。
gary2105 该用户已被删除
发表于 2014-5-16 00:00:34 | 显示全部楼层
提示: 作者被禁止或删除 内容自动屏蔽
HD一条街,身边的一条街。
ele_hoe0612 该用户已被删除
发表于 2014-5-16 01:53:37 | 显示全部楼层
提示: 作者被禁止或删除 内容自动屏蔽
HD一条街,身边的一条街。
发表于 2014-5-16 07:16:49 | 显示全部楼层
HD一条街,是我心中的一条街
HD一条街,身边的一条街。
纯表情雍容 该用户已被删除
发表于 2014-5-16 08:32:36 来自手机 | 显示全部楼层
提示: 作者被禁止或删除 内容自动屏蔽
HD一条街,身边的一条街。
您需要登录后才可以回帖 登录 | 立即注册

本版积分规则

手机版|小黑屋|有问题发邮件到admin#(换成@)hd1tj.org|微博|免责申明|HD一条街

GMT+8, 2016-12-3 06:14

Powered by Discuz! X3.1

© 2001-2013 Comsenz Inc.

快速回复 返回顶部 返回列表