开启辅助访问 切换到窄版

HD一条街论坛

 找回密码
 加入我们
查看: 625|回复: 24

[其它] 维多利亚一号/維多利亞壹號[粤语 英文字幕] Dream.Home.Wai.dor.lei.ah.yut.ho.2010.DVDRip.Xvid.Eng.Subtitles.LKRG 878M

[复制链接]
发表于 2014-5-15 22:43:03 | 显示全部楼层 |阅读模式
+ r  n: Q" B; L7 V8 ?! P  S
                               
登录/注册后可看大图
- c8 o2 B& m* b: z" s6 e" h) ^

( G' n: o2 N# C6 k9 R! a7 c! m& F
导演: 彭浩翔
) {5 \& R) G. X编剧: 彭浩翔 / 曾国祥 / 尹志文
; j- T$ G+ l7 y# D主演: 何超仪 / 陈奕迅 / 周俊伟 / 曾国祥 / 单立文 / 王青 / 卢海鹏 / 麦浚龙 / 叶璇 / 徐少强 / 鲍起静 / 宋娟 / 周楚楚 / 骆应钧 / 陈伟雄
, G  J) C1 A# e4 [  E+ d, h类型: 剧情 / 动作 / 惊悚 / 犯罪
& @# Q. H  a9 a/ [7 o制片国家/地区: 香港
8 j5 n8 S% [9 ?* E# }' n" p. u语言: 粤语
+ _7 Z/ P- S1 v: {6 K; S2 k$ r+ F上映日期: 2010-05-13
7 m) a- r* h$ s2 O1 W% x片长: 96分钟
9 U- j6 R& j3 x  T% C8 A! W/ y又名: 维多利亚的港湾 / Dream Home
1 ]. Q4 V, x' K' uIMDb链接: http://www.imdb.com/title/tt1407972
2 o2 Z' X' \- l- y' h+ e5 p8 I( V$ b! _$ r: k) m7 Z
维多利亚一号的剧情简介  ·  ·  ·  ·  ·  ·/ e% b, _. f: x% O
  某银行话务员邓丽嫦(何超仪 饰)自幼生长在一个平民家庭,她始终有一个情结,那就是努力赚钱买一套可以看得见大海的房子。为了这个目标,阿嫦努力工作,下班后还干着两份兼职,甚至和同事利用职务之便聚敛外快。眼看就要存够豪华大厦维多利亚一号的首付,但是偏偏赶上楼市疯涨的时候,签合同当天房主反悔,宁可赔付违约金也不愿按原价出售。为了房子而不懈努力的阿嫦遭受巨大打击,在万圣节前夜,这个几近崩溃的女子带着一身杀意走进了维多利亚一号…… - w* E; s2 `* I" V4 Z( P
  本片在香港上映时被评为三级片,港三正版DVD发行时正片删掉5分钟左右过激镜头,被删镜头以花絮形式附录DVD中
: {. e: z0 c4 u9 w# K2 }
$ _) e" u% \$ t2 L2 U& H3 p; g* {) N# A维多利亚一号 維多利亞壹號 获奖情况
: G  X0 a; W/ G第47届台北金马影展 (2010)
0 V2 `  x$ d* g* g! ?* V
: [# Z/ B6 a. n' O0 i0 _金马奖 最佳视觉效果(提名) 何培坚 / 梁伟杰 / Vitaya Deerattakul / 连凯 / 吴炫辉 / 王英豪
! y, K9 P! M. I6 a第30届香港电影金像奖 (2011)  w& d6 u& s& V) Y

: b8 X( _, _9 q$ `. ~' G$ @* v最佳女主角(提名) 何超仪" K1 u* V3 M+ F( c& f$ S  X
最佳音响效果(提名) 杜笃之
! b+ t  R6 v% M; J! }最佳视觉效果(提名) 吴炫辉 / 王英豪 / 何培坚 / 连凯
  1. Runtime ..........: 1h 32mn& J/ c% Z3 k: L+ q" _) Y( T& @( v

  2. # q7 D" @0 m# J1 {- A4 V
  3. File Size ........: 878 MB
    1 O* B2 r3 U2 @/ j- M0 A0 q

  4. 4 R/ X6 {5 v' T4 p# [
  5. Resolution .......: 720 x 352; A" O6 O' j  i0 K$ X% G9 Y  L# b
  6. 2 i5 Z9 v: Y" V8 e" R0 c: L+ a/ i
  7. IMDb URL .........: http://www.imdb.com/title/tt1407972/?ref_=nv_sr_22 `+ t$ ?; N9 c* R: K' `

  8. 2 R- x; f& d" F6 w! Q# ^% f: Y
  9. Genre ............: Horror,Drama: U8 W. F% U" q" r, ~5 B; ?/ V

  10. 7 O0 Q) f7 Z: n4 h' y9 I) A
  11. Language .........: Cantonese: [, t/ G) i4 Y1 W' W0 z

  12. 9 S3 [) M' s( X, o% T
  13. Subtitles ........: English
    9 Z4 `% l% a- Z8 g6 e4 w" I4 a$ P. O

  14. 0 h: w7 a4 X) p3 \7 H
  15. Complete name                            : Dream Home Wai dor lei ah yut ho 2010 DVDRip Xvid Eng Subtitles LKRG\DH_Wai dor lei ah yut ho_LKRG.avi& @- q( g+ |5 T4 Y

  16. ) n" o: |& G) Q1 U
  17. Format                                   : AVI# T* @; c; _6 |, g0 M! ]  v

  18. 6 `# _% k9 D) \! o) A/ Z6 a
  19. Format/Info                              : Audio Video Interleave
    6 O+ z7 M" L$ H! N( U. s

  20. : ]/ H" F+ k2 |7 x) h7 x
  21. File size                                : 878 MiB6 n3 `; g/ F" h+ J. I7 D, o

  22. ' H2 I  y4 ~/ J, T
  23. Duration                                 : 1h 32mn, @& ~, z+ r/ }6 j

  24. ! a2 `+ w& y, U% ]- ~+ G: ?# J+ W
  25. Overall bit rate                         : 1 329 Kbps( i+ e% i8 E  @: l. l8 a: K3 n# v

  26. ! ^- A% q0 u8 _* m( d, |0 A
  27. Writing application                      : VirtualDubMod 1.5.10.2 (build 2540/release)4 W* A) Z+ E# E# e( y+ o* G. m& ]

  28. 4 x( @. L& k1 M$ J% R' R! O6 e
  29. Writing library                          : VirtualDubMod build 2540/release! m/ U! v" n. ~4 U

  30. % {$ C! v# q3 F8 C) o& t2 K
  31. Video
    3 k; C4 q& G1 X, p. n8 O7 H
  32. 2 U: u) _" l0 U; h  u0 `/ U
  33. ID                                       : 0
    2 c# j" T8 H: @% b# i

  34. $ x, C# J' r9 p* ]1 F
  35. Format                                   : MPEG-4 Visual
    0 K: }# |+ M* Y
  36. 9 |9 i+ |+ C( Z' [6 _
  37. Format profile                           : Advanced Simple@L5
    ' ^. N- j0 E, a

  38. * b8 m; f7 q! f8 Y$ o$ p+ [  d
  39. Format settings, BVOP                    : 2$ {: E& T" s' i+ B- J

  40. 0 N; H1 M; [- F! T3 {
  41. Format settings, QPel                    : No1 |, z. z9 r& x9 L7 ~

  42. 7 i5 w; n2 j0 ~  Q6 R
  43. Format settings, GMC                     : No warppoints
    + I: c! k; C: p, r/ g

  44. . F, K2 k$ \) S2 r: P( v' \
  45. Format settings, Matrix                  : Default (H.263)0 H2 z2 z" e7 o2 r- R. l; o

  46. ( d6 J2 d7 O8 p0 b) _
  47. Muxing mode                              : Packed bitstream
    4 Q$ l* c6 m7 i0 a& {
  48. ) w  s3 W+ {7 Q+ z% }
  49. Codec ID                                 : XVID! H2 j  [+ M0 w3 i/ }1 G4 }

  50. 6 r- X8 B1 ]6 F3 w0 @$ g" [6 l
  51. Codec ID/Hint                            : XviD/ j- `* p& E" Q) `5 d: d* V0 q

  52. % ]  J) D6 z1 F' R- h' e5 h: |
  53. Duration                                 : 1h 32mn
    : [  Y" S# T) P7 t+ ?, X

  54. ' V" F' L/ J, g# ~- ?: R
  55. Bit rate                                 : 869 Kbps8 u" B; k  L+ j2 q

  56. , f* b3 C/ S" }) V
  57. Width                                    : 720 pixels
    3 A4 f. x0 k7 t$ y& H

  58. , C4 [: d  d. J2 Y! i3 F# G
  59. Height                                   : 352 pixels$ D. g1 d( P, t: g7 J/ f

  60. $ \, M0 \2 s# M% X$ g9 C
  61. Display aspect ratio                     : 6.294
    9 ~* s" {" b- c# l$ M
  62. 6 o: j9 B* L3 ^5 I, T/ J0 s
  63. Frame rate                               : 29.970 fps
    : j" s1 `6 M- U. O
  64. , g5 ^( [* a: f. _  d/ h
  65. Color space                              : YUV
    9 c) @8 |3 b) i% G6 U
  66. 2 G# j* \) h! Z# D: R/ u
  67. Chroma subsampling                       : 4:2:0% s5 x+ x. o1 ~: t

  68. ! b9 {  `: z! s- ~" f8 X6 W
  69. Bit depth                                : 8 bits
    6 L, T' X: o: `# G9 a$ n: n7 b' T# t: J
  70. ) k& \) o8 V: v- L1 }* J7 m4 ^
  71. Scan type                                : Progressive* K- g6 E2 V# p/ ]3 D

  72. 9 E* c3 h1 V% V
  73. Compression mode                         : Lossy
    0 ~8 c+ c" x$ x! Q1 O
  74. 3 D$ s3 W9 y& W. R8 [5 f
  75. Bits/(Pixel*Frame)                       : 0.114
    : m: a# p& f* g9 M0 y

  76. ' z0 y. b8 }4 |' w+ I
  77. Stream size                              : 574 MiB (65%)+ |. {) y' @. H; ^
  78. " Y* ?2 j& G# e0 b5 }2 a
  79. Writing library                          : XviD 1.2.1 (UTC 2008-12-04), ^5 q: O; m3 u# ]) \- w1 h
  80. - d/ b) D# y/ x8 I( s5 u
  81. Audio
    7 V; C& C; i' p3 ~: R
  82. 8 _3 C5 U6 O  I: d! W- w
  83. ID                                       : 1! L# i! H# e, L# ]
  84. * t+ d* C. ]1 N& K( X
  85. Format                                   : AC-3
    9 D# X4 B! y; d: h0 R: C8 @# C/ A

  86. 6 L  O  O9 T; j- }6 r
  87. Format/Info                              : Audio Coding 3
    0 w2 r7 I/ X" n: T/ k. _

  88. 0 U9 i% |7 Z; \( v; i, f% o
  89. Mode extension                           : CM (complete main)
    * f: P% J7 r. [% T7 e8 m- K
  90. 4 H4 r2 v/ p9 s2 O
  91. Format settings, Endianness              : Big
      ^! `; `, u2 i1 k$ r0 d) C, {
  92. # V' ]8 z) q9 h8 \" C/ ?5 g: l
  93. Codec ID                                 : 2000
    * i' v$ D. o5 c9 k( t
  94. $ Q4 K4 x; p$ ~  g8 R8 Y
  95. Duration                                 : 1h 32mn4 K* B& w9 r: K
  96.   @$ c6 Y+ C& p) C
  97. Bit rate mode                            : Constant
    : e" q0 Y+ f9 t- ^- C" j' Y
  98. & h% t7 n" H: @9 G
  99. Bit rate                                 : 448 Kbps; E4 J1 N+ ]( N% I8 j

  100. 6 ?  _9 i7 _( T8 ^4 V0 s
  101. Channel(s)                               : 6 channels$ q3 f) O* a5 d/ q* a* t
  102. ' }: I5 P+ q! ~8 Z, W
  103. Channel positions                        : Front: L C R, Side: L R, LFE5 A4 e4 L3 Z9 D0 d

  104. * X# ^* G! m6 t8 Q& e$ \1 Q" k
  105. Sampling rate                            : 48.0 KHz* T. V' f+ q4 K2 w+ }, D

  106. / x3 p- Y- X# u8 ]7 E  i
  107. Bit depth                                : 16 bits
    $ M4 {; m* b2 P6 Z# h3 P

  108. # Z/ K- I* O; ~
  109. Compression mode                         : Lossy1 j. ]0 T) L' S. M4 m
  110. ! A% R: _* B. l
  111. Stream size                              : 296 MiB (34%)  B  ^5 ]7 a# m, u: k  J7 Z! Q
  112. : D  ~, w+ U9 e- k# e6 m
  113. Alignment                                : Split accross interleaves
    : c. {. i  G0 A

  114. # g, t1 ]1 l& t& I7 l' f3 A
  115. Interleave, duration                     : 33 ms (1.00 video frame)/ Q: p" c" Z. d& G4 K4 ?

  116. / |1 e5 S9 t  E: {3 X8 U8 d
  117. Interleave, preload duration             : 500 ms
复制代码
% }. ?$ F0 w- o) ]6 T3 H
3 q* A3 }& K# W# b- S; b7 V& Q
2 u$ L. i7 y0 d7 [! H
                               
登录/注册后可看大图

( V5 ]8 a7 k, E# f7 `0 w* u  n% b3 N( s+ H) H9 M& H
  p- e+ R- l/ t3 _# ~3 N
                               
登录/注册后可看大图

! D6 B1 W$ i. b" ^1 b) b8 P  \  G4 i; g5 }) {9 G: }5 k

, k8 [" x( G% Z) g! X% o                               
登录/注册后可看大图
- G" ]: Y5 r* H/ E5 O: O8 p* p0 s

) j: `, h3 C# J/ Z2 R
* Q+ _" }2 F! M! x* T% r2 a! v- Z
                               
登录/注册后可看大图

- V, z1 h$ {: g0 u' f$ E
1 ?. E6 c8 k$ Q7 f! i

6 m1 D! @" P2 ?3 e4 o                               
登录/注册后可看大图
4 }1 X" J" b! H; @4 d" y2 K

" C7 v6 \  R3 ~6 G' e, \. R9 [  m+ ]
【下载地址】7 L  w, I# y; r8 V

- N% @$ X6 z5 n: v) y) Z" @
游客,如果您要查看本帖隐藏内容请回复  捐助论坛可免回复查看隐藏内容 详情请点击
最近访问 头像模式 列表模式
HD一条街,身边的一条街。
dny28e 该用户已被删除
发表于 2014-5-15 22:45:28 | 显示全部楼层
提示: 作者被禁止或删除 内容自动屏蔽
HD一条街,身边的一条街。
ynhhlj@163.com 该用户已被删除
发表于 2014-5-15 22:54:38 | 显示全部楼层
提示: 作者被禁止或删除 内容自动屏蔽
HD一条街,身边的一条街。
╄→┊.開始 该用户已被删除
发表于 2014-5-15 23:38:31 | 显示全部楼层
提示: 作者被禁止或删除 内容自动屏蔽
HD一条街,身边的一条街。
发表于 2014-5-15 23:58:21 | 显示全部楼层
看海报就不是一般的片子,值得一看,希望有更高清的就好了
HD一条街,身边的一条街。
gary2105 该用户已被删除
发表于 2014-5-16 00:00:34 | 显示全部楼层
提示: 作者被禁止或删除 内容自动屏蔽
HD一条街,身边的一条街。
ele_hoe0612 该用户已被删除
发表于 2014-5-16 01:53:37 | 显示全部楼层
提示: 作者被禁止或删除 内容自动屏蔽
HD一条街,身边的一条街。
发表于 2014-5-16 07:16:49 | 显示全部楼层
HD一条街,是我心中的一条街
HD一条街,身边的一条街。
纯表情雍容 该用户已被删除
发表于 2014-5-16 08:32:36 来自手机 | 显示全部楼层
提示: 作者被禁止或删除 内容自动屏蔽
HD一条街,身边的一条街。
您需要登录后才可以回帖 登录 | 加入我们

本版积分规则

手机版|小黑屋|有问题发邮件到admin#(换成@)hd1tj.org|微博|免责申明|HD一条街

GMT+8, 2017-2-21 17:57

Powered by Discuz! X3.1

© 2001-2013 Comsenz Inc.

快速回复 返回顶部 返回列表