开启辅助访问 切换到窄版

HD一条街论坛

 找回密码
 加入我们
查看: 627|回复: 24

[其它] 维多利亚一号/維多利亞壹號[粤语 英文字幕] Dream.Home.Wai.dor.lei.ah.yut.ho.2010.DVDRip.Xvid.Eng.Subtitles.LKRG 878M

[复制链接]
发表于 2014-5-15 22:43:03 | 显示全部楼层 |阅读模式
1 S4 N  D/ b. y2 {! w7 k5 c# G8 a% L
                               
登录/注册后可看大图
# @9 L8 A. s$ p; r
- ~7 w# l- |8 Z+ q, U! H$ J
% ]# B) z* ~9 K( A
导演: 彭浩翔4 C+ Y; h# ^' v0 K$ p3 }9 r9 J
编剧: 彭浩翔 / 曾国祥 / 尹志文% ~- N# y4 v% A8 V7 N
主演: 何超仪 / 陈奕迅 / 周俊伟 / 曾国祥 / 单立文 / 王青 / 卢海鹏 / 麦浚龙 / 叶璇 / 徐少强 / 鲍起静 / 宋娟 / 周楚楚 / 骆应钧 / 陈伟雄5 M8 G9 t9 S6 U  V! x( I& ^
类型: 剧情 / 动作 / 惊悚 / 犯罪
' F8 S0 ?( y8 X% T9 y制片国家/地区: 香港
6 N1 u- k* \1 t2 D6 O" ~+ w" P语言: 粤语
1 i+ C4 X  C& X4 V  N: W: s: q上映日期: 2010-05-13: m1 g( Y& r7 Z  Q# ~( w  v& [
片长: 96分钟3 ?" @% D6 `; q: P2 q
又名: 维多利亚的港湾 / Dream Home: F( d# y, M& p" g: O
IMDb链接: http://www.imdb.com/title/tt1407972
+ {; E; S6 [9 s; `, k: e4 R$ K$ L& s* N, v# j& ~
维多利亚一号的剧情简介  ·  ·  ·  ·  ·  ·4 j! a( R9 \5 I
  某银行话务员邓丽嫦(何超仪 饰)自幼生长在一个平民家庭,她始终有一个情结,那就是努力赚钱买一套可以看得见大海的房子。为了这个目标,阿嫦努力工作,下班后还干着两份兼职,甚至和同事利用职务之便聚敛外快。眼看就要存够豪华大厦维多利亚一号的首付,但是偏偏赶上楼市疯涨的时候,签合同当天房主反悔,宁可赔付违约金也不愿按原价出售。为了房子而不懈努力的阿嫦遭受巨大打击,在万圣节前夜,这个几近崩溃的女子带着一身杀意走进了维多利亚一号…… * c, z, n4 v, h" n1 A+ Q
  本片在香港上映时被评为三级片,港三正版DVD发行时正片删掉5分钟左右过激镜头,被删镜头以花絮形式附录DVD中8 V+ J  K! D# V/ m. m& e
3 y' w4 u; X% ~! v5 R' d( u: a
维多利亚一号 維多利亞壹號 获奖情况  ^6 m2 D3 P1 b, w- D+ l2 \
第47届台北金马影展 (2010). e5 e. x1 b6 y5 L  N+ U+ V9 \9 R
" k  b: B/ ?5 H" ^8 i
金马奖 最佳视觉效果(提名) 何培坚 / 梁伟杰 / Vitaya Deerattakul / 连凯 / 吴炫辉 / 王英豪
  E- I9 N6 W' y2 q0 x2 g第30届香港电影金像奖 (2011)
" O' P# N/ U  k+ P, P
6 {+ R/ {9 N* t7 m3 G7 L9 j8 k最佳女主角(提名) 何超仪
+ [1 w" L1 M, |7 M9 F+ x: W2 X% C. B8 R最佳音响效果(提名) 杜笃之
1 y( a+ s" v6 \最佳视觉效果(提名) 吴炫辉 / 王英豪 / 何培坚 / 连凯
  1. Runtime ..........: 1h 32mn" s- D1 v+ @) e5 T  {

  2.   G0 s5 c; m8 h
  3. File Size ........: 878 MB
    - U" X* Y$ e) S1 ]! K2 O
  4. 5 D, S8 i5 p; E8 O
  5. Resolution .......: 720 x 352
    ) E/ s. o* z- `$ S8 j) e
  6. 5 Q* s# `+ q! w& i2 D" w
  7. IMDb URL .........: http://www.imdb.com/title/tt1407972/?ref_=nv_sr_2
    8 O# U7 L* p7 V% e) Z7 X& Q2 F8 K9 Z4 L
  8. % a2 q) E9 u3 M2 i/ Z2 p
  9. Genre ............: Horror,Drama
    - `+ U% e1 I. E7 l# W
  10. 9 M, I# X# c9 Y
  11. Language .........: Cantonese# K8 W6 V; L) Y
  12. $ `" t) R- D# f" L3 n8 e( G4 P
  13. Subtitles ........: English
    + N6 i) i  v1 }
  14. & }/ W/ M% A: ]% [3 z( o9 |6 E
  15. Complete name                            : Dream Home Wai dor lei ah yut ho 2010 DVDRip Xvid Eng Subtitles LKRG\DH_Wai dor lei ah yut ho_LKRG.avi2 J( ?" w5 W( k0 F1 _- o/ t

  16. ! Q. z3 u1 ^. y7 i+ n8 U
  17. Format                                   : AVI. b" b! c9 I3 Q6 N8 ~. z

  18. ( c) q6 m2 G7 p/ S. r
  19. Format/Info                              : Audio Video Interleave
    6 Q/ v; X' {9 F: R" R; B" I+ p* Q
  20. # @) a: l& R9 a9 W/ E# n6 `
  21. File size                                : 878 MiB% V- q1 F5 l& }8 D

  22. 2 S- N$ z3 F; C0 C& R! u8 h
  23. Duration                                 : 1h 32mn. a" P8 o0 o1 y
  24. 7 Z" ~7 w! |. I+ W
  25. Overall bit rate                         : 1 329 Kbps" n& v. l+ y4 C* n$ k
  26. 2 v7 P" y& J# o* M( ?
  27. Writing application                      : VirtualDubMod 1.5.10.2 (build 2540/release)2 y; K  U4 i) A% E2 h. @7 R
  28. 5 Z4 t3 p4 @4 d. F% ?4 W
  29. Writing library                          : VirtualDubMod build 2540/release
    / T' P" N2 q- q1 O* R( b3 {
  30. - \$ W8 c* Y, D4 m$ E2 D, ]; ~
  31. Video3 I7 w* n! D3 T0 K1 |; h
  32. * B1 x7 s, }" M" b# n& y
  33. ID                                       : 0
    : Y* h( K: \1 t7 L. B5 X- y% J

  34. ! F0 }; ~) y9 m( R3 X* ~1 D  [0 A: O
  35. Format                                   : MPEG-4 Visual
    / ?$ P0 [, Z6 r( B
  36. / _2 e: c! S: Q3 X9 B
  37. Format profile                           : Advanced [email protected]
    ; S/ c2 Q$ Y; m0 Z& T

  38. 0 {3 v- Z5 ^; T  ?, I, I
  39. Format settings, BVOP                    : 2; x9 S7 h1 N# ~+ n( r" {! u# P

  40. 3 _, [' J4 E* C, q
  41. Format settings, QPel                    : No
    % w  }. Z9 ~: \8 H$ I
  42. 2 P9 A, k. N; o2 B
  43. Format settings, GMC                     : No warppoints4 T' u  G1 L, A/ W# s
  44. * r! a* A# }  O0 ^
  45. Format settings, Matrix                  : Default (H.263)& \3 m: p( s+ S8 v
  46. 5 X8 L* J* n% b/ A! J9 Y5 r: _
  47. Muxing mode                              : Packed bitstream5 |& E& P" r( {  H+ L/ L6 \  {) _
  48. ! P& V2 u- q1 A, a7 b- s
  49. Codec ID                                 : XVID
    ! J8 T; U, d( n2 ?" k
  50. . |* ?! v' [: c$ m/ a7 r' {; p* Y
  51. Codec ID/Hint                            : XviD
    9 ^! ?; d6 V$ p" T- ~

  52. ) H/ d% u7 s, E1 V# h/ v
  53. Duration                                 : 1h 32mn+ r4 ~+ h1 d& u; F9 [
  54. * T; a/ H, D; M/ X
  55. Bit rate                                 : 869 Kbps
      U, M9 C7 N) K8 v# T/ l
  56. * O- ^: v0 M: D, a
  57. Width                                    : 720 pixels
    4 _" @+ @- d$ I! f: x. Z
  58. ! P3 K( o' f( ~4 @7 h$ \
  59. Height                                   : 352 pixels
    / d9 C+ K7 x: |+ a4 \" r1 I5 |4 |9 I

  60. 7 b* D% I5 ~! i% c( C: m. v
  61. Display aspect ratio                     : 6.294
    4 h8 B0 M* t. O6 L

  62. ) [& A. w5 c1 v, G- l7 B" R
  63. Frame rate                               : 29.970 fps  D! i5 L$ P+ ]
  64. # I2 R: i/ V' m8 ^, v# F: @
  65. Color space                              : YUV
    3 z  d7 d) y* X4 `
  66. 5 ^  d! ]2 R# N' t+ g) E( I6 P# ^
  67. Chroma subsampling                       : 4:2:0
    * k" L+ P: b* C/ e
  68. 7 ]8 n" n$ k% e- }6 y# e
  69. Bit depth                                : 8 bits
    , d% @+ P: \) @- v

  70. 7 T: {- _* Y3 X" k4 P6 J( n/ V
  71. Scan type                                : Progressive
    ( i" o' ~- u6 l6 W# A
  72. % w% I/ M# c) `. B
  73. Compression mode                         : Lossy* L# x, B: K8 H. _+ w6 U

  74. 9 d7 @+ @% U+ G1 L
  75. Bits/(Pixel*Frame)                       : 0.114
    ! u- c) X4 `. G; s* v" I5 ?& f
  76. 0 e8 c9 W4 @/ r+ K+ p8 d2 A& V
  77. Stream size                              : 574 MiB (65%)& j; B' r9 U' L8 D. _

  78. ; L# ?" U  P2 x1 ^0 j. ~" w  \
  79. Writing library                          : XviD 1.2.1 (UTC 2008-12-04)
    ( n* B1 p: r- u. V
  80. 9 L( u+ |% K, b* D! j' v
  81. Audio
    : j2 V, p6 ?6 p( a. i
  82. ' H% y1 |8 F* H$ D1 R8 x
  83. ID                                       : 1. c5 N; j: y* F- H- X+ u# k

  84. . A* o$ t2 x  z# }2 p
  85. Format                                   : AC-35 R2 g+ x0 O4 G, ~
  86. 4 s) I/ q2 R$ M* e. u( f6 x( N
  87. Format/Info                              : Audio Coding 3
    5 ^* n& K* ]8 |! R; ?
  88. " d7 X& a! P( M  `
  89. Mode extension                           : CM (complete main)
    3 x/ a$ s3 C  Z/ z$ x; B

  90. ' `7 {2 M7 z0 F) K; J
  91. Format settings, Endianness              : Big3 q$ [8 G* S& j/ L: d

  92. . ~- ~6 `/ d" U" U( j9 E' }2 h/ o
  93. Codec ID                                 : 2000
    9 p, \2 d! B7 @& q, u" P  D
  94. 1 r: V8 W: a! O" T' V
  95. Duration                                 : 1h 32mn! z, f' R: m( m& d1 E! u: S

  96. ; H$ Y, x9 u8 g& {- s" |! }& y* w
  97. Bit rate mode                            : Constant6 o: Z+ O& [- _. \0 k6 J

  98. 8 x% D9 L/ z* j( P
  99. Bit rate                                 : 448 Kbps1 ^; ]6 m6 h$ ^" ^
  100. 8 k" i* l4 g  G
  101. Channel(s)                               : 6 channels0 I' e0 Z! ~* F. y& u6 \2 I: e) O& }
  102. + L; S- p, p% l  t0 K
  103. Channel positions                        : Front: L C R, Side: L R, LFE. \# I+ z8 o% l
  104. 1 C3 M$ Q8 k4 d. v: h1 L: y
  105. Sampling rate                            : 48.0 KHz' T7 E1 f# e. v- D
  106. ) t, I( s5 U7 O' G( S0 v
  107. Bit depth                                : 16 bits
    ) s+ H6 p. `  [: l8 H8 l1 t) u
  108. 2 z' v# z' o7 \3 u) d. Q) l% T
  109. Compression mode                         : Lossy' m0 v/ @4 x+ \6 c, \7 C! N1 Y
  110. ; u  _, e$ z0 ^4 t& h
  111. Stream size                              : 296 MiB (34%)
    5 a, d6 S+ ?4 \3 q3 y, h

  112. / q1 y* E+ c/ H% l* h+ r
  113. Alignment                                : Split accross interleaves1 j6 H, @- r' k5 j1 @: V! X; f
  114. ( k3 E$ }$ ]# y3 I# n4 p0 t( E
  115. Interleave, duration                     : 33 ms (1.00 video frame)
    . B' v. I* g3 c9 }, B" N

  116. 2 C& q: E# Y' y3 C  _# V* o
  117. Interleave, preload duration             : 500 ms
复制代码

8 }  u" d! N& O% ?
9 U0 z' X' m. s5 F5 c9 e) ^
8 A3 l8 z& i, \
                               
登录/注册后可看大图
. `& |( i" h+ F9 q$ |9 W6 t$ D
9 e1 n+ h% L3 o- P; m+ v
  K7 y  h% I) Y: @; e* \
                               
登录/注册后可看大图

* ~1 r" T6 |0 W1 Z' S- p" P. v. Y# x( C
; v. P/ l) w7 X& V: \& c3 N
                               
登录/注册后可看大图

& L4 r! m% r4 u
4 n2 I6 I2 L' N) z/ k

# H, u1 E4 _2 x9 d% y. r. L3 I( A                               
登录/注册后可看大图
( ]* A3 j7 H- F- ?: d, X3 `9 |
' u9 I8 s4 |( j# d
0 p' Y1 Q- ^. l* d2 \# C' E0 K; D) T& }4 k
                               
登录/注册后可看大图
: M/ o: F" v* w, i7 l

" `9 H$ O0 ~! _" Q- {  a# O
  [  _0 d% f- |, \" D+ x, L/ ^* W【下载地址】
# m- p, C% X4 M: N% F1 t0 A9 Z$ o9 G  \' r- f
游客,如果您要查看本帖隐藏内容请回复  捐助论坛可免回复查看隐藏内容 详情请点击
最近访问 头像模式 列表模式
HD一条街,身边的一条街。
dny28e 该用户已被删除
发表于 2014-5-15 22:45:28 | 显示全部楼层
提示: 作者被禁止或删除 内容自动屏蔽
HD一条街,身边的一条街。
[email protected] 该用户已被删除
发表于 2014-5-15 22:54:38 | 显示全部楼层
提示: 作者被禁止或删除 内容自动屏蔽
HD一条街,身边的一条街。
╄→┊.開始 该用户已被删除
发表于 2014-5-15 23:38:31 | 显示全部楼层
提示: 作者被禁止或删除 内容自动屏蔽
HD一条街,身边的一条街。
发表于 2014-5-15 23:58:21 | 显示全部楼层
看海报就不是一般的片子,值得一看,希望有更高清的就好了
HD一条街,身边的一条街。
gary2105 该用户已被删除
发表于 2014-5-16 00:00:34 | 显示全部楼层
提示: 作者被禁止或删除 内容自动屏蔽
HD一条街,身边的一条街。
ele_hoe0612 该用户已被删除
发表于 2014-5-16 01:53:37 | 显示全部楼层
提示: 作者被禁止或删除 内容自动屏蔽
HD一条街,身边的一条街。
发表于 2014-5-16 07:16:49 | 显示全部楼层
HD一条街,是我心中的一条街
HD一条街,身边的一条街。
纯表情雍容 该用户已被删除
发表于 2014-5-16 08:32:36 来自手机 | 显示全部楼层
提示: 作者被禁止或删除 内容自动屏蔽
HD一条街,身边的一条街。
您需要登录后才可以回帖 登录 | 加入我们

本版积分规则

手机版|小黑屋|有问题发邮件到admin#(换成@)hd1tj.org|微博|免责申明|HD一条街

GMT+8, 2017-2-23 01:26

Powered by Discuz! X3.1

© 2001-2013 Comsenz Inc.

快速回复 返回顶部 返回列表