开启辅助访问 切换到窄版

HD一条街论坛

 找回密码
 立即注册
查看: 479|回复: 24

[港台] HDJ外购新西兰自然纪录片 南面有伊甸 全5集 粤英中字 New Zealand from Above Pack.HDTV.1080i.H264.AC3-tbw 16.37G

[复制链接]
发表于 2014-5-15 00:20:14 | 显示全部楼层 |阅读模式

1 F" Z/ \; w4 u; C                               
登录/注册后可看大图

# M, K4 O/ j" w% D9 E3 m6 P9 V& d9 Y4 I* g: k
. C: S1 [  B1 v0 ~8 m& h5 K5 T
简介
) `5 ~! o2 _, U2 k( P( N5 H' M+ v+ ~6 e/ ~' Q. n
首播日期: 2014.03.09( _+ s. c, e* n8 ^. e* S" s( b8 u
   《南面有伊甸》摄製队是利用装置了稳定器的高清摄录机,全空中拍摄的纪录片,在直昇机上俯瞰整个纽西兰,飞越美丽的冰川、平湖、雨林及激流,更深入北部的白沙湾,欣赏白色悬崖及火山一带的美丽风景,又探访毛利族人及电影《魔戒》的故事取景地点。 5 M; G+ G: q& j: V( L, f3 u- {

9 A5 Z$ |2 o1 J& d2014.03.09 : l' {  B7 z* O+ S
播出日期: 2014.03.09 (日)        
+ F; _' n: A5 S( ?  a9 ~) u5 i   第一集《南面有伊甸》将带领大家看看纽西兰南岛的第二大城市 - 但尼丁。还有已列入世界文化遗产的峡湾国家公园,作为纽西兰最大的国家公园,公园内三分之二的地区都覆盖着原始的山毛榉和罗汉松森林,森林中有鴞鹦鹉、鹬鸵等珍贵鸟类栖息。接着到南岛的旅游度假地 - 皇后镇,这裡被非常壮观的群山环绕,电影《魔戒》曾在这裡取景,更是玩滑翔伞的胜地。. X# [/ l$ U, b5 R5 z; V. Y# t% x" U
( `( |2 ^1 r' J+ e7 Q" ]
2014.03.16
9 I, b  m0 a2 t% r+ p8 y播出日期: 2014.03.16 (日)        
) n! J" k0 `2 F   南阿尔卑斯山脉(Southern Alps)是位于纽西兰南岛西部的一条山脉,是整个南岛的天然分水岭,漂亮的地形令人讚叹,进入奥塔哥的中部,感受一下1860年时期的疯狂淘金潮,不过现已剩下的只有废墟及一些淘金传说。而现在,酿酒业已成为这个地区的最重要产业。
9 H- Y9 h" [  w, j' u2 W! }7 ~9 x; y0 A3 J" d) C1 J
2014.03.23
( Z/ ?. v1 O3 D- ^( ]播出日期: 2014.03.23 (日)        1 F2 K: J- q( U. b- s
   今集我们先到纽西兰的西岸,西岸以崎岖的海岸线、丰富的自然宝藏与保护完好的雨林而着称。而西岸的冰川更是世界闻名。接着我们飞到东岸,一窥海上的霸主鲸鱼如何觅食。再到有「花园之城」美誉的纽西兰第三大城市基督城,看看发生了两次的大地震对这裡有什麽影响。最后回到西岸,乘船到达塔斯曼湾欣赏美极的景色。
, b2 S1 h* |3 j1 z4 F. i# `4 B, A% u2 }; ?- N( \% Z- R' S, }
2014.03.30
$ v( w, z4 ]- w0 [+ |3 b播出日期: 2014.03.30 (日)        6 c0 f  h- @. I# G
   从南面出发,横扫位于纽西兰北岛、南岛之间的库克海峡,当中有一渡轮来往于南岛皮克顿与北岛惠灵顿之间。我们再往北面进发,那裡的火山台地有着多个活火山如东格裡罗火山、诺鲁霍伊火山、鲁瓦皮胡火山,亦有因频繁的火山活动而形成的陶波湖。
/ @* |# q9 v7 L" o
3 p; V& U- }1 K5 s1 p- n4 M2014.04.06
' j& n; [. N/ E% u" z* t. W! E0 r播出日期: 2014.04.06 (日)        + ]3 ^7 v% [6 x. H/ Y* D2 E; d
   位于北岛最北部的纽西兰是在北岛最大的城市,人口约140万,被称为「帆之都」的奥克兰,同时也是纽西兰工业和商业中心。接着到达北面海湾的Poor Knights Island,直立在深海之中的峭壁、悬崖像海岛本身一样独一无二,海洋生物在这裡安全地生活着。再到怀波阿森林区(Waipoua Forest)。这裡万松挺立。其中有一棵树龄生存了1200年以上的古松,高170英尺,生长于纽西兰考裡松原始森林保护区,被称为「森林之父」。 最后以探访纽西兰境内的原住民 – 毛利人作完结。
  1. D:\南面有伊甸New Zealand from Above.HDTV.1080i.H264.AC3-tbw\南面有伊甸New Zealand from Above.HDTV.1080i.H264.AC3.EP01-tbw.ts
    ; C1 B6 r6 [1 M7 i- a7 f6 m! ^
  2.   General #17 B0 C2 L& K4 Y3 e
  3.      ID : 1 (0x1)
    ) k! [. E9 w! U
  4.      Complete name : D:\南面有伊甸New Zealand from Above.HDTV.1080i.H264.AC3-tbw\南面有伊甸New Zealand from Above.HDTV.1080i.H264.AC3.EP01-tbw.ts
    6 Y; x5 J- H; m+ N
  5.      Format : MPEG-TS* g, {$ g, U$ E5 v
  6.      File size : 3.27 GiB$ s6 ?- e! Z8 V/ ~
  7.      Duration : 43mn 19s( n; e/ P5 g; E, \8 z! Q  F* j
  8.      Overall bit rate : 10.8 Mbps
    - y. c7 m! H8 C  T; x+ Y
  9.   Video #851& q( x/ E- y) c1 C" R2 F+ X, X
  10.      ID : 851 (0x353)
    1 L3 c! G, e5 L5 y8 o4 R4 m& e9 \9 U
  11.      Menu ID : 1 (0x1)+ z/ H: x' q# s' s0 s& K0 F3 g
  12.      Format : AVC* N4 ]' [/ c& N; D7 @5 ?
  13.      Format/Info : Advanced Video Codec2 u0 Z) g* ]0 n
  14.      Format profile : [email protected]) M- `4 |- O2 K0 _# c) }, Z
  15.      Format settings, CABAC : Yes
    : q# e" V7 z1 ^; {; W8 i+ D
  16.      Format settings, ReFrames : 4 frames6 G0 ?! }; U" @6 t  a5 ]
  17.      Format settings, GOP : M=3, N=12
    . j) D" G: y7 K0 {4 g% Z
  18.      Codec ID : 27
    % R) R- z  @; U+ j  }3 Y5 p
  19.      Duration : 43mn 19s
    , L, Z& D- i. D% N# C
  20.      Bit rate : 9 681 Kbps
    # g$ `2 D. C0 |0 I0 R; k
  21.      Width : 1 920 pixels! N+ z  A' D: Z! O  E# ^  [: R
  22.      Height : 1 080 pixels
    6 p$ R9 T$ b& B4 P5 P# l+ D4 Y
  23.      Display aspect ratio : 16:9
    9 f$ \: P$ j( j0 s7 W) W" p
  24.      Frame rate : 25.000 fps4 G2 m2 B2 [& V
  25.      Color space : YUV) }+ @, o8 |. D9 z# ]
  26.      Chroma subsampling : 4:2:0
    8 f' V/ d# P# L- T* l
  27.      Bit depth : 8 bits
    # g) U1 t' o+ p1 i* z! x* t
  28.      Scan type : MBAFF
    % N; h; v8 m' z. s
  29.      Bits/(Pixel*Frame) : 0.187
    " P* W* ^. B: F, J
  30.      Stream size : 2.93 GiB (90%)
    * |3 x$ w, Y7 j, C$ i+ I9 I
  31.      Color primaries : BT.709-5, BT.1361, IEC 61966-2-4, SMPTE RP1770 A7 r  X& @& h5 @
  32.      Transfer characteristics : BT.709-5, BT.1361
    0 P0 q7 H1 i; t3 b
  33.      Matrix coefficients : BT.709-5, BT.1361, IEC 61966-2-4 709, SMPTE RP177
    5 [$ H  o& M* U; v/ q
  34.   Audio #8524 F: W* T! X; y6 |# }: ~
  35.      ID : 852 (0x354)
    $ @8 D" ^2 Z! _0 v+ F1 W
  36.      Menu ID : 1 (0x1)
    # }$ u- Z# D7 p' u# z
  37.      Format : AC-3" e& w8 e  a$ u. U5 H, m. ~2 P  g
  38.      Format/Info : Audio Coding 3
      T+ I' o' p/ w
  39.      Mode extension : CM (complete main)" B0 m1 z- D- F2 q* s1 |
  40.      Codec ID : 6
    1 K" h! k0 b7 K4 k
  41.      Duration : 43mn 18s( ^' ?! {! `9 c/ A5 `
  42.      Bit rate mode : Constant' s$ X8 o! l6 }2 I5 [% b
  43.      Bit rate : 192 Kbps3 F$ l! l# ?( M% h4 Z. F, k
  44.      Channel(s) : 2 channels
    8 e6 U* N& J. H+ @! N3 |
  45.      Channel positions : Front: L R
    - S; o7 Z: T- I2 f8 T( I8 \
  46.      Sampling rate : 48.0 KHz4 t" g2 G7 ]  L. z  [; u, q! }
  47.      Bit depth : 16 bits; G7 B4 G3 X& {" A. x
  48.      Compression mode : Lossy1 N5 I! a+ D9 N/ t9 C& ?3 v
  49.      Stream size : 59.5 MiB (2%)6 \, F1 L$ A% f) y  o& e: [
  50.      Language : English# c5 [  {( ^: Q* z3 d
  51.   Audio #853' H: r+ t0 ~( ~% ?
  52.      ID : 853 (0x355)& m7 G5 ^, ~& J- O1 S& X
  53.      Menu ID : 1 (0x1), G! s# _" b7 `! ~, K8 W& q
  54.      Format : AC-3! _$ q. g. [, h* u$ q& ]  ^$ I
  55.      Format/Info : Audio Coding 3: d2 c$ D0 k( r0 s- Q, {
  56.      Mode extension : CM (complete main): E) v- J: Q, @
  57.      Codec ID : 6
    : h# L8 r5 Z$ H, ]) X% L
  58.      Duration : 43mn 18s
    - `: Y' V7 J+ p; {5 z' d
  59.      Bit rate mode : Constant
    4 x" q* W( ]" D" I4 I0 n1 `
  60.      Bit rate : 384 Kbps
    & d& `$ p% J& s+ o8 \. g( o' J& M
  61.      Channel(s) : 6 channels% D6 Z' L* t7 e! [0 n
  62.      Channel positions : Front: L C R, Side: L R, LFE) e( K8 |' H3 F  ]7 s
  63.      Sampling rate : 48.0 KHz
    ( `, U0 P0 W$ H# e+ x! X
  64.      Bit depth : 16 bits
    & R! O) x2 P( E7 i+ \
  65.      Compression mode : Lossy0 s% y# C) g) J; L8 v$ q1 \/ p
  66.      Stream size : 119 MiB (4%)
    & s6 G# u2 j( L9 ?3 ~% `- @- U
  67.      Language : English
    & Y2 B; ?1 o3 ~" j7 C+ k
  68.   Text #8550 Y4 L$ j, x" c( s  c
  69.      ID : 855 (0x357)
    ' i0 e* g( m8 O, P$ n
  70.      Menu ID : 1 (0x1)! k9 l2 t1 _$ ]5 A
  71.      Format : DVB Subtitle
    6 D; i% P2 z# }0 e+ U: F/ G
  72.      Codec ID : 6
    ) {. c  x7 ?/ V  `% T
  73.      Language : Chinese3 T4 O+ B6 y# b7 i" z( Z6 K: ?
  74.   Text #856
    8 W3 L! C0 e. G7 s0 ]0 l1 a! ^
  75.      ID : 856 (0x358)
    # {+ \/ a) Z" y$ S
  76.      Menu ID : 1 (0x1)
    ; g0 z  P+ x' C! X
  77.      Format : DVB Subtitle
    0 W! \5 q5 h/ L: t+ g- F% ^8 t
  78.      Codec ID : 62 }& P) c& r4 H$ J7 O* Y2 ^
  79.      Language : English
    7 L! z: H5 J# `/ m
  80.   Text #8576 O- V; Y, o+ D# s& h
  81.      ID : 857 (0x359)
    ' P* [* V% L, w7 Z
  82.      Menu ID : 1 (0x1)
    ; _% ]5 x( O1 ^# S' K1 h; h
  83.      Format : DVB Subtitle
    % N0 l& K; G/ J5 A2 U( M* C; f; u) `
  84.      Codec ID : 6  Y5 `6 z5 H$ j; A
  85.      Language : chs
复制代码

6 f+ i, [2 V; R3 v" c' ?3 u' m, N
. X, g: W! z" h
                               
登录/注册后可看大图

$ q; n3 g& x# f2 A4 [  `
. `; n0 L3 B; p$ N$ d" W7 i  N( j
$ v6 A; Y% J) c, s2 U/ V3 ~
                               
登录/注册后可看大图

+ o1 I3 z5 j' P& F; O  R8 z
+ N( x! y  M" d% l- I/ z

. w' V$ ?5 A0 r+ M* J9 f                               
登录/注册后可看大图

+ r# e) q% T+ M  Z! s0 n2 |* l6 K' [
& A% z; e6 m4 M

) y8 `' |* c5 y4 P                               
登录/注册后可看大图

5 g. W# M# [, W9 d! n, w# B: g8 R
% N! M7 l$ z4 i
- g5 j; u/ e  d
                               
登录/注册后可看大图

1 R+ o* ?; T0 M+ _( Y' m1 {* O" x0 z3 {. ^) K5 c
0 i+ K6 @+ @8 N% k' o7 @8 @
                               
登录/注册后可看大图

2 t+ g$ b% Y1 B' V' U8 t: o7 y* M$ j& P) |) x0 f
游客,如果您要查看本帖隐藏内容请回复  捐助论坛可免回复查看隐藏内容详情请点击
最近访问 头像模式 列表模式
HD一条街,身边的一条街。
发表于 2014-5-15 00:38:19 | 显示全部楼层
完结了 太好了!
HD一条街,身边的一条街。
ele_hoe0612 该用户已被删除
发表于 2014-5-15 01:09:48 | 显示全部楼层
提示: 作者被禁止或删除 内容自动屏蔽
HD一条街,身边的一条街。
发表于 2014-5-15 10:18:24 | 显示全部楼层
啥也不说了,楼主就是给力!
HD一条街,身边的一条街。
bianfl119 该用户已被删除
发表于 2014-5-16 12:58:22 | 显示全部楼层
提示: 作者被禁止或删除 内容自动屏蔽
HD一条街,身边的一条街。
发表于 2014-5-16 13:14:40 | 显示全部楼层
不管你信不信,反正我是信了。
HD一条街,身边的一条街。
发表于 2014-5-16 13:49:02 | 显示全部楼层
看了LZ的帖子,我只想说一句很好很强大!
HD一条街,身边的一条街。
老乐 该用户已被删除
发表于 2014-5-17 16:19:45 | 显示全部楼层
提示: 作者被禁止或删除 内容自动屏蔽
HD一条街,身边的一条街。
发表于 2014-5-18 20:05:41 | 显示全部楼层
希望楼主在HD一条街里多多发布更好的资源
HD一条街,身边的一条街。
发表于 2014-5-18 21:34:48 | 显示全部楼层
楼主,不论什么情况你一定要hold住!hold住就是胜利!
HD一条街,身边的一条街。
您需要登录后才可以回帖 登录 | 立即注册

本版积分规则

手机版|小黑屋|有问题发邮件到admin#(换成@)hd1tj.org|微博|免责申明|HD一条街

GMT+8, 2016-12-8 08:09

Powered by Discuz! X3.1

© 2001-2013 Comsenz Inc.

快速回复 返回顶部 返回列表