开启辅助访问 切换到窄版

HD一条街论坛

 找回密码
 立即注册
查看: 578|回复: 21

[港台] HDJ外购探索频道纪录片 美利坚精华游(第二季) 第03集 粤英中字 15 Travel Bests (II) 2012.HDTV.1080i.H264.AC3.EP03-tbw 3.55G

[复制链接]
发表于 2014-5-11 16:03:53 | 显示全部楼层 |阅读模式
2qbf1hf (1).jpg 9 I" w; U+ V. {1 |8 z* q
: Q' z" I# N# ]; ?
前面还有二集,稍后都会发布的。
0 `6 i, K* K( V. D/ L6 y* k
: r; @, T6 c# m  Q' `  q9 `播出信息:2014.04.13起逢星期日16:30-17:30播出,逢星期五06:00-07:00重播4 H  x/ l# D% Y
共12集 接档《南面有伊甸New Zealand from Above》,被接档《》 $ K5 y7 h. f$ x7 h  Y
' S' T1 n; U" O2 L/ E9 o. _& h

1 Y* z7 C4 R8 |+ G
7 o& S9 _) A5 b# I0 ^简介
& h5 ?* q) I2 z0 Q2 K7 r8 }+ iEP01艾尔帕索El Paso
, i; I6 n, w9 P: U8 L$ B1 F1 mEl Paso's history and culture are explored during visits to Hueco Tanks State Park and Historic Site, Wyler Aerial Tramway, and the Cattleman's Steakhouse.  , M8 z* t( p( h
EP02 新奥尔良New Orleans4 ^: W/ j$ P. M0 z8 e' V
Things to do in New Orleans include an airboat swamp tour; the Houmas House Plantation and Gardens; and a dinner jazz cruise.
  1. J:\美利坚精华游15 Travel Bests 2012.HDTV.1080i.H264.AC3-tbw\美利坚精华游(第二季)15 Travel Bests (II) 2012.HDTV.1080i.H264.AC3-tbw\美利坚精华游(第二季)15 Travel Bests (II) 2012.HDTV.1080i.H264.AC3.EP01-tbw.ts
    . Z5 N' i% a; K8 r4 n, H( k5 T) `) s
  2.   General #1
    5 M. w/ d1 F, v: t+ e2 V
  3.      ID : 1 (0x1)5 }* L9 M! A' g! `* U; V0 a$ `
  4.      Complete name : J:\美利坚精华游15 Travel Bests 2012.HDTV.1080i.H264.AC3-tbw\美利坚精华游(第二季)15 Travel Bests (II) 2012.HDTV.1080i.H264.AC3-tbw\美利坚精华游(第二季)15 Travel Bests (II) 2012.HDTV.1080i.H264.AC3.EP01-tbw.ts" a$ |9 O2 X8 x3 F3 b4 K  U
  5.      Format : MPEG-TS
    0 c( J$ X9 I8 M$ D1 n- E4 J( T
  6.      File size : 3.65 GiB
    $ x# R! p% d, J" ]5 A
  7.      Duration : 46mn 8s7 q3 ]: R0 D+ ~8 F& y! J7 D- `
  8.      Overall bit rate : 11.3 Mbps& J5 y6 q- G, A" D0 e; Y
  9.   Video #851- `2 ]- d  c4 l4 b6 |$ ?
  10.      ID : 851 (0x353)
    7 g- [6 h( w! V4 u; n
  11.      Menu ID : 1 (0x1)4 E$ \* t$ W- |! K$ y
  12.      Format : AVC% R* I! L( A" H: m! Y2 ]
  13.      Format/Info : Advanced Video Codec/ k1 D: I! ?: A/ q' x
  14.      Format profile : [email protected]# u' y/ w1 m: ]
  15.      Format settings, CABAC : Yes
    ' _8 c- N( E2 w' _( e; ~9 W
  16.      Format settings, ReFrames : 4 frames* d( U) Q' t9 h" O1 r3 {# J
  17.      Format settings, GOP : M=3, N=12; }  f7 b( {+ _2 o
  18.      Codec ID : 27
    1 f0 b. f3 g0 o8 d' c  g
  19.      Duration : 46mn 8s2 y% _6 W3 Q6 A
  20.      Bit rate : 10.2 Mbps: F& j% F* j& p( A1 Y; v  h
  21.      Width : 1 920 pixels
    $ f: A$ Q( y$ z; I+ h! N
  22.      Height : 1 080 pixels% K1 p+ r) [7 T
  23.      Display aspect ratio : 16:9
    5 v+ c$ }; ?7 y. U) T- T
  24.      Frame rate : 25.000 fps( P, i7 {3 T- q; a2 N; g; W
  25.      Color space : YUV
      L$ |/ B# m! j- S& p4 {  M% a; {0 T
  26.      Chroma subsampling : 4:2:0/ J2 b2 ]' k* ?" U
  27.      Bit depth : 8 bits
    ' j* t) Y( o: {/ }4 n) t8 Y
  28.      Scan type : MBAFF: s4 p9 M4 {3 B- }, z
  29.      Scan order : Top Field First
    ( ~. F* U8 Z1 f# x3 d
  30.      Bits/(Pixel*Frame) : 0.197. |% x0 W0 [. O$ D: B$ i
  31.      Stream size : 3.29 GiB (90%)0 Y" C0 i  E! k7 h1 ?
  32.      Color primaries : BT.709-5, BT.1361, IEC 61966-2-4, SMPTE RP177
    , h7 A: M" z: b0 L4 l! j( T, y6 H- Z
  33.      Transfer characteristics : BT.709-5, BT.1361
    . n3 J  B) e: }. u3 I0 R
  34.      Matrix coefficients : BT.709-5, BT.1361, IEC 61966-2-4 709, SMPTE RP177
    & X/ n- D' g& H6 b
  35.   Audio #852' D. g3 m7 o/ {7 n+ ~6 T* O9 t
  36.      ID : 852 (0x354)& V' a! F7 ~5 V, M3 b4 O! k
  37.      Menu ID : 1 (0x1)( Z" W% l6 S. |+ ^+ \
  38.      Format : AC-3
    2 H4 d+ |) M) p  R8 E3 h  Z
  39.      Format/Info : Audio Coding 30 ^& P. _+ E( v( Y9 j* T5 A
  40.      Mode extension : CM (complete main)
    . H) P7 H; c; x
  41.      Codec ID : 6+ V4 m% t  b9 N/ H: I5 m- e
  42.      Duration : 46mn 8s
    ! ]5 T4 g. D8 c% r, ^
  43.      Bit rate mode : Constant" s* h2 ^* u& k2 Y2 N
  44.      Bit rate : 192 Kbps
    3 g) @6 `$ F0 C1 `, N& g  v
  45.      Channel(s) : 2 channels
    ( W1 y- l* A* [' |- X
  46.      Channel positions : Front: L R
      g6 O$ h# [7 m4 h1 |
  47.      Sampling rate : 48.0 KHz
    ! Z& O# A& q9 o/ N6 P0 _* \+ O
  48.      Bit depth : 16 bits
    * Y! M9 h0 w3 S& {5 E# e
  49.      Compression mode : Lossy4 p3 q* `# B9 Q7 t/ R' `" O
  50.      Stream size : 63.4 MiB (2%)' k, J, ?7 i0 c5 |* s
  51.      Language : English
    ) c$ s6 H2 g8 C+ Y
  52.   Audio #853
    * y- ^! g8 n" Y
  53.      ID : 853 (0x355)
    ) c, O% d2 U& R6 F5 g( v
  54.      Menu ID : 1 (0x1)7 d+ c, W+ L. F
  55.      Format : AC-3" W0 \; }& _! i8 t1 h
  56.      Format/Info : Audio Coding 3
    7 T# a5 v9 M9 r" t
  57.      Mode extension : CM (complete main)2 ?, H0 q( Y* o  R
  58.      Codec ID : 6
    7 Q+ Y5 z& N* q4 I
  59.      Duration : 46mn 8s
    9 j1 s3 X: U2 N2 l+ D7 g& M+ T# r
  60.      Bit rate mode : Constant, u: o: N1 ]5 _+ ^% H
  61.      Bit rate : 384 Kbps
    7 X; o7 t4 T  l  S
  62.      Channel(s) : 6 channels- W' q( S9 w& S  n2 M6 `& I
  63.      Channel positions : Front: L C R, Side: L R, LFE: D* L  `9 K1 E( ~
  64.      Sampling rate : 48.0 KHz0 I6 a+ v* ~4 @1 G9 j  g
  65.      Bit depth : 16 bits
    7 v* S3 n  C3 n. G
  66.      Compression mode : Lossy
    ' O0 k0 h0 {; S& _
  67.      Stream size : 127 MiB (3%)2 J9 B, x/ f: r2 c) v1 S  M: W
  68.      Language : English3 w& T( t3 n3 ^! @* y, r  Z7 E7 o0 N
  69.   Text #8558 B' q& Z# p. `, h; K
  70.      ID : 855 (0x357)2 |* A" A/ ^0 F$ e- G( N" j
  71.      Menu ID : 1 (0x1)$ x+ j0 |; F/ m$ r. `9 D+ u
  72.      Format : DVB Subtitle
    . A! ~' d& b1 ]" f
  73.      Codec ID : 62 J/ @, S9 l9 o6 s
  74.      Duration : 45mn 58s
    & ?; @6 E9 i: q! \8 ^9 v7 \
  75.      Delay relative to video : 5s 981ms
    1 p& P( e6 Q0 }, M
  76.      Language : Chinese
    3 d" _2 S4 v: B2 P( }
  77.   Text #856
    * E2 ^: r" K1 t5 t% g. \
  78.      ID : 856 (0x358). }" p; W/ H. b( L
  79.      Menu ID : 1 (0x1)4 Y* L2 W; U/ M' N
  80.      Format : DVB Subtitle( a& p: h3 N1 V9 w- G! x
  81.      Codec ID : 65 @: N( A/ i# d/ K  B
  82.      Language : English: `+ }3 d3 l- L$ {( t2 L& G
  83.   Text #857
    & y9 p, s& c. t/ r
  84.      ID : 857 (0x359)
    ) u- x+ [% c- y2 ]6 f
  85.      Menu ID : 1 (0x1)$ U+ m' w5 S. a/ x3 a* I6 y
  86.      Format : DVB Subtitle8 ~7 C' h/ {' G$ I; A
  87.      Codec ID : 60 d' O- W% O' @% Y# D& ~
  88.      Duration : 45mn 58s  @9 `3 r, Y4 [$ M" L7 O
  89.      Delay relative to video : 5s 981ms
    5 H1 B% ^( v  Q2 _; ?: h2 t, z6 g8 }
  90.      Language : chs
复制代码

/ T: W: Y' R) g( |3 |. V1 n2 @% U' d2 D  e4 }
2ilelo1.jpg
3 @( a4 K! g6 {; x$ j0 R
1 c" {; M1 j; L. ]- L4 h 2iqoowz.jpg
. s0 c( w- Y, ~1 c6 M# V3 X9 v5 p
; |: `7 w7 o5 Y3 O. c4 s# J 11rr5ah.jpg / _9 j, q$ l8 Q* N/ ?
% Z: h$ f! S! [0 Y
14v60sl.jpg ; Y: f8 H! t  c

. Y+ i% P: f$ O oqyr89.jpg
6 Z  ?; l  S9 U2 X; e9 c. Y! D, W% w/ |9 e
ou1rmx.jpg
; L+ b5 X7 I# ^$ G1 I. u$ x
# G& P; F$ h  p/ r  V2 y【下载地址】# J. A8 C. ~. y! h

$ f# {6 y6 S1 W' s) y" F
游客,如果您要查看本帖隐藏内容请回复  捐助论坛可免回复查看隐藏内容 详情请点击
最近访问 头像模式 列表模式
HD一条街,身边的一条街。
bvbmflp873 该用户已被删除
发表于 2014-5-11 16:04:48 | 显示全部楼层
提示: 作者被禁止或删除 内容自动屏蔽
HD一条街,身边的一条街。
k981018067 该用户已被删除
发表于 2014-5-11 18:30:10 | 显示全部楼层
提示: 作者被禁止或删除 内容自动屏蔽
HD一条街,身边的一条街。
发表于 2014-5-12 00:41:55 | 显示全部楼层
希望楼主在HD一条街里多多发布更好的资源
HD一条街,身边的一条街。
fantasticzhu 该用户已被删除
发表于 2014-5-12 06:53:04 | 显示全部楼层
提示: 作者被禁止或删除 内容自动屏蔽
HD一条街,身边的一条街。
发表于 2014-5-12 20:33:15 | 显示全部楼层
影视资源尽在HD一条街中,
HD一条街,身边的一条街。
老乐 该用户已被删除
发表于 2014-5-14 03:22:46 | 显示全部楼层
提示: 作者被禁止或删除 内容自动屏蔽
HD一条街,身边的一条街。
sqsdw333 该用户已被删除
发表于 2014-5-15 23:56:47 | 显示全部楼层
提示: 作者被禁止或删除 内容自动屏蔽
HD一条街,身边的一条街。
发表于 2014-5-18 14:39:24 | 显示全部楼层
HD一条街,是我心中的一条街
HD一条街,身边的一条街。

手机版|小黑屋|有问题发邮件到admin#(换成@)hd1tj.org|微博|免责申明|HD一条街

GMT+8, 2017-3-29 05:42

Powered by Discuz! X3.1

© 2001-2013 Comsenz Inc.

快速回复 返回顶部 返回列表