开启辅助访问 切换到窄版

HD一条街论坛

 找回密码
 立即注册
查看: 498|回复: 21

[港台] HDJ外购探索频道纪录片 美利坚精华游(第二季) 第03集 粤英中字 15 Travel Bests (II) 2012.HDTV.1080i.H264.AC3.EP03-tbw 3.55G

[复制链接]
发表于 2014-5-11 16:03:53 | 显示全部楼层 |阅读模式
2qbf1hf (1).jpg & ]0 p( W8 B, t  r, u  T

( t% }" F4 M  ~前面还有二集,稍后都会发布的。5 Z4 v# N0 G, ^. A7 t  Y  q

8 E2 s# [3 d# V3 E" a播出信息:2014.04.13起逢星期日16:30-17:30播出,逢星期五06:00-07:00重播' O) e2 K: R% v- W: R  g5 W
共12集 接档《南面有伊甸New Zealand from Above》,被接档《》
/ J9 g/ ?+ d5 V
: V6 |/ |  M$ n3 A# u0 R. {
: y6 @3 G% Y7 q" p6 T
' Y8 m) Z# ]1 q# c0 J简介
: T4 Q! {0 ~+ w" @EP01艾尔帕索El Paso
3 H! y" n/ f) S/ Q; o3 k! }4 Z  @/ MEl Paso's history and culture are explored during visits to Hueco Tanks State Park and Historic Site, Wyler Aerial Tramway, and the Cattleman's Steakhouse.  
. V* p: a1 H( T: |EP02 新奥尔良New Orleans, g0 S$ T( k+ }4 O" j
Things to do in New Orleans include an airboat swamp tour; the Houmas House Plantation and Gardens; and a dinner jazz cruise.
  1. J:\美利坚精华游15 Travel Bests 2012.HDTV.1080i.H264.AC3-tbw\美利坚精华游(第二季)15 Travel Bests (II) 2012.HDTV.1080i.H264.AC3-tbw\美利坚精华游(第二季)15 Travel Bests (II) 2012.HDTV.1080i.H264.AC3.EP01-tbw.ts8 y& e- T/ r. w. B
  2.   General #1
    , F) a; f2 G# I% q+ S
  3.      ID : 1 (0x1)6 X7 R3 p) b8 ^3 Q; K
  4.      Complete name : J:\美利坚精华游15 Travel Bests 2012.HDTV.1080i.H264.AC3-tbw\美利坚精华游(第二季)15 Travel Bests (II) 2012.HDTV.1080i.H264.AC3-tbw\美利坚精华游(第二季)15 Travel Bests (II) 2012.HDTV.1080i.H264.AC3.EP01-tbw.ts+ V" x; v$ Z3 T2 y& y  `, I
  5.      Format : MPEG-TS6 F8 I1 C; V' i/ r+ e  n+ o3 g
  6.      File size : 3.65 GiB! ]% x7 j( H7 E6 ~3 l
  7.      Duration : 46mn 8s
    " _6 I7 y+ e* s, _7 X
  8.      Overall bit rate : 11.3 Mbps& y& {' `* T" S2 \
  9.   Video #851
      V  j# a6 V8 W; A9 U- d5 ^  }2 E3 U
  10.      ID : 851 (0x353)  }! h3 `9 F( x6 w: M
  11.      Menu ID : 1 (0x1)8 x+ p/ H) L8 A' O0 f- K
  12.      Format : AVC  M1 n8 Z; |; F. ^
  13.      Format/Info : Advanced Video Codec
    / Z  C1 E- k  j- J3 m6 s8 t
  14.      Format profile : [email protected]% z. l) j  O: S8 k: w: T5 Q/ W2 a1 R
  15.      Format settings, CABAC : Yes( q$ g9 K' o  n# x! g
  16.      Format settings, ReFrames : 4 frames8 B$ c1 L. ?" x2 D: n1 U$ |
  17.      Format settings, GOP : M=3, N=12$ M  a+ o8 _! S# B
  18.      Codec ID : 27
    " Q- M9 h" ^' e  R( {: h! U
  19.      Duration : 46mn 8s
    6 g$ e# ]. g& n
  20.      Bit rate : 10.2 Mbps
    1 ^% k3 \  J! ~8 K1 b5 E. w% G8 m
  21.      Width : 1 920 pixels
    & D: o3 E# Z: l( q3 ]" y
  22.      Height : 1 080 pixels9 L' z$ ~- D8 o5 _  H, Z! V
  23.      Display aspect ratio : 16:9
    ! n) V/ ^! D, S2 e
  24.      Frame rate : 25.000 fps
    % E: Q! |5 v' m& l- ?7 c1 l& ?' o
  25.      Color space : YUV
    ( j" l3 A3 U* k, X# h; }3 Z
  26.      Chroma subsampling : 4:2:0
    8 K5 B1 D+ H, ?6 \& \0 ~, e. C
  27.      Bit depth : 8 bits
    " ~3 B( b0 W+ ?1 G* V
  28.      Scan type : MBAFF1 ?0 g( b6 e3 z) G) \8 R% a
  29.      Scan order : Top Field First# P) F5 y; j! |/ N# g
  30.      Bits/(Pixel*Frame) : 0.197
    8 u8 l8 n7 y4 U+ e3 G# Y- j2 _
  31.      Stream size : 3.29 GiB (90%). w- I  A# \: ^7 [; F" J: l
  32.      Color primaries : BT.709-5, BT.1361, IEC 61966-2-4, SMPTE RP177+ E1 V$ {0 l7 c6 W- x* k# T
  33.      Transfer characteristics : BT.709-5, BT.1361
    6 S8 ~$ G3 P( {8 d2 G  n/ N
  34.      Matrix coefficients : BT.709-5, BT.1361, IEC 61966-2-4 709, SMPTE RP1773 V4 {' J* F1 d( M6 i! S
  35.   Audio #852, G- N6 D; g- C& p% U; E
  36.      ID : 852 (0x354)0 V4 {' Y% h, _( P. o& ^
  37.      Menu ID : 1 (0x1)
    6 O, e4 E: S% o( b
  38.      Format : AC-3
    ; N; h! T' w9 d" j+ {8 @7 i  ]
  39.      Format/Info : Audio Coding 3/ ]) e7 V% [4 d- B+ \& M
  40.      Mode extension : CM (complete main)* Y* A6 t9 u- i9 b0 ?8 S# l2 B" v# ~* _
  41.      Codec ID : 6
    # K0 {5 u! g, q0 p+ q$ ~: C1 z" `
  42.      Duration : 46mn 8s
    4 _4 \6 [- ^+ Q: H! c2 E
  43.      Bit rate mode : Constant0 o( \. C" ?" }; q
  44.      Bit rate : 192 Kbps
    ; f5 ~/ J. w, E! f! n' O
  45.      Channel(s) : 2 channels& m" @0 A1 [# W6 T( g# s# m
  46.      Channel positions : Front: L R3 G# f6 T7 O' G
  47.      Sampling rate : 48.0 KHz
    6 V" ^4 I7 E; \% t4 K$ Q/ e1 r
  48.      Bit depth : 16 bits
    2 ]7 }- g* M6 ?1 _6 B5 S
  49.      Compression mode : Lossy. G, b. j1 C* I: ~8 J
  50.      Stream size : 63.4 MiB (2%)- }$ J# |6 y, Y" V  Z
  51.      Language : English9 @/ m. X. \$ _5 l5 K
  52.   Audio #8537 e1 I+ n  Z# |% M
  53.      ID : 853 (0x355)0 H, l# x& J3 N) e
  54.      Menu ID : 1 (0x1)
    4 ~& E: E! F! `/ Z9 O( l
  55.      Format : AC-31 l" D) ]. B% U5 P
  56.      Format/Info : Audio Coding 31 s1 l! u0 M  m3 T  @0 g
  57.      Mode extension : CM (complete main)
    ( b  F* x3 F% g4 a9 E
  58.      Codec ID : 6: z* y. t6 h: z3 ~$ O* u7 j$ r- A
  59.      Duration : 46mn 8s
    # x$ @$ t3 y9 ?- ]) I3 J4 B2 [4 }
  60.      Bit rate mode : Constant
    9 A6 e' w/ N+ u8 g9 U3 m
  61.      Bit rate : 384 Kbps
    5 |: _2 y% i; J: @0 u. V6 {
  62.      Channel(s) : 6 channels
    , ?) q+ \" D$ N
  63.      Channel positions : Front: L C R, Side: L R, LFE
    3 B  K( D* @+ A, ~3 b9 {
  64.      Sampling rate : 48.0 KHz1 n- `7 u; ]1 S9 s
  65.      Bit depth : 16 bits
    " o5 r) C1 t4 `) V  b
  66.      Compression mode : Lossy
    % {5 x% C$ X3 ~, J+ T9 g
  67.      Stream size : 127 MiB (3%); x: @* Y) x$ s1 E  R1 I) }7 z
  68.      Language : English! H& L; @! {; u( I/ h
  69.   Text #855
    $ @1 h, E* G' t
  70.      ID : 855 (0x357)
    & \! |3 @4 K' i* Y' O- h2 {
  71.      Menu ID : 1 (0x1)
    : ?( `8 _  C" c/ \2 F  [6 L
  72.      Format : DVB Subtitle( T% R" y) \  ~" V2 h# C/ s
  73.      Codec ID : 6
    + W9 j9 ]+ B9 U2 o/ v
  74.      Duration : 45mn 58s' H1 S+ v% ]7 d6 O5 g0 p- H
  75.      Delay relative to video : 5s 981ms0 W. D4 b8 n8 N4 Z% j
  76.      Language : Chinese
    ( [1 t; n2 _3 C$ k# x1 X; H2 S
  77.   Text #856
    ' L& e8 ~1 m3 Z/ U( m( L3 J1 \& a
  78.      ID : 856 (0x358). d# x8 m& V. A; k! w, Q
  79.      Menu ID : 1 (0x1)
    , {7 x/ x5 J5 v0 l2 A
  80.      Format : DVB Subtitle
    5 t% h  f* A. b) ~3 @; C2 ?7 l! ^: H
  81.      Codec ID : 6
    ; p) M# n: h# Z) M
  82.      Language : English& b0 h# @' [( `6 a, U% |. p$ @
  83.   Text #857
    2 V* |/ y# G* e+ }# d3 a, s6 m
  84.      ID : 857 (0x359)
    1 W+ r$ I4 _! c& z
  85.      Menu ID : 1 (0x1)3 L* }; q! x4 }% j9 T
  86.      Format : DVB Subtitle
    * h  o6 z5 p3 p+ T% H# J
  87.      Codec ID : 6
    0 s+ i3 G# V/ N9 M5 n( t
  88.      Duration : 45mn 58s
    5 v9 n7 s( G" r) ?6 I
  89.      Delay relative to video : 5s 981ms
    : |7 r3 K( w9 j* }- j
  90.      Language : chs
复制代码

3 Z2 d$ {. x+ J+ _; |' h9 i' B1 _1 n; }7 c+ {# O: u% Z) h
2ilelo1.jpg & ^6 H1 U7 Y- c. {0 e/ |

1 K, }1 B7 R5 K& @! |+ v) p( u8 P! b 2iqoowz.jpg 3 n* L& j) ~6 b" s, p

- j, u! G0 Z/ z  a* q/ W$ z 11rr5ah.jpg . B; }; c5 @$ a+ h% @. ?+ H
/ @' Y& b0 }9 g1 J4 A
14v60sl.jpg
  r  ]& S. M6 v" ?; k( S+ X: r# g3 I: @( J. k0 [8 \
oqyr89.jpg . a2 w* R- K4 P" Z8 V

- Z" L0 x! {: c% J: N ou1rmx.jpg 9 _' @: o3 |: R" O8 d3 O+ h

$ y9 c4 S5 s- p; i/ D【下载地址】! ?/ R! Y: N0 F$ i0 }( C

( A7 c1 [! G3 O* }) [
游客,如果您要查看本帖隐藏内容请回复  捐助论坛可免回复查看隐藏内容详情请点击
最近访问 头像模式 列表模式
HD一条街,身边的一条街。
bvbmflp873 该用户已被删除
发表于 2014-5-11 16:04:48 | 显示全部楼层
提示: 作者被禁止或删除 内容自动屏蔽
HD一条街,身边的一条街。
k981018067 该用户已被删除
发表于 2014-5-11 18:30:10 | 显示全部楼层
提示: 作者被禁止或删除 内容自动屏蔽
HD一条街,身边的一条街。
发表于 2014-5-12 00:41:55 | 显示全部楼层
希望楼主在HD一条街里多多发布更好的资源
HD一条街,身边的一条街。
fantasticzhu 该用户已被删除
发表于 2014-5-12 06:53:04 | 显示全部楼层
提示: 作者被禁止或删除 内容自动屏蔽
HD一条街,身边的一条街。
发表于 2014-5-12 20:33:15 | 显示全部楼层
影视资源尽在HD一条街中,
HD一条街,身边的一条街。
老乐 该用户已被删除
发表于 2014-5-14 03:22:46 | 显示全部楼层
提示: 作者被禁止或删除 内容自动屏蔽
HD一条街,身边的一条街。
sqsdw333 该用户已被删除
发表于 2014-5-15 23:56:47 | 显示全部楼层
提示: 作者被禁止或删除 内容自动屏蔽
HD一条街,身边的一条街。
发表于 2014-5-18 14:39:24 | 显示全部楼层
HD一条街,是我心中的一条街
HD一条街,身边的一条街。
您需要登录后才可以回帖 登录 | 立即注册

本版积分规则

手机版|小黑屋|有问题发邮件到admin#(换成@)hd1tj.org|微博|免责申明|HD一条街

GMT+8, 2016-12-11 18:00

Powered by Discuz! X3.1

© 2001-2013 Comsenz Inc.

快速回复 返回顶部 返回列表