开启辅助访问 切换到窄版

HD一条街论坛

 找回密码
 立即注册
查看: 752|回复: 46

[欧美] 人类星球 全三碟[原盘DIY 正片国语DTS 正片及花絮简繁特效中字]BBC Human Planet 2011 Blu-ray 3Disc 1080i VC1 DTSHDMA 5 1-TTG 122G

[复制链接]
发表于 2014-5-3 13:29:02 | 显示全部楼层 |阅读模式
本帖最后由 爱生活爱分享 于 2014-5-3 13:31 编辑 8 G+ J3 Z0 M0 }" j) E! K

2 b- Z6 n: E3 @) C$ V" R  J 21125_front.jpg
/ W/ V4 S; ?2 @7 P! n. b* y
/ @7 c- s' B( @: U# ?! y1 ^. j
, i+ D, B' ^3 t5 T
  1、在上一版基础上增加了DTS768K国语音轨。国语DTS音轨和简繁特效中字均需播放开始后调用。强烈建议使用PD11播放,因为PD11对特效字幕的支持最好,毫无闪烁卡顿之感!本BD带语音导航功能,请不要按照菜单中那个女生的提示按下“ENTER”键,否则你就只能由她慢悠悠的引导你设定了。本DIY使用PD11、TMT3、海美迪HD800B完美播放,其他软件和平台恕不一一测试。下载过或未下载完国语版第一碟的可将第一碟装入和本种子同名文件夹校验。
: O0 X4 l5 d3 M: ^: d2 n5 S          2、关于音轨及字幕:国语DTS音轨由驴脾气独家提供!是其采用英语次世代原声的核心DTS1536K音轨和央视国语辛苦混音而成,考虑到容量问题,输出规格为768K,对白清晰洪亮,音质非常出色!不会有听不清的感觉。由于央视版国语只译制了49分钟正片,第三碟的两个独立的花絮央视也没有译制,所以每集正片最后10分钟的幕后花絮仍采用英语原声补齐。对应英语的特效中文字幕由zy0591采用YYeTs的HDTV版字幕进行加工制作,包含大量渐变、漂移、阴影、透明等特效,和原始画面水乳交融,浑然一体。由于没有专门匹配国语的字幕,若听国语时使用对应英语的字幕,虽然大致意思是差不多,但文字表诉不一致,有种很别扭的感觉,所以采用对应英文的特效字幕删除了常规解说字幕,只保留了特效注解和其他语注解,每一集最后10分钟英文解说字幕仍保留。在此感谢驴脾气、YYeTs、zy0591的辛勤劳动!

9 I& f- d' S4 I' Y; r
3 {/ }5 H4 @/ U( @4 D0 g, d; m& w5 O. ?( R
※※※※※※※ 影片信息 ※※※※※※※
7 V4 n+ w, q' ^/ U4 R" e" \9 o: q' m  l3 |3 O5 T8 }
【译  名】BBC: 人类星球* Q7 c6 s' y# H5 ~
【原  名】BBC: Human Planet
1 A+ O6 e4 |3 I8 [! Y& x% p3 N8 j【发行时间】2011年01月13日
0 }" j0 ?8 F- Z% `【制作发行】BBC$ ^0 U6 @. v. {. }+ N
【地  区】英国
' G' L9 i7 z2 }% s" ~, `5 k# @; o【语  言】英语、国语# `. b# H2 N( y
【字  幕】英语、DIY简繁特效中字' ~" O9 K. {1 ^! G9 D5 D  D
【集  数】三碟 前2碟每碟3集 第三碟为2集2个花絮) j! O+ i" x- V7 c' o# n
【每集长度】59分钟左右
: w" r3 _8 P% \: e【IMDB评分】9.4/ H; u: Z+ H& T' j; C
【IMDB链接】http://www.imdb.com/title/tt1806234// N! z7 w$ j! P

0 o) L3 ^4 j, R/ J) k& q※※※※※※※ 影片简介 ※※※※※※※
! w( l9 X( r+ U
5 s& s: t  x0 S- l; ?2 K      BBC8集大型电视系列片 - Human Planet (人类星球),探讨人与自然的关系。8集节目分别探讨极地、山区、海洋、丛林、草原、河流、沙漠和城市的人类活动。世界一流的自然与人类专家以及摄影师,从空中、陆地和水下抓拍珍贵镜头。BBC摄制组前往世界80个地方,抓拍了从未在电视屏幕上出现过的罕见精彩的人类活动。
7 j1 o) a' ~) W: C8 V* ]9 u4 J3 `7 s+ X7 ^* ?9 P. O4 m
第一集:(海洋)Oceans( P9 w2 ]; y9 ~4 F
第二集:(沙漠)Deserts$ a$ k$ l* `/ `4 {/ U+ K+ d3 j
第三集:(北极)Arctic2 g0 S7 j* V7 C2 ^2 Y
第四集:(丛林)Jungles  q- ?. e$ y% r$ N  d# [& x
第五集:(高山)Mountains1 D2 W# p2 m. o$ D/ I5 ~
第六集:(草原)Grasslands8 d! z) Y9 M1 L0 T  l9 a' |% @
第七集:(河流)Rivers
, E1 ~. u2 S2 e3 d$ C第八集:(城市)Cities
' B, f/ H, J0 t4 t; @* J花絮一:(摩洛哥制革厂)$ w7 v) X' t( d  i6 t. K
花絮二:(印度尼西亚火山)
  1. DISC INFO:
    ! F8 y6 S# V" H9 I/ T. V
  2. $ B0 f! i. c  d1 t" `
  3. Disc Title:     Human Planet Disc1
    ) f$ b- B7 Q  i8 R3 `
  4. Disc Size:      45,479,515,825 bytes
    ! }2 s, N+ @. F1 f6 z& T2 _
  5. Protection:     AACS* v! a0 i( N- w- R- D9 G
  6. BD-Java:        Yes2 T. P+ D) f5 W' B2 U$ i% t; l
  7. BDInfo:         0.5.6
      d& l3 ~- }7 `' J

  8. 4 i+ O# f8 ~" m. A7 P- f
  9. PLAYLIST REPORT:
      v  M3 u% ?9 w# d
  10. / ]: R, n- ^0 k3 ~
  11. Name:                   00800.MPLS# @) Z) s. ^; z# K6 I' }
  12. Length:                 2:56:38 (h:m:s)* d5 j/ R4 M$ B' e- y8 y8 D3 C" f6 _, I
  13. Size:                   45,213,812,736 bytes' \+ E( I: [- @1 y! f+ `
  14. Total Bitrate:          34.13 Mbps; {& h2 {7 t9 K' W/ r

  15. 4 d4 P* \) P. i. T& z+ G, F# x
  16. VIDEO:# s9 I* s6 e6 J6 f; q, D

  17. 2 a! E7 e' Y9 R' _' H
  18. Codec                   Bitrate             Description     
    $ T1 {" e- n3 F4 G& a( Y
  19. -----                   -------             -----------     
    0 B; s) X+ t& ^7 D! Z+ q
  20. VC-1 Video              28307 kbps          1080i / 25 fps / 16:9 / Advanced Profile 3( u4 O, r* h5 K: `
  21. , u+ t" r3 a& z: H) z
  22. AUDIO:
    + N5 [7 O' g# i+ n5 l2 v! E# R
  23. ( V" L6 |! s: I6 y4 b
  24. Codec                   Language        Bitrate         Description     * z: t! U! F% ^, ^* c8 \
  25. -----                   --------        -------         -----------     " t$ w/ z2 d: I  S% _8 T
  26. DTS-HD Master Audio     English         2220 kbps       5.1 / 48 kHz / 2220 kbps / 16-bit (DTS Core: 5.1 / 48 kHz / 1509 kbps / 16-bit)1 K: i& ?3 s% c9 k& n7 g9 u
  27. Dolby Digital Audio     English         448 kbps        2.0 / 48 kHz / 448 kbps / DN -4dB5 H- q4 @+ a/ W1 Y: J
  28. DTS Audio               Chinese         768 kbps        5.1 / 48 kHz / 768 kbps / 16-bit 央视国语
    - P8 l$ M$ T0 G; v8 Q* E" ~
  29. 1 H0 M8 y" x9 B
  30. SUBTITLES:
    4 o) E- s5 e; U6 C$ R
  31. 6 N7 I  C, `8 b* }2 v! Q
  32. Codec                   Language        Bitrate         Description       T3 c" Z4 [' p2 P# P7 E
  33. -----                   --------        -------         -----------     
    ( ^9 k! `  p' o$ x- m9 L
  34. Presentation Graphics   English         41.223 kbps                     4 }' f8 Q+ c0 {5 c( c
  35. Presentation Graphics   Chinese         160.212 kbps 简体特效 对应英语音轨                    
    7 }* y4 d3 j* |( f8 l
  36. Presentation Graphics   Chinese         165.974 kbps 繁体特效 对应英语音轨                   7 R- Q; s! j* W; i  q
  37. Presentation Graphics   Chinese         123.488 kbps 简体特效 对应国语音轨                   ! W- y' F; P) G
  38. Presentation Graphics   Chinese         125.753 kbps 繁体特效 对应国语音轨                    4 `; b& y' v* `0 `1 Q

  39. : q. b1 A' c' C8 }7 K
  40. FILES:. `' j6 A; F, h8 E

  41. & |8 h: d2 {7 J  _" D+ x* y* s
  42. Name            Time In         Length          Size            Total Bitrate   
    & P+ J; B5 w3 ^6 k
  43. ----            -------         ------          ----            -------------   
    9 k  ?3 b" `  G8 a8 k& P! k' _
  44. 00000.M2TS      0:00:00.000     0:58:45.994     15,182,186,496  34,446          4 I2 s- c/ d1 x) o
  45. 00013.M2TS      0:58:45.994     0:59:06.997     15,149,101,056  34,168         
    0 u& v$ ~4 L- A- Q8 d9 ?# F& e0 X
  46. 00014.M2TS      1:57:52.992     0:58:45.994     14,922,614,784  33,857  
复制代码

# \% ?8 `) b/ S) V/ T* x" @$ E3 _" v
1 Q7 M9 a# \3 ]& h) K! \※※※※※※※ 下载信息 ※※※※※※※/ I3 l: a$ r% b4 Q0 F) y0 b

! u! j  v# m7 O) u/ H
游客,如果您要查看本帖隐藏内容请回复  捐助论坛可免回复查看隐藏内容详情请点击
最近访问 头像模式 列表模式
HD一条街,身边的一条街。
fdhdwu98 该用户已被删除
发表于 2014-5-3 13:29:19 来自手机 | 显示全部楼层
提示: 作者被禁止或删除 内容自动屏蔽
HD一条街,身边的一条街。
bg789 该用户已被删除
发表于 2014-5-3 13:29:33 | 显示全部楼层
提示: 作者被禁止或删除 内容自动屏蔽
HD一条街,身边的一条街。
w410274972 该用户已被删除
发表于 2014-5-3 13:43:31 | 显示全部楼层
提示: 作者被禁止或删除 内容自动屏蔽
HD一条街,身边的一条街。
发表于 2014-5-3 14:15:23 | 显示全部楼层
分享高清资源,就来HD一条街!
HD一条街,身边的一条街。
zt234988 该用户已被删除
发表于 2014-5-3 15:12:29 | 显示全部楼层
提示: 作者被禁止或删除 内容自动屏蔽
HD一条街,身边的一条街。
发表于 2014-5-3 16:28:24 | 显示全部楼层
一集大约有多大呢?下来看看
HD一条街,身边的一条街。
dwx115 该用户已被删除
发表于 2014-5-3 17:12:19 | 显示全部楼层
提示: 作者被禁止或删除 内容自动屏蔽
HD一条街,身边的一条街。
blxf 该用户已被删除
发表于 2014-5-3 18:56:10 | 显示全部楼层
提示: 作者被禁止或删除 内容自动屏蔽
HD一条街,身边的一条街。
木有 该用户已被删除
发表于 2014-5-3 19:50:24 | 显示全部楼层
提示: 作者被禁止或删除 内容自动屏蔽
HD一条街,身边的一条街。
您需要登录后才可以回帖 登录 | 立即注册

本版积分规则

手机版|小黑屋|有问题发邮件到admin#(换成@)hd1tj.org|微博|免责申明|HD一条街

GMT+8, 2016-12-4 09:57

Powered by Discuz! X3.1

© 2001-2013 Comsenz Inc.

快速回复 返回顶部 返回列表