开启辅助访问 切换到窄版

HD一条街论坛

 找回密码
 加入我们
查看: 572|回复: 25

[国产] 央视4集纪录片 牡丹 第1集-唯有牡丹真国色 CCTV-1.The.Peony.1of4.720p.HDTV.x264.DD5.1-Conan06

[复制链接]
发表于 2014-4-9 21:13:30 | 显示全部楼层 |阅读模式
简介
; _) G  t/ {3 Y/ m0 N
" K2 p4 y  Z' l" @牡丹是中国著名的传统名花,不仅以形色富丽、雍容高贵而自古盛名,更承载着中华民族丰富的传统文化、精神象征和情感寄托。作为饮誉天下的“国花”,牡丹从栽培演化伊始就与中国政治、经济、文化结下了不解之缘,成为不可或缺的精神象征。一部牡丹的种植鉴赏史,几乎也是一部中国历史的演变史,一部中华文化的发展史。% E; v2 h) m9 s, x' r2 N% D* p& B8 |8 ~
  千百年来,牡丹因其富丽、芬芳、尊贵成为幸福美好、繁荣昌盛的象征,而在尊荣娇艳的背后,牡丹历经风霜、不畏逆境、坚韧顽强的生命力,不懈追求并创造美好生活的精神,也契合了中华民族独有的气质和精神。今天,历经风雨的中国迎来了伟大的民族复兴,牡丹将再次见证一个盛世的辉煌。* }/ Q1 Y. C, p, G
  牡丹是中国文化的一个标志性符号,现实的牡丹,以及牡丹背后的中华文化,是本片的着眼点。更重要的则是,由牡丹延伸出的中国人的生活和故事。
7 ?3 G5 H$ T- l% h) o* |  本片用纪录片的手法,由牡丹和中国文化作为大背景,以细微鲜活的细节和人物故事为表现重点。以小见大,以点带面,把写实的牡丹写意化,把具象的牡丹抽象到生活和人物中去。最终将从三个层面探索并表现出牡丹这一中国独有的花卉,以及文化符号的形成和发扬。第一层面:牡丹的发展路线和生物性演变;第二层面:牡丹的文化特质和品牌塑造;第三层面:牡丹的精神特质和牡丹精神的传承。3 m! n2 Z9 f! a+ b
& x; f0 y% `3 \$ \5 F
 第1集:唯有牡丹真国色* e0 t7 `5 x  |; C, E' L* x
  第2集:独立人间第一香! r* c% x# t0 G  L
  第3集:天下真花独牡丹# a& F6 p' r' r+ ^5 I# g- a
  第4集:须是牡丹花盛发
  1. General4 K/ q0 M' v3 u- O0 ~  L. U  B
  2.     Complete name: CCTV-1.The.Peony.1of4.720p.HDTV.x264.DD5.1-Conan06.mp4
    7 E9 E# x& z1 {8 V" j# O, O
  3.     Format: MPEG-41 `. f& p1 |/ I
  4.     Format profile: Base Media, }  g9 Z9 _3 A1 M' E; ]
  5.     Codec ID: isom2 B2 R. T+ s$ C, Z/ ?
  6.     File size: 1.68 GiB& N9 v% @. i5 @5 @  A4 K* X/ {
  7.     Duration: 48mn 30s, n) K, x3 ~- D2 {
  8.     Overall bit rate mode: Variable
    2 r2 a/ [0 k: r# I$ t0 \9 [
  9.     Overall bit rate: 4 950 Kbps
    6 g/ }5 X8 o; i8 i0 L' S$ `
  10.     Encoded date: UTC 2014-04-09 02:17:427 m8 h8 Z! s. G& X8 y+ j' Q) s5 [
  11.     Tagged date: UTC 2014-04-09 02:17:42: V5 f0 j( u: {+ a, ]7 o

  12. # s- J, Z1 A; n# y  W' e
  13. Video/ r; D! T% \5 c$ j% r/ i6 x
  14.     ID : 1
    7 C; n: R& N5 U( I0 z7 ?( v
  15.     Format: AVC
    $ _: [* Z( O( i9 h/ j
  16.     Format/Info: Advanced Video Codec, x4 f- q, V; z5 h# f
  17.     Format profile: [email protected]7 H% s% f' b5 z+ l6 l
  18.     Format settings, CABAC: Yes4 L; |7 n3 u) u3 o
  19.     Format settings, ReFrames: 4 frames
    3 T9 o& I' P+ X, `( f" k
  20.     Frame mode: Frame doubling
    ' Z, o% `$ U4 O% X" Y2 W
  21.     Codec ID: avc1
    + i5 p% z! I. o& @$ H
  22.     Codec ID/Info: Advanced Video Coding- z9 e& A( E& v" B/ w7 r! g3 R
  23.     Duration: 48mn 30s
    ) F! l. H- ^* g! x
  24.     Bit rate mode: Variable5 C: r' ?- O; Z0 y
  25.     Bit rate: 4 500 Kbps( U( B' F: e- P# E
  26.     Maximum bit rate: 14.0 Mbps3 z5 Q+ U4 N% j% I( v: y* ^
  27.     Width: 1 280 pixels
    : z) g; W% l" w' |
  28.     Height: 720 pixels  M/ J4 M/ C7 x/ p
  29.     Display aspect ratio: 16:9: Q" E7 e& D2 o4 k
  30.     Frame rate mode: Constant+ J8 \" K; K+ f5 ~, p
  31.     Frame rate: 25.000 fps8 z; `$ j' K# M9 L" M0 ^
  32.     Color space: YUV
    & B$ `. G$ _5 f  R
  33.     Chroma subsampling: 4:2:00 j) @: n' x0 E; Y- q0 q0 b" g# E) {
  34.     Bit depth: 8 bits
      D; }( o) d5 K9 z/ j8 F" i
  35.     Scan type: Progressive8 m% e" r: ~+ k( ~2 P7 z. r( @
  36.     Bits/(Pixel*Frame): 0.195& F" g% [7 n- `& a+ V4 m
  37.     Stream size: 1.52 GiB (91%)
    : ~  f7 ]7 F9 Y( ~/ q% [$ D
  38.     Title: The Peony - #1
    , L, M6 A* M8 Q
  39.     Writing library: x264 core 129 r2230 1cffe9f* j; O: H. h$ C6 D
  40.     Encoding settings: cabac=1 / ref=5 / deblock=1:-1:-1 / analyse=0x3:0x133 / me=umh / subme=9 / psy=1 / psy_rd=1.00:0.15 / mixed_ref=1 / me_range=24 / chroma_me=1 / trellis=2 / 8x8dct=1 / cqm=0 / deadzone=21,11 / fast_pskip=0 / chroma_qp_offset=-3 / threads=6 / lookahead_threads=1 / sliced_threads=0 / slices=4 / nr=0 / decimate=1 / interlaced=0 / bluray_compat=1 / constrained_intra=0 / bframes=3 / b_pyramid=1 / b_adapt=1 / b_bias=0 / direct=1 / weightb=1 / open_gop=1 / weightp=1 / keyint=25 / keyint_min=1 / scenecut=40 / intra_refresh=0 / rc_lookahead=25 / rc=2pass / mbtree=1 / bitrate=4500 / ratetol=1.0 / qcomp=0.60 / qpmin=0 / qpmax=69 / qpstep=4 / cplxblur=20.0 / qblur=0.5 / vbv_maxrate=14000 / vbv_bufsize=14000 / nal_hrd=vbr / ip_ratio=1.40 / aq=1:1.00. K* o7 a. c! J1 Y# r( }: @/ y4 o
  41.     Encoded date: UTC 2014-04-08 23:02:43
    * `7 p7 r8 d" J' F) j7 Z' R6 J( @
  42.     Tagged date: UTC 2014-04-09 02:19:389 _6 V& y: F# q9 ?! K
  43.     Color primaries: BT.709
    / q# F3 i/ }& Y, d& T
  44.     Transfer characteristics: BT.7095 U, Q8 ^8 f" |. l
  45.     Matrix coefficients: BT.709, X, ^# i& f! H' l& Y
  46. 1 v  C  u+ C' }0 ]
  47. Audio
    0 t8 l4 }9 d/ h4 d* O. c1 E5 w& q# ~
  48.     ID: 2) L5 H! V- k% T4 P) e0 B8 q7 E9 @
  49.     Format: AC-3( V/ a1 j1 w3 @' Y: B
  50.     Format/Info: Audio Coding 39 N, |; L3 r( X1 l
  51.     Mode extension: CM (complete main)
    : V# S+ Y* i( N& C' ]1 \! w
  52.     Format settings, Endianness: Big
    # R  I8 f( {. ]1 c- {
  53.     Codec ID: ac-3
    + c0 i& f. ]4 }5 S5 i  e5 q: J
  54.     Duration: 48mn 30s  Z2 i, C  T6 g4 K
  55.     Bit rate mode: Constant- M! G! U* c7 n1 V9 J7 H" k
  56.     Bit rate: 448 Kbps6 U9 h# x9 p3 p0 C  X
  57.     Channel(s): 6 channels
    ! T7 J# k) k) U3 x0 }) f' S6 Z
  58.     Channel positions: Front: L C R, Side: L R, LFE8 q! v7 j, g3 X2 ^. B! S
  59.     Sampling rate: 48.0 KHz0 r2 Q* w4 P- x4 H2 U
  60.     Bit depth: 16 bits
    : A+ y5 U, n$ M2 |6 _" S: a& T4 q% m
  61.     Compression mode: Lossy# ]* d3 Q" S. t  _
  62.     Stream size: 155 MiB (9%)
    $ ^: s3 N& ?* [/ l
  63.     Title: Mandarin3 G2 `* i) V5 E8 o; l4 f' ]
  64.     Language: Chinese; X' I, P: \3 M. S; d3 C; j9 E9 o
  65.     Encoded date: UTC 2014-04-09 02:19:21
      q! N+ {0 X  a
  66.     Tagged date: UTC 2014-04-09 02:19:38
    # U1 l! q0 c5 I, g% {# q3 J
  67. ; C% X) Y6 v* f
  68. Text- z5 p6 {9 g( b" a
  69.     ID: 32 d/ a' d5 h+ r5 J. N2 M  x; E
  70.     Format: Timed Text
    5 F6 J3 h- B$ @! |3 c1 b
  71.     Codec ID: tx3g6 z$ ?, Q( M9 C* `2 n8 U+ A& s2 w  D
  72.     Duration: 47mn 59s
    4 o9 j9 J- x# s. }
  73.     Bit rate mode: Variable
    ; I3 ]" |4 S1 w
  74.     Bit rate: 1 bps+ X' {) h# O8 K1 J7 f. h
  75.     Stream size: 320 Bytes (0%)& Y: J- J- {7 @7 r" T! g; L
  76.     Title: Conan068 D4 G9 l* E# G7 M
  77.     Language: Chinese
    2 S! [1 h+ K) y) m  `, e+ K
  78.     Encoded date: UTC 2014-04-09 02:19:38* g; x& F) h3 x: i4 u& s2 a8 C: X' ]
  79.     Tagged date: UTC 2014-04-09 02:19:38
    : d6 B" x  R' p9 ]( t  p  d
  80. * |+ U% S- }# |3 q& W2 f& V' _
  81. Menu
    " ]- o4 C/ a8 L' y* W4 y9 {
  82.     00:00:00.000: Opening1 G6 t7 _2 v6 e" @6 c
  83.     00:01:35.080: Chapter 1/ f  y" V. |4 j' R& J
  84.     00:16:03.000: Chapter 2
    ) D4 ?; n$ U. F7 B# e+ \7 [
  85.     00:34:54.000: Chapter 3  n% O' A2 }# \) d3 h
  86.     00:47:15.440: Preview) Z4 K" @/ R" b
  87.     00:48:00.000: Ending
复制代码
% B9 ?" s9 l3 w6 t+ w7 E5 G2 i& `
: \* o2 z( Q3 Y" K, v

/ o. v. \& m5 u4 l0 h
% s; ~+ S8 [5 z
                               
登录/注册后可看大图

: @% F6 A" @6 b& O7 n! f                               
登录/注册后可看大图
: H# C5 Z0 C# B$ J

+ a/ v9 E5 G; [5 K                               
登录/注册后可看大图
9 K8 ]2 R5 x' y& u. p9 D: A
                               
登录/注册后可看大图
9 z3 t+ F9 f0 X9 }
$ G* I; s: y0 j( E% r( }" Z
                               
登录/注册后可看大图

- Y' A' b1 a7 Y  J                               
登录/注册后可看大图

3 l5 _) Z2 O& c; y7 V* R' ?

5 l# K- B6 t1 C& u9 }                               
登录/注册后可看大图

6 H1 V8 N  f4 L6 D/ b) N8 F                               
登录/注册后可看大图
1 v9 d! R/ s/ m& o1 ?

/ v+ Q( y/ X. W6 z- z) \- A0 o【下载地址】' V- D9 K/ _% w/ V5 ?
3 a( q) D& w: P- c* t7 @1 s
游客,如果您要查看本帖隐藏内容请回复  捐助论坛可免回复查看隐藏内容 详情请点击
最近访问 头像模式 列表模式
HD一条街,身边的一条街。
pdimn89 该用户已被删除
发表于 2014-4-9 21:13:34 | 显示全部楼层
提示: 作者被禁止或删除 内容自动屏蔽
HD一条街,身边的一条街。
发表于 2014-4-9 21:33:02 | 显示全部楼层
为了维护HD一条街的和平,我必须打满这些字,拒绝灌水,拒绝广告,争做论坛良好公民!
HD一条街,身边的一条街。
发表于 2014-4-9 22:01:22 | 显示全部楼层
国色天香的牡丹
HD一条街,身边的一条街。
ele_hoe0612 该用户已被删除
发表于 2014-4-10 00:11:41 | 显示全部楼层
提示: 作者被禁止或删除 内容自动屏蔽
HD一条街,身边的一条街。
lxf83th 该用户已被删除
发表于 2014-4-10 07:48:35 | 显示全部楼层
提示: 作者被禁止或删除 内容自动屏蔽
HD一条街,身边的一条街。
发表于 2014-4-10 08:47:04 | 显示全部楼层
HD一条街,是我心中的一条街
HD一条街,身边的一条街。
5942888 该用户已被删除
发表于 2014-4-10 09:16:23 | 显示全部楼层
提示: 作者被禁止或删除 内容自动屏蔽
HD一条街,身边的一条街。
发表于 2014-4-10 09:40:43 | 显示全部楼层
不错,又占了一个沙发!
HD一条街,身边的一条街。
傲雪飞龙 该用户已被删除
发表于 2014-4-10 10:08:29 | 显示全部楼层
提示: 作者被禁止或删除 内容自动屏蔽
HD一条街,身边的一条街。
您需要登录后才可以回帖 登录 | 加入我们

本版积分规则

手机版|小黑屋|有问题发邮件到admin#(换成@)hd1tj.org|微博|免责申明|HD一条街

GMT+8, 2017-1-20 22:01

Powered by Discuz! X3.1

© 2001-2013 Comsenz Inc.

快速回复 返回顶部 返回列表