开启辅助访问 切换到窄版

HD一条街论坛

 找回密码
 加入我们
查看: 590|回复: 25

[国产] 央视4集纪录片 牡丹 第1集-唯有牡丹真国色 CCTV-1.The.Peony.1of4.720p.HDTV.x264.DD5.1-Conan06

[复制链接]
发表于 2014-4-9 21:13:30 | 显示全部楼层 |阅读模式
简介
  H- `2 ?0 k& }) b; e2 l% ?# m5 H; q. N/ u, V; M& d  n
牡丹是中国著名的传统名花,不仅以形色富丽、雍容高贵而自古盛名,更承载着中华民族丰富的传统文化、精神象征和情感寄托。作为饮誉天下的“国花”,牡丹从栽培演化伊始就与中国政治、经济、文化结下了不解之缘,成为不可或缺的精神象征。一部牡丹的种植鉴赏史,几乎也是一部中国历史的演变史,一部中华文化的发展史。; _) w2 V: t8 f/ _- h; [" K
  千百年来,牡丹因其富丽、芬芳、尊贵成为幸福美好、繁荣昌盛的象征,而在尊荣娇艳的背后,牡丹历经风霜、不畏逆境、坚韧顽强的生命力,不懈追求并创造美好生活的精神,也契合了中华民族独有的气质和精神。今天,历经风雨的中国迎来了伟大的民族复兴,牡丹将再次见证一个盛世的辉煌。
/ t; J6 e% |: v/ p- G  牡丹是中国文化的一个标志性符号,现实的牡丹,以及牡丹背后的中华文化,是本片的着眼点。更重要的则是,由牡丹延伸出的中国人的生活和故事。
0 J" i' }: B  x' q3 q& o' _4 @. l  本片用纪录片的手法,由牡丹和中国文化作为大背景,以细微鲜活的细节和人物故事为表现重点。以小见大,以点带面,把写实的牡丹写意化,把具象的牡丹抽象到生活和人物中去。最终将从三个层面探索并表现出牡丹这一中国独有的花卉,以及文化符号的形成和发扬。第一层面:牡丹的发展路线和生物性演变;第二层面:牡丹的文化特质和品牌塑造;第三层面:牡丹的精神特质和牡丹精神的传承。
/ p  U5 |/ ?( C' q! e" a7 a6 M1 j, J2 a
 第1集:唯有牡丹真国色
7 Z$ D( v) _) V$ s+ |  第2集:独立人间第一香0 n) f4 {; ]- A- G" f
  第3集:天下真花独牡丹
6 ^7 I+ X4 Q. x; y4 e  r. x/ \  第4集:须是牡丹花盛发
  1. General
    " A) m& L, V5 j/ L: t8 u
  2.     Complete name: CCTV-1.The.Peony.1of4.720p.HDTV.x264.DD5.1-Conan06.mp4
    ; E0 y/ |; v, j( D
  3.     Format: MPEG-4( f/ w& O8 O: x, t8 b
  4.     Format profile: Base Media/ b0 P& [9 |. L- A. m$ t# k# f- v, b
  5.     Codec ID: isom' p/ r" |8 P% D  e8 U( [7 {
  6.     File size: 1.68 GiB
    2 I# Q* C: V' Y9 {6 ]
  7.     Duration: 48mn 30s( s9 S4 q6 F7 y9 ]
  8.     Overall bit rate mode: Variable, s+ `* o. `1 X5 P
  9.     Overall bit rate: 4 950 Kbps) m" U! Y. q) a
  10.     Encoded date: UTC 2014-04-09 02:17:42
    + q# t3 P% M* T+ _
  11.     Tagged date: UTC 2014-04-09 02:17:42
    * F  p( F6 f4 ?( I8 N+ `
  12. 3 ~' \- U7 D+ j
  13. Video
    0 `- p8 {, S9 C4 ^, u" u7 l
  14.     ID : 1
    5 I: c& s! c( V/ i  K' c
  15.     Format: AVC) l8 g  A1 l( a! m! ~& o* R
  16.     Format/Info: Advanced Video Codec6 q( @8 Z7 [8 \: l& _) [
  17.     Format profile: [email protected]
    " ?" }, t2 v$ Y, @9 F& ?1 c
  18.     Format settings, CABAC: Yes: o8 a! j& P8 |6 j2 T1 `! @. k
  19.     Format settings, ReFrames: 4 frames' ]7 Q4 n" q3 [; }
  20.     Frame mode: Frame doubling
    1 U( Q% M& ~+ T* `7 A
  21.     Codec ID: avc1
    # K: x4 k& M9 ], `- V/ z: ^7 Y
  22.     Codec ID/Info: Advanced Video Coding& s2 g" u7 U" T
  23.     Duration: 48mn 30s
    , ]; [3 N8 q9 z. \9 O
  24.     Bit rate mode: Variable
    + ^+ x/ }0 b7 r* o
  25.     Bit rate: 4 500 Kbps
    " N7 H; h8 O. t6 Z6 s
  26.     Maximum bit rate: 14.0 Mbps, i* V) T7 t- U4 ~1 v1 s0 j0 \( B
  27.     Width: 1 280 pixels; R5 Q" C! Q* U) m" K; u6 r
  28.     Height: 720 pixels. ~5 ~3 J# Y, p
  29.     Display aspect ratio: 16:9
    , Z" H# P. s4 t: C* o
  30.     Frame rate mode: Constant3 I5 t- o) j' U
  31.     Frame rate: 25.000 fps
    7 A+ U0 ~0 w- _; x* {- V3 L, Q
  32.     Color space: YUV/ e8 R  w% P# a' `# E4 U2 I
  33.     Chroma subsampling: 4:2:0: H1 h5 z; M( v- M- \
  34.     Bit depth: 8 bits8 A& ^; d: j4 l0 {4 a/ i6 X  Z
  35.     Scan type: Progressive) C  Z1 w& F8 O) ]$ p, M  E2 d
  36.     Bits/(Pixel*Frame): 0.195# K- P$ M0 o1 ?0 ^4 ^1 |4 B
  37.     Stream size: 1.52 GiB (91%)6 j- ]7 g4 y& N* q, [6 w
  38.     Title: The Peony - #1
    $ G* A) z( G: T- e- @
  39.     Writing library: x264 core 129 r2230 1cffe9f) J) Q1 z9 `  D- o/ d
  40.     Encoding settings: cabac=1 / ref=5 / deblock=1:-1:-1 / analyse=0x3:0x133 / me=umh / subme=9 / psy=1 / psy_rd=1.00:0.15 / mixed_ref=1 / me_range=24 / chroma_me=1 / trellis=2 / 8x8dct=1 / cqm=0 / deadzone=21,11 / fast_pskip=0 / chroma_qp_offset=-3 / threads=6 / lookahead_threads=1 / sliced_threads=0 / slices=4 / nr=0 / decimate=1 / interlaced=0 / bluray_compat=1 / constrained_intra=0 / bframes=3 / b_pyramid=1 / b_adapt=1 / b_bias=0 / direct=1 / weightb=1 / open_gop=1 / weightp=1 / keyint=25 / keyint_min=1 / scenecut=40 / intra_refresh=0 / rc_lookahead=25 / rc=2pass / mbtree=1 / bitrate=4500 / ratetol=1.0 / qcomp=0.60 / qpmin=0 / qpmax=69 / qpstep=4 / cplxblur=20.0 / qblur=0.5 / vbv_maxrate=14000 / vbv_bufsize=14000 / nal_hrd=vbr / ip_ratio=1.40 / aq=1:1.00
    5 P* k% q! J- V* ]( p" Z
  41.     Encoded date: UTC 2014-04-08 23:02:43
      F. ]2 M7 F, j
  42.     Tagged date: UTC 2014-04-09 02:19:38
    1 p6 z* D* v7 a3 a" [- \
  43.     Color primaries: BT.7091 e" [6 ^( J8 [9 I' W" C6 l
  44.     Transfer characteristics: BT.7098 i- v. C% _0 l  G6 {* U8 _
  45.     Matrix coefficients: BT.7093 x8 L$ p  x3 q4 {+ y$ E

  46. 2 M+ p2 f: N  I7 }
  47. Audio
    1 \& P+ O7 k9 ~, ~) V( y
  48.     ID: 2& N! c: W! t8 T3 B
  49.     Format: AC-37 A2 a3 t; e  ~6 F+ z3 i4 V* U
  50.     Format/Info: Audio Coding 37 B$ g+ u; t2 D; W
  51.     Mode extension: CM (complete main)
    1 L. n( p! f6 _# B+ M0 E0 v6 F
  52.     Format settings, Endianness: Big
    1 K& _; a" X& {' D$ [, ?
  53.     Codec ID: ac-3
      f2 b* @5 I& o. I. g
  54.     Duration: 48mn 30s
    0 _1 m  I, ^/ ~/ |5 O$ A
  55.     Bit rate mode: Constant1 `5 e6 b: r- b" r  x* _
  56.     Bit rate: 448 Kbps: E' e1 z' y3 {9 @6 j9 E
  57.     Channel(s): 6 channels) O6 p5 v1 _* V8 k
  58.     Channel positions: Front: L C R, Side: L R, LFE
    / K1 p; a! }9 b+ `
  59.     Sampling rate: 48.0 KHz
    / o% C- f2 ~8 T4 x0 D
  60.     Bit depth: 16 bits( \* H" {  c! ]* l( ^# E
  61.     Compression mode: Lossy
    * }: ]' S! F# U7 [* o# K, t
  62.     Stream size: 155 MiB (9%)
    5 J4 V9 d' ]+ }
  63.     Title: Mandarin
    ) c0 R# r5 u, m: _5 r: z
  64.     Language: Chinese8 |6 ]. @$ o% V3 a1 U1 f
  65.     Encoded date: UTC 2014-04-09 02:19:21/ g" A2 E% e' z) f
  66.     Tagged date: UTC 2014-04-09 02:19:38& \9 G* M( B3 w+ N6 d$ X

  67. # o- `. b& j  @# G: Z; T8 V7 {
  68. Text0 N$ v% u$ k7 d4 i; x7 f' d
  69.     ID: 3) t. j$ N/ y! o! L3 Q( V
  70.     Format: Timed Text
    - o! @9 v- E  ~, u: R8 F7 B, j1 a4 x5 w3 Y
  71.     Codec ID: tx3g9 d& n2 f- k- z
  72.     Duration: 47mn 59s- G& p7 n6 C5 `8 X
  73.     Bit rate mode: Variable  S* H4 K" V' y: C' `" J
  74.     Bit rate: 1 bps
    : y/ i. C3 Z% T" j3 F
  75.     Stream size: 320 Bytes (0%)1 F, r. k9 W3 P) G
  76.     Title: Conan06
    ' O% w0 F& T4 q! I/ z" z
  77.     Language: Chinese
    8 O" k2 u6 Z# r0 x
  78.     Encoded date: UTC 2014-04-09 02:19:38
    9 U  _6 |/ S4 p4 T; t* B% n6 e9 p& C
  79.     Tagged date: UTC 2014-04-09 02:19:38  @! q& n; X; ]# y! z* }
  80. % i( W% }0 K4 M- d
  81. Menu. X7 L3 ?0 v9 n# C4 ~8 f- W8 N' S
  82.     00:00:00.000: Opening
    + }+ {. @% a* X9 n3 A2 i, c0 d
  83.     00:01:35.080: Chapter 1
    & |& }3 K, w) C
  84.     00:16:03.000: Chapter 29 M3 S; ^' y% H6 P1 g  r) d* Z
  85.     00:34:54.000: Chapter 3- M. F4 R4 Y9 q: H; M
  86.     00:47:15.440: Preview
    * {' r5 ]9 A6 v4 [  e+ c
  87.     00:48:00.000: Ending
复制代码
) u+ M5 D. \. ^4 R6 k
' O7 M: d4 [; R/ r7 j0 Y  E

% z* r, b$ L* Y

3 _( Q: ^8 e& e                               
登录/注册后可看大图

9 s% V8 W  S: @                               
登录/注册后可看大图
% N7 E3 n1 h8 D/ J. ]5 J

7 \, z  X3 E  @6 q                               
登录/注册后可看大图
5 ~+ a6 ?& m5 w/ E* t* P; N
                               
登录/注册后可看大图
; h' d* S2 Z! ]  z9 q9 T) Y

7 A: v' R! h2 M1 ^                               
登录/注册后可看大图

6 q* }* t& Y9 t5 O& q                               
登录/注册后可看大图

0 E2 A$ Z7 E6 L; U9 i6 |

' [1 w% r0 \; m; I7 j2 i' Y* U                               
登录/注册后可看大图
" N8 {2 V, g0 X8 R- z) [
                               
登录/注册后可看大图

6 g2 T4 |1 c$ p% e+ s0 e( s4 o; a. j+ Z6 y4 ]* ~$ E
【下载地址】
4 f& M* [  [7 j' j/ X, r; |; {  @# r/ }9 N3 ]; w
游客,如果您要查看本帖隐藏内容请回复  捐助论坛可免回复查看隐藏内容 详情请点击
最近访问 头像模式 列表模式
HD一条街,身边的一条街。
pdimn89 该用户已被删除
发表于 2014-4-9 21:13:34 | 显示全部楼层
提示: 作者被禁止或删除 内容自动屏蔽
HD一条街,身边的一条街。
发表于 2014-4-9 21:33:02 | 显示全部楼层
为了维护HD一条街的和平,我必须打满这些字,拒绝灌水,拒绝广告,争做论坛良好公民!
HD一条街,身边的一条街。
发表于 2014-4-9 22:01:22 | 显示全部楼层
国色天香的牡丹
HD一条街,身边的一条街。
ele_hoe0612 该用户已被删除
发表于 2014-4-10 00:11:41 | 显示全部楼层
提示: 作者被禁止或删除 内容自动屏蔽
HD一条街,身边的一条街。
lxf83th 该用户已被删除
发表于 2014-4-10 07:48:35 | 显示全部楼层
提示: 作者被禁止或删除 内容自动屏蔽
HD一条街,身边的一条街。
发表于 2014-4-10 08:47:04 | 显示全部楼层
HD一条街,是我心中的一条街
HD一条街,身边的一条街。
5942888 该用户已被删除
发表于 2014-4-10 09:16:23 | 显示全部楼层
提示: 作者被禁止或删除 内容自动屏蔽
HD一条街,身边的一条街。
发表于 2014-4-10 09:40:43 | 显示全部楼层
不错,又占了一个沙发!
HD一条街,身边的一条街。
傲雪飞龙 该用户已被删除
发表于 2014-4-10 10:08:29 | 显示全部楼层
提示: 作者被禁止或删除 内容自动屏蔽
HD一条街,身边的一条街。
您需要登录后才可以回帖 登录 | 加入我们

本版积分规则

手机版|小黑屋|有问题发邮件到admin#(换成@)hd1tj.org|微博|免责申明|HD一条街

GMT+8, 2017-2-22 02:54

Powered by Discuz! X3.1

© 2001-2013 Comsenz Inc.

快速回复 返回顶部 返回列表