开启辅助访问 切换到窄版

HD一条街论坛

 找回密码
 立即注册
查看: 594|回复: 25

[国产] 央视4集纪录片 牡丹 第1集-唯有牡丹真国色 CCTV-1.The.Peony.1of4.720p.HDTV.x264.DD5.1-Conan06

[复制链接]
发表于 2014-4-9 21:13:30 | 显示全部楼层 |阅读模式
简介& T6 I5 c6 T5 `. s9 P

$ }; {8 ], Y- B8 q) a牡丹是中国著名的传统名花,不仅以形色富丽、雍容高贵而自古盛名,更承载着中华民族丰富的传统文化、精神象征和情感寄托。作为饮誉天下的“国花”,牡丹从栽培演化伊始就与中国政治、经济、文化结下了不解之缘,成为不可或缺的精神象征。一部牡丹的种植鉴赏史,几乎也是一部中国历史的演变史,一部中华文化的发展史。# u& L# I! e) @  [$ a
  千百年来,牡丹因其富丽、芬芳、尊贵成为幸福美好、繁荣昌盛的象征,而在尊荣娇艳的背后,牡丹历经风霜、不畏逆境、坚韧顽强的生命力,不懈追求并创造美好生活的精神,也契合了中华民族独有的气质和精神。今天,历经风雨的中国迎来了伟大的民族复兴,牡丹将再次见证一个盛世的辉煌。& O, E* l# g8 Q0 b- I
  牡丹是中国文化的一个标志性符号,现实的牡丹,以及牡丹背后的中华文化,是本片的着眼点。更重要的则是,由牡丹延伸出的中国人的生活和故事。4 M" E" G( e$ [( f* O
  本片用纪录片的手法,由牡丹和中国文化作为大背景,以细微鲜活的细节和人物故事为表现重点。以小见大,以点带面,把写实的牡丹写意化,把具象的牡丹抽象到生活和人物中去。最终将从三个层面探索并表现出牡丹这一中国独有的花卉,以及文化符号的形成和发扬。第一层面:牡丹的发展路线和生物性演变;第二层面:牡丹的文化特质和品牌塑造;第三层面:牡丹的精神特质和牡丹精神的传承。: Q* o% W; P6 C. o  s2 f
+ Z' |' v. a$ M$ P1 `1 x
 第1集:唯有牡丹真国色
8 N* U5 |" \  I  第2集:独立人间第一香: N/ p: u# c* o$ m- t$ l
  第3集:天下真花独牡丹
2 _: t7 i, w; L6 j9 v3 @  第4集:须是牡丹花盛发
  1. General
    ' @7 e* ]+ C2 O) k+ K* X
  2.     Complete name: CCTV-1.The.Peony.1of4.720p.HDTV.x264.DD5.1-Conan06.mp4
    ) J& ?5 @8 T. `, f% @$ c
  3.     Format: MPEG-4, t4 x8 C& N8 V( J7 c! x
  4.     Format profile: Base Media
    7 z" R4 ]) R% G
  5.     Codec ID: isom) w9 C! F6 t3 W" j: b5 X
  6.     File size: 1.68 GiB
    6 K0 ?8 Y# B) p, E2 x
  7.     Duration: 48mn 30s
    2 n0 T, P# Y1 g. ^' s
  8.     Overall bit rate mode: Variable% j0 v* x8 {: v9 t% H- N6 s& ^
  9.     Overall bit rate: 4 950 Kbps
    4 j0 C( e% [5 ?: B
  10.     Encoded date: UTC 2014-04-09 02:17:42
    4 ^& C8 d0 Y$ U$ L
  11.     Tagged date: UTC 2014-04-09 02:17:420 J2 J# u: Q8 |& J9 \, |3 ]2 G

  12. 0 g6 y7 {: b5 R
  13. Video
    ! M# q% ~6 i/ ?1 A" s7 r
  14.     ID : 1
    * j/ _% L7 o9 U4 E4 v. Y) p
  15.     Format: AVC
    2 U0 B. C- x* R
  16.     Format/Info: Advanced Video Codec; d% Z. _2 e9 I% N6 t
  17.     Format profile: [email protected]1 Z$ b6 H3 A8 h
  18.     Format settings, CABAC: Yes
    5 \1 y, h+ l9 D3 Q0 _" B) T9 m
  19.     Format settings, ReFrames: 4 frames
    1 i0 K7 @2 N8 ^0 M
  20.     Frame mode: Frame doubling) ~# u& A' e1 t1 b
  21.     Codec ID: avc1
    5 A' |1 n; B' H0 [
  22.     Codec ID/Info: Advanced Video Coding
    6 J3 e9 F( K4 e1 [: u, d
  23.     Duration: 48mn 30s! V, W/ }, i% K3 f4 H1 a& @
  24.     Bit rate mode: Variable: `* l8 T6 ]9 @: [8 J: e0 a9 P
  25.     Bit rate: 4 500 Kbps
    , r$ [2 {' @! C( |7 n$ f% _8 e
  26.     Maximum bit rate: 14.0 Mbps: Z# s! V3 x/ @) b
  27.     Width: 1 280 pixels' ~8 _& a0 A5 B# o% z4 X5 p
  28.     Height: 720 pixels9 b5 w+ P* h) F/ s: O1 h2 E
  29.     Display aspect ratio: 16:9
    3 F+ g8 i8 W  z8 ^5 K8 \
  30.     Frame rate mode: Constant
    1 ]9 h8 b7 a8 O  q$ i9 g3 G% `  b
  31.     Frame rate: 25.000 fps
    0 k! F# A, M  G' I4 K
  32.     Color space: YUV* _3 D3 p; N1 `4 e
  33.     Chroma subsampling: 4:2:0
    0 t& |5 b  E! X' s/ O+ K$ b
  34.     Bit depth: 8 bits+ a! Y* X2 F! g, t9 S. \
  35.     Scan type: Progressive
    1 u" z9 z- V9 c
  36.     Bits/(Pixel*Frame): 0.195: ]! w  K- `( P' T/ c( z1 k
  37.     Stream size: 1.52 GiB (91%)
    ' V1 ?  L+ q: e
  38.     Title: The Peony - #1- W8 F: z; W+ d+ M  J# l( G( f: u- r
  39.     Writing library: x264 core 129 r2230 1cffe9f7 t3 n/ ?+ i1 v1 {
  40.     Encoding settings: cabac=1 / ref=5 / deblock=1:-1:-1 / analyse=0x3:0x133 / me=umh / subme=9 / psy=1 / psy_rd=1.00:0.15 / mixed_ref=1 / me_range=24 / chroma_me=1 / trellis=2 / 8x8dct=1 / cqm=0 / deadzone=21,11 / fast_pskip=0 / chroma_qp_offset=-3 / threads=6 / lookahead_threads=1 / sliced_threads=0 / slices=4 / nr=0 / decimate=1 / interlaced=0 / bluray_compat=1 / constrained_intra=0 / bframes=3 / b_pyramid=1 / b_adapt=1 / b_bias=0 / direct=1 / weightb=1 / open_gop=1 / weightp=1 / keyint=25 / keyint_min=1 / scenecut=40 / intra_refresh=0 / rc_lookahead=25 / rc=2pass / mbtree=1 / bitrate=4500 / ratetol=1.0 / qcomp=0.60 / qpmin=0 / qpmax=69 / qpstep=4 / cplxblur=20.0 / qblur=0.5 / vbv_maxrate=14000 / vbv_bufsize=14000 / nal_hrd=vbr / ip_ratio=1.40 / aq=1:1.007 M- u* \7 f. g& o4 S% O" C, T
  41.     Encoded date: UTC 2014-04-08 23:02:43
    ! G$ S5 j( q+ C1 E
  42.     Tagged date: UTC 2014-04-09 02:19:38+ w2 g: O+ F5 H4 N2 G( o
  43.     Color primaries: BT.709- Q( @, g2 G$ x6 k2 l# R
  44.     Transfer characteristics: BT.709
    7 Y$ w/ n- f# \; K2 Y2 d
  45.     Matrix coefficients: BT.709
    ) g  U( v  a: I0 C& Y

  46. ( `3 E. \& S% g" L! L$ a
  47. Audio5 Q( h5 U, X* D$ u8 @" B
  48.     ID: 2$ Y( P' w, C/ P2 B, c
  49.     Format: AC-3
    # l: Y2 C  E7 e' K: w
  50.     Format/Info: Audio Coding 3( N$ U9 Y4 X  W+ b- ?. h* t
  51.     Mode extension: CM (complete main)
    ) o9 C) S' A( w" V6 H  P
  52.     Format settings, Endianness: Big
    - l+ u* v% U' @
  53.     Codec ID: ac-3
    ( |+ V5 L0 y/ \$ M7 d& }% W
  54.     Duration: 48mn 30s
    + ], m, t' S0 M. V
  55.     Bit rate mode: Constant7 y9 t$ G  S. M) a# F2 b0 t
  56.     Bit rate: 448 Kbps$ K( L7 r" @( U+ O0 ?# P/ `
  57.     Channel(s): 6 channels
    + k# z# K" d4 z" T/ n
  58.     Channel positions: Front: L C R, Side: L R, LFE
    ' `# R( f( K  w: B$ f
  59.     Sampling rate: 48.0 KHz& X, }- \6 Y- T0 ?7 V8 w. F) Q
  60.     Bit depth: 16 bits. Z) G7 K, Y+ h' P, _5 a( \
  61.     Compression mode: Lossy
    : G* P, I# }: _+ l$ R
  62.     Stream size: 155 MiB (9%)
    3 r9 i7 ], i/ L7 r5 i3 i% {& f% l
  63.     Title: Mandarin+ F4 F2 D1 o- F" R
  64.     Language: Chinese
    , C$ x/ H# L4 K* S$ O; ]2 J
  65.     Encoded date: UTC 2014-04-09 02:19:21
      W3 X* J$ y/ y; p& x+ v. \
  66.     Tagged date: UTC 2014-04-09 02:19:38
    0 s3 A. E4 y# B$ i& X

  67. ! A2 q) B. u+ Y! o
  68. Text
    8 y+ k2 r) ^9 m% J; b
  69.     ID: 3
    " F" I) g1 z7 s0 K  W/ p  v
  70.     Format: Timed Text9 z' P" R6 T- v4 b
  71.     Codec ID: tx3g* O# I( Y* \! q' S5 |( W
  72.     Duration: 47mn 59s
    $ s% V9 k  R4 Z! o
  73.     Bit rate mode: Variable
    . L, w4 E) ?& U- @
  74.     Bit rate: 1 bps
    % i0 x, k( ?" Q3 ]& f
  75.     Stream size: 320 Bytes (0%)6 Y. D" a  @- ]" e/ y& H% }
  76.     Title: Conan06. X! z( r+ c$ l: L1 @6 p4 A
  77.     Language: Chinese
    6 z& F6 d6 C5 s+ P+ S5 H# [
  78.     Encoded date: UTC 2014-04-09 02:19:38
    3 H* K7 y4 q& {1 d5 P5 E" X
  79.     Tagged date: UTC 2014-04-09 02:19:38
    4 l3 F# B* k8 O
  80. # c" s- i1 @4 }8 A: H. O& L. t
  81. Menu# g3 U& w0 U% {, i0 C
  82.     00:00:00.000: Opening+ R' g6 i" }9 P  W
  83.     00:01:35.080: Chapter 1
    ' \6 y% r# u; O& P
  84.     00:16:03.000: Chapter 2( U" R) N3 P) j: j3 n. C
  85.     00:34:54.000: Chapter 3
    9 q  n* h* }4 g: y) Z- Z; W6 s
  86.     00:47:15.440: Preview. c0 Y2 k; [4 {' P) S
  87.     00:48:00.000: Ending
复制代码
# u' p' c. k2 U3 g, |

$ t9 l( u& s  {. n; M/ X
6 C+ }; y$ J' s- p
; Y9 r- J2 x6 ~: b4 T- P
                               
登录/注册后可看大图
0 k8 B7 e! H3 U/ P1 b
                               
登录/注册后可看大图
5 }% e* {- f5 L0 \/ [; @

; E$ E7 h) {7 e; K4 f4 J                               
登录/注册后可看大图

  n0 [5 j' l! r4 H2 n! S- |# e                               
登录/注册后可看大图
! z1 q1 x: |% L6 H% Z
6 M, o- f. r3 W: S+ a9 C9 F
                               
登录/注册后可看大图
* W1 q) q4 R8 M8 O- h2 h% _; M
                               
登录/注册后可看大图

, o8 v# V/ Y$ Y

. P! Y& n  }( K) y0 b3 ]- {                               
登录/注册后可看大图

: Y  F  r. c# z$ ]                               
登录/注册后可看大图
$ N8 N1 t/ T9 G% n  X2 g

7 k! W( K3 W: W$ h/ ~2 ~/ f4 n【下载地址】
$ P, q; F! f& Q6 f
& j: ~5 g$ K6 q3 ?
游客,如果您要查看本帖隐藏内容请回复  捐助论坛可免回复查看隐藏内容 详情请点击
最近访问 头像模式 列表模式
HD一条街,身边的一条街。
pdimn89 该用户已被删除
发表于 2014-4-9 21:13:34 | 显示全部楼层
提示: 作者被禁止或删除 内容自动屏蔽
HD一条街,身边的一条街。
发表于 2014-4-9 21:33:02 | 显示全部楼层
为了维护HD一条街的和平,我必须打满这些字,拒绝灌水,拒绝广告,争做论坛良好公民!
HD一条街,身边的一条街。
发表于 2014-4-9 22:01:22 | 显示全部楼层
国色天香的牡丹
HD一条街,身边的一条街。
ele_hoe0612 该用户已被删除
发表于 2014-4-10 00:11:41 | 显示全部楼层
提示: 作者被禁止或删除 内容自动屏蔽
HD一条街,身边的一条街。
lxf83th 该用户已被删除
发表于 2014-4-10 07:48:35 | 显示全部楼层
提示: 作者被禁止或删除 内容自动屏蔽
HD一条街,身边的一条街。
发表于 2014-4-10 08:47:04 | 显示全部楼层
HD一条街,是我心中的一条街
HD一条街,身边的一条街。
5942888 该用户已被删除
发表于 2014-4-10 09:16:23 | 显示全部楼层
提示: 作者被禁止或删除 内容自动屏蔽
HD一条街,身边的一条街。
发表于 2014-4-10 09:40:43 | 显示全部楼层
不错,又占了一个沙发!
HD一条街,身边的一条街。
傲雪飞龙 该用户已被删除
发表于 2014-4-10 10:08:29 | 显示全部楼层
提示: 作者被禁止或删除 内容自动屏蔽
HD一条街,身边的一条街。

手机版|小黑屋|有问题发邮件到admin#(换成@)hd1tj.org|微博|免责申明|HD一条街

GMT+8, 2017-3-29 05:41

Powered by Discuz! X3.1

© 2001-2013 Comsenz Inc.

快速回复 返回顶部 返回列表