开启辅助访问 切换到窄版

HD一条街论坛

 找回密码
 加入我们
查看: 646|回复: 10

[港台] RTHK33 CCTV-9 Documentary 水上屋 全2集 英语无字 Return of the Burmese Cat HDTV 1080i H264 AC3-tbw 2.57G

[复制链接]
发表于 2014-3-29 19:40:48 | 显示全部楼层 |阅读模式
本帖最后由 让心灵去旅行 于 2014-3-29 20:41 编辑
' q) T1 ?& w5 B! A/ O" F* Z9 P3 b' n
1 d$ d. i. K# |1 _8 @( g2 |( h
                               
登录/注册后可看大图
+ [8 A, T; R* @, n9 v; }
( h0 M$ c, Q+ X9 d
简介
. K; Q/ e2 L; {6 Q" c栏目标题:《水上屋》
2 w+ ~  e0 j& g& A) I. m3 h0 Z' \
  B% r" n/ e. V首播频道:CCTV-9纪录
& {8 T" r, C+ N% c$ c: g* f* y3 \5 N) |1 v2 C  n# q
首播时间:2012-9-3 20:00
# c6 t9 R; M5 @" B( @4 ]. \
6 i6 a$ X, T/ _$ R: {栏目介绍:2007年冬季黄效文走进了茵莱湖,与别的游客不一样的是此次缅甸之行,他最想见到的是一种猫,为了找到这种叫缅甸猫的猫,黄效文开始了茵莱湖上的行走。
  1. J:\纪录片\水上屋Return of the Burmese Cat.HDTV.1080i.H264.AC3-tbw.ts5 ^  X0 K* W/ b+ ~* r/ r3 r
  2.   General #1
    7 n! Q7 J. b3 l7 K. K
  3.      ID : 1 (0x1)
    2 s) R! R3 s- D- `4 N
  4.      Complete name : J:\纪录片\水上屋Return of the Burmese Cat.HDTV.1080i.H264.AC3-tbw.ts* m9 q( Y) E# E5 y/ i, m% n) i
  5.      Format : MPEG-TS
    ( w- }% k1 |: I3 B+ u9 q& o% T9 C1 i
  6.      File size : 2.57 GiB  R7 g8 {( A/ P4 q# q. x
  7.      Duration : 52mn 41s
    5 X  d3 N0 ]; e* a9 i
  8.      Overall bit rate : 6 987 Kbps4 `; }6 s5 u* D5 U( N* E
  9.   Video #3316 d4 O% w' o& W% @$ O, f$ n
  10.      ID : 331 (0x14B)/ v' y7 B, t" \/ N; ?, R/ f
  11.      Menu ID : 1 (0x1)
    5 l! S' j, J7 W
  12.      Format : AVC0 r% m/ ~# j3 K8 ~
  13.      Format/Info : Advanced Video Codec
    $ ~# ~8 Z: _0 Y
  14.      Format profile : High@L4.0& _0 s/ ?9 U  [/ y( i
  15.      Format settings, CABAC : Yes
    ; j* N5 g$ B- ~8 J$ K' D
  16.      Format settings, ReFrames : 4 frames1 G5 f& X1 c' e% R+ U
  17.      Format settings, GOP : M=8, N=24
    % p4 A. ~3 O5 Q: Z1 }
  18.      Codec ID : 27
    - y7 b/ |$ ^" K* ^
  19.      Duration : 52mn 41s
    ) B6 G) r3 n. N% N$ O
  20.      Bit rate : 6 383 Kbps
    . h+ u" M4 Q9 q1 u2 I
  21.      Width : 1 920 pixels
    ' U+ z7 F; Y& ^% n" D* Z
  22.      Height : 1 080 pixels
    + z0 g% r6 j4 O% F, J# s+ M
  23.      Display aspect ratio : 16:9
      W  `& J# o& o7 Y5 K
  24.      Frame rate : 25.000 fps
    0 T3 u( s, A5 G( ^
  25.      Color space : YUV
    6 E% H4 `8 O, B  |, F3 ?
  26.      Chroma subsampling : 4:2:05 n: i% v! e7 D6 f7 Z# L
  27.      Bit depth : 8 bits
    ) Q/ Q8 d, a0 J5 P4 p4 I: |6 v
  28.      Scan type : MBAFF
    ; S( `, g) p4 M. R# a' W
  29.      Bits/(Pixel*Frame) : 0.1235 V- G. g. K# c- W+ B8 d3 o( D5 \( J
  30.      Stream size : 2.35 GiB (91%)
    / `6 @; P( X' q5 W: D4 E( W4 a
  31.      Color primaries : BT.709-5, BT.1361, IEC 61966-2-4, SMPTE RP1778 ^$ W7 T" c8 a9 C, I
  32.      Transfer characteristics : BT.709-5, BT.1361" I$ o7 j1 d4 B8 p6 e
  33.      Matrix coefficients : BT.709-5, BT.1361, IEC 61966-2-4 709, SMPTE RP177( U0 l7 f1 P5 [# ^/ c
  34.   Audio #332
    & B  x9 E/ d  m) H0 E+ w% q
  35.      ID : 332 (0x14C)
    - j0 i. f% X' A! \" t  \) B2 Z! _8 `
  36.      Menu ID : 1 (0x1)
    ! L, e- p6 L' \" ?6 {$ h
  37.      Format : AC-3+ T: E! ?( l: z; Y# V8 Q- L
  38.      Format/Info : Audio Coding 3
    : D2 Y) z+ p! o5 A( `
  39.      Mode extension : CM (complete main)
    : k7 N# G4 W" g: s
  40.      Codec ID : 6
    4 _' q2 H- c5 N. Y  `
  41.      Duration : 52mn 41s
    ' J! E3 f+ T  b( P- R% k
  42.      Bit rate mode : Constant) U9 A9 p% c3 ]. r1 O' T
  43.      Bit rate : 128 Kbps
    6 v3 z: E" @, Z! e
  44.      Channel(s) : 2 channels
    * }( a% `7 I3 ?, u, n
  45.      Channel positions : Front: L R
    $ I4 v( U3 ?  |1 a  `" @4 `$ O* F8 `
  46.      Sampling rate : 48.0 KHz
    & s2 U  Q( w- A
  47.      Bit depth : 16 bits# v+ y% F! |! r/ I6 r  e
  48.      Compression mode : Lossy
    % k) d* q' V% h, ~1 [
  49.      Stream size : 48.2 MiB (2%)% i/ w: D1 p4 N% v, e. m. [
  50.      Language : English& `! d/ C, ~3 s
  51.   Audio #3338 j/ F, Y* f/ F* l8 J7 N
  52.      ID : 333 (0x14D)' ^' W0 k) M) {( z0 N
  53.      Menu ID : 1 (0x1)8 `. h! K7 q2 K
  54.      Format : AC-3
    ; X$ U) ]% G  ]: f, {  `
  55.      Format/Info : Audio Coding 3
    + ]0 j: _' o$ {, F
  56.      Mode extension : CM (complete main)
    - }" O1 s& U9 C. J. W
  57.      Codec ID : 6. ]; L% Z( ~1 Z6 B6 l. |
  58.      Duration : 52mn 41s' D$ O1 K# t+ M1 H. |6 c
  59.      Bit rate mode : Constant
    $ \$ i2 y" F2 e
  60.      Bit rate : 128 Kbps
      s4 U$ c2 r7 ]
  61.      Channel(s) : 2 channels4 D; e7 a" D2 {) C9 ?5 G: @
  62.      Channel positions : Front: L R
    ) i! i5 [& {6 K, n: }3 m2 {" z& @
  63.      Sampling rate : 48.0 KHz, b5 F( q7 U: `
  64.      Bit depth : 16 bits
    ( h6 e/ H$ A2 b7 @: E' P
  65.      Compression mode : Lossy
      p- b5 p. x+ ]  H/ Z8 {" z4 i
  66.      Stream size : 48.2 MiB (2%)
    2 |1 ?0 G: u( L* g0 V2 C
  67.      Language : English
复制代码
* t  }7 I1 k% r1 C

# w% q( A( h# p3 b6 P& D                               
登录/注册后可看大图

; q: b7 B$ q+ E8 w& v
5 D$ ^1 M, l7 J, C. _# }) H$ Q9 i4 [

$ X5 [$ Z' ]2 L                               
登录/注册后可看大图

, \% D  ~& E  e# u
) a" P8 n" ^3 @( k* n  m" R

. F8 x( i1 w$ F3 U* v& L                               
登录/注册后可看大图

/ f- V4 U* b' u* V4 V
; @% N0 v$ c* U; l

8 o' b+ p/ c  o) D5 o                               
登录/注册后可看大图
8 |- \8 Y  q& Z1 Y9 d) v

/ f* \: s9 y& G
- w; O/ W( s$ x: Y3 i5 w
                               
登录/注册后可看大图

* p7 c, ]: C' w  o: M4 N2 s7 _+ P) i# f: U2 ?
【下载地址】4 C; b  E0 Z! g# n9 u% }  t- n& h2 ~
& S+ Z& B+ ^& O$ C+ F
游客,如果您要查看本帖隐藏内容请回复  捐助论坛可免回复查看隐藏内容 详情请点击
最近访问 头像模式 列表模式
HD一条街,身边的一条街。
ndopmc9 该用户已被删除
发表于 2014-3-29 19:42:48 | 显示全部楼层
提示: 作者被禁止或删除 内容自动屏蔽
HD一条街,身边的一条街。
雅蓉 该用户已被删除
发表于 2014-3-29 21:52:37 | 显示全部楼层
提示: 作者被禁止或删除 内容自动屏蔽
HD一条街,身边的一条街。
luofuzu 该用户已被删除
发表于 2014-3-30 08:30:54 | 显示全部楼层
提示: 作者被禁止或删除 内容自动屏蔽
HD一条街,身边的一条街。
fjgirl 该用户已被删除
发表于 2014-3-30 18:11:23 | 显示全部楼层
提示: 作者被禁止或删除 内容自动屏蔽
HD一条街,身边的一条街。
你问我是谁 该用户已被删除
发表于 2014-3-30 18:30:04 | 显示全部楼层
提示: 作者被禁止或删除 内容自动屏蔽
HD一条街,身边的一条街。
的十五万i 该用户已被删除
发表于 2014-4-5 19:28:36 | 显示全部楼层
提示: 作者被禁止或删除 内容自动屏蔽
HD一条街,身边的一条街。
服务大声地 该用户已被删除
发表于 2014-4-5 19:35:08 | 显示全部楼层
提示: 作者被禁止或删除 内容自动屏蔽
HD一条街,身边的一条街。
发表于 2014-4-5 19:54:39 | 显示全部楼层
为了维护HD一条街的和平,我必须打满这些字,拒绝灌水,拒绝广告,争做论坛良好公民!
HD一条街,身边的一条街。
发表于 2014-4-11 17:58:04 | 显示全部楼层
VERY VERY GOOD!
HD一条街,身边的一条街。

手机版|小黑屋|有问题发邮件到admin#(换成@)hd1tj.org|微博|免责申明|HD一条街

GMT+8, 2017-3-27 03:02

Powered by Discuz! X3.1

© 2001-2013 Comsenz Inc.

快速回复 返回顶部 返回列表