开启辅助访问 切换到窄版

HD一条街论坛

 找回密码
 立即注册
查看: 577|回复: 10

[港台] RTHK33 CCTV-9 Documentary 水上屋 全2集 英语无字 Return of the Burmese Cat HDTV 1080i H264 AC3-tbw 2.57G

[复制链接]
发表于 2014-3-29 19:40:48 | 显示全部楼层 |阅读模式
本帖最后由 让心灵去旅行 于 2014-3-29 20:41 编辑 % J. ^  \/ w9 q; o8 V3 Q
; z4 `) E9 R8 c$ x4 t5 Y4 v9 b  p
- _! }* B; M2 w
                               
登录/注册后可看大图
, y( @$ _1 v, f7 f

; [; ^- B4 Q6 o5 S1 T简介
' Q0 m! f* z# K0 m% V+ t栏目标题:《水上屋》
3 w6 q) |( B& y: l1 P. v8 f
: v' D- b. h/ [5 s- d1 q" [首播频道:CCTV-9纪录( m- J! \8 N, q4 ]6 g; t7 r: P# Y
) o) |0 b  r3 L$ ?- ?
首播时间:2012-9-3 20:00
, c) a, ?6 W8 M6 `, g6 {
8 r5 }, g2 f$ S栏目介绍:2007年冬季黄效文走进了茵莱湖,与别的游客不一样的是此次缅甸之行,他最想见到的是一种猫,为了找到这种叫缅甸猫的猫,黄效文开始了茵莱湖上的行走。
  1. J:\纪录片\水上屋Return of the Burmese Cat.HDTV.1080i.H264.AC3-tbw.ts
    " H$ n5 B. r* T/ \; l- A
  2.   General #1
    / F; j. f$ J. U2 _3 X; E
  3.      ID : 1 (0x1)0 _) b  h# \+ l  X1 {
  4.      Complete name : J:\纪录片\水上屋Return of the Burmese Cat.HDTV.1080i.H264.AC3-tbw.ts7 ]4 Z: k/ ~6 S0 p; W+ X. A) x; ~
  5.      Format : MPEG-TS! ]5 [* z7 D8 y5 e
  6.      File size : 2.57 GiB
    5 s! z' }# f5 m: M
  7.      Duration : 52mn 41s
    0 z( Y' k2 E- j% b# Q
  8.      Overall bit rate : 6 987 Kbps
    & F, C* G7 I: Q
  9.   Video #331
    ) m8 v! F2 E7 _- `2 S1 i8 t
  10.      ID : 331 (0x14B)
    % H+ P( c8 m7 z, E
  11.      Menu ID : 1 (0x1)  g' ]! \9 r% H: h
  12.      Format : AVC  n" F% D4 G, A0 s6 ~% W
  13.      Format/Info : Advanced Video Codec
    0 q. |, U" G5 A' j9 m8 g3 O  a  c
  14.      Format profile : [email protected]
    0 c9 h( d* B' T1 X2 S9 e$ @6 Q
  15.      Format settings, CABAC : Yes
    % K& w7 R  W. \4 I5 e
  16.      Format settings, ReFrames : 4 frames1 f- I$ f+ m; j) a/ @7 r
  17.      Format settings, GOP : M=8, N=24
    2 F0 T) H/ ^9 z7 A. y* G
  18.      Codec ID : 271 v' ?' w* [% q
  19.      Duration : 52mn 41s* G: C: A0 r# J: t9 f7 q9 i' Z' j
  20.      Bit rate : 6 383 Kbps8 C+ N! k" C1 a# r
  21.      Width : 1 920 pixels) L: i) W2 ]& v* z2 t. M
  22.      Height : 1 080 pixels& E! e9 Z9 V& E
  23.      Display aspect ratio : 16:9) R0 S. U! F! K  c
  24.      Frame rate : 25.000 fps
    5 G6 f0 d3 @+ w$ D/ c; e
  25.      Color space : YUV
    & S- V+ E: b: T. \
  26.      Chroma subsampling : 4:2:0
    % h  f" p, Z+ B3 R  m
  27.      Bit depth : 8 bits, d( r" l4 L) w- O" N5 j
  28.      Scan type : MBAFF5 d# f3 x3 B! p7 o
  29.      Bits/(Pixel*Frame) : 0.1232 n  x: d& n4 Z+ h0 `- w
  30.      Stream size : 2.35 GiB (91%)
    3 |# q, Z8 `$ f# Z3 j3 w' z
  31.      Color primaries : BT.709-5, BT.1361, IEC 61966-2-4, SMPTE RP177
    9 m; X- q1 T' y
  32.      Transfer characteristics : BT.709-5, BT.1361
      h5 U' U( ^9 R* X$ ~1 z6 t, q
  33.      Matrix coefficients : BT.709-5, BT.1361, IEC 61966-2-4 709, SMPTE RP177
    8 i( ]) n5 o; H" D
  34.   Audio #332
    6 g5 A( j+ A' y
  35.      ID : 332 (0x14C)* C( g/ J0 a! o* P5 ^; z
  36.      Menu ID : 1 (0x1)1 `0 W7 s' ~9 |1 N
  37.      Format : AC-3
    ! _$ q$ |5 T9 @2 }; Y
  38.      Format/Info : Audio Coding 3# G- ?$ O8 h: L* `5 t; A6 V, O" B* Q
  39.      Mode extension : CM (complete main)7 y% P' T& E$ n3 ]; Y, t
  40.      Codec ID : 6
    % S  h5 M9 V# G
  41.      Duration : 52mn 41s
    ; `6 A9 {$ o2 |; ]8 G
  42.      Bit rate mode : Constant! r2 k* G+ r' ?" @" b5 e
  43.      Bit rate : 128 Kbps1 g3 \7 {4 L  g/ ?
  44.      Channel(s) : 2 channels- ^$ o- o9 v$ J5 i6 K4 c
  45.      Channel positions : Front: L R
    $ m- q% m9 i: n' j- J0 H
  46.      Sampling rate : 48.0 KHz
    1 f# U% o, ^0 t  K
  47.      Bit depth : 16 bits
    & ?; c. p2 M7 n) b
  48.      Compression mode : Lossy
    ) v2 z. `* Y" l- h) L
  49.      Stream size : 48.2 MiB (2%)
    * w( m* T2 q( S! ~
  50.      Language : English5 y! }3 r9 Y+ S, H! L) L2 i
  51.   Audio #333" q) r0 [$ I7 O* _
  52.      ID : 333 (0x14D)
    ; R2 L( j2 j" K0 U! z) ^
  53.      Menu ID : 1 (0x1)
    / S+ j* U( K7 a, I8 g6 ?: O1 I; n6 `
  54.      Format : AC-3
    3 |; L( w& ^7 }; m2 [
  55.      Format/Info : Audio Coding 3
    ( D& r. O3 I5 a+ c3 m! t: {9 a+ M1 Q+ c
  56.      Mode extension : CM (complete main)
    / E$ j; t9 g% b
  57.      Codec ID : 6! I+ N1 d+ O- }! S1 T
  58.      Duration : 52mn 41s1 F  d6 Z$ R: J! {& K: F
  59.      Bit rate mode : Constant+ F+ J1 e, e. S4 I. @2 `9 ?
  60.      Bit rate : 128 Kbps
    2 A( n7 c. W1 S
  61.      Channel(s) : 2 channels4 B" e3 Z. M! h( R7 p" t
  62.      Channel positions : Front: L R
    3 s& A7 E( g7 R' K, Q- }  b' d1 J- S
  63.      Sampling rate : 48.0 KHz
    ; }, b' X7 s- ]+ q4 c
  64.      Bit depth : 16 bits5 x0 M- _5 Q, L0 |9 G$ E
  65.      Compression mode : Lossy/ W4 R' Y( m0 K2 S# l1 Z
  66.      Stream size : 48.2 MiB (2%)
    ; B5 i  c2 Q- Q3 u" g2 h% T9 D0 R) q! ^
  67.      Language : English
复制代码

  j) ]1 P* l6 ?$ s/ E; k* ^7 `
5 e5 J  J; Q2 `5 ?
                               
登录/注册后可看大图

. n" q. v: I! B
# Z6 Z4 v$ Z8 T  r4 Y# r* l

9 y* e& n' H/ p. M* d                               
登录/注册后可看大图
( ]- n, K( }5 B4 F

7 v- |; C% e6 U3 ~5 ^8 `

& X* Y& I8 {4 T8 z7 d6 J# N                               
登录/注册后可看大图

% y. I) t; `1 K) }" Q
  s" r! ^; V  W
! T: E# N6 U# [6 l- x5 ?  t
                               
登录/注册后可看大图

, f( Q; U2 q1 `- l7 F
' g8 K6 ~* ?6 _% w9 _8 W' L

  i) q6 n7 i: m' J$ A  q                               
登录/注册后可看大图

9 V* C7 R& T' S& l$ V- E
% K& I' q. _6 x& Q  r- k【下载地址】+ k  S, E6 c( l3 J( t
) ]2 X# N7 d/ a0 w
游客,如果您要查看本帖隐藏内容请回复  捐助论坛可免回复查看隐藏内容详情请点击
最近访问 头像模式 列表模式
HD一条街,身边的一条街。
ndopmc9 该用户已被删除
发表于 2014-3-29 19:42:48 | 显示全部楼层
提示: 作者被禁止或删除 内容自动屏蔽
HD一条街,身边的一条街。
雅蓉 该用户已被删除
发表于 2014-3-29 21:52:37 | 显示全部楼层
提示: 作者被禁止或删除 内容自动屏蔽
HD一条街,身边的一条街。
luofuzu 该用户已被删除
发表于 2014-3-30 08:30:54 | 显示全部楼层
提示: 作者被禁止或删除 内容自动屏蔽
HD一条街,身边的一条街。
fjgirl 该用户已被删除
发表于 2014-3-30 18:11:23 | 显示全部楼层
提示: 作者被禁止或删除 内容自动屏蔽
HD一条街,身边的一条街。
你问我是谁 该用户已被删除
发表于 2014-3-30 18:30:04 | 显示全部楼层
提示: 作者被禁止或删除 内容自动屏蔽
HD一条街,身边的一条街。
的十五万i 该用户已被删除
发表于 2014-4-5 19:28:36 | 显示全部楼层
提示: 作者被禁止或删除 内容自动屏蔽
HD一条街,身边的一条街。
服务大声地 该用户已被删除
发表于 2014-4-5 19:35:08 | 显示全部楼层
提示: 作者被禁止或删除 内容自动屏蔽
HD一条街,身边的一条街。
发表于 2014-4-5 19:54:39 | 显示全部楼层
为了维护HD一条街的和平,我必须打满这些字,拒绝灌水,拒绝广告,争做论坛良好公民!
HD一条街,身边的一条街。
发表于 2014-4-11 17:58:04 | 显示全部楼层
VERY VERY GOOD!
HD一条街,身边的一条街。
您需要登录后才可以回帖 登录 | 立即注册

本版积分规则

手机版|小黑屋|有问题发邮件到admin#(换成@)hd1tj.org|微博|免责申明|HD一条街

GMT+8, 2016-12-9 21:27

Powered by Discuz! X3.1

© 2001-2013 Comsenz Inc.

快速回复 返回顶部 返回列表