开启辅助访问 切换到窄版

HD一条街论坛

 找回密码
 加入我们
查看: 711|回复: 25

[港台] RTHK31 巡遊大世界/地球最后的净土 第10集[完] 粤、英双语 繁体硬字幕 Somewhere On Earth 2010.Pack.HDTV.1080i.H264.AC3-tbw 3.14G

[复制链接]
发表于 2014-3-24 13:00:08 | 显示全部楼层 |阅读模式
本帖最后由 让心灵去旅行 于 2014-3-24 19:45 编辑 6 g* o# C$ f5 W2 ~0 P" ~

  _- W" ?; ?( O- z; t
2 J. v8 n; v3 d
                               
登录/注册后可看大图
+ L/ u1 J" P* c  A# [6 F1 y
/ H! L0 M0 X' n: g$ q
. |# c, o+ S! [: ]3 V9 D
简介
, i2 w) D$ E: g$ n* e导演: Dominique PIPAT
( }' A8 _" W* B6 E: n$ x3 H类型: 纪录片+ r. E6 n) i: A; a. b. U5 E
官方网站: www.patlyproductions.com/
) j8 L' F0 t" t  j/ Z制片国家/地区: 法国
8 C3 q2 x+ a- i' L! g/ M! ~语言: 英语) z4 G8 Z: k/ Q  ^/ d
集数: 10
2 G5 V! S- H) T( V' f单集片长: 52分钟8 _6 t- G8 m' Z9 o' e
播出信息:港台电视31台(RTHK31)2014年1月16日起星期四晚上8时30分(首播)( t9 n9 J3 l! c' i  S: V: w
星期五凌晨0时30分(重温)
% V* b. o* U: |# m5 c# O6 Y7 j9 b: S0 _0 {& [
第1集  密克罗尼西亚Micronesia
! o5 o/ C" M4 Y0 g第2集  哥斯达黎加Costa Rica - q$ m! y" V7 V5 B6 w
第3集  阿拉斯加Alaska
, D3 x4 o$ A' ?. J: C4 [第4集  坦桑尼亚Tanzania
! |& V! S; m5 x( A7 G第5集  新西兰New Zealand
& v  \& j2 g7 X% D6 N第6集  澳洲Australia http://www.hd4fans.org/details.php?id=2404&hit=1# F2 M/ a! d+ @" s
第7集  马达加斯加Madagascar http://www.hd4fans.org/details.php?id=2624&hit=17 D  Z8 \; p  d& R5 F
第8集  埃及Egypt7 Y1 J9 w5 r4 C9 X
第9集  摩洛哥Morocco
$ g+ o) F- i# j第10集 巴塔哥尼亚Patagonia
1 ?) K. S* c* H" \) o; s
3 i: Q4 z& N0 `( [& A. F   人类一向渴求寻找自己的根源。虽然可以征服的土地稀少,但总有值得我们探索的国度,接触的人们和他们的生活点滴。8 o1 _3 k) E( B9 U4 W6 [
& z( z8 x5 `, x/ O3 w
   《巡游大世界》给我们带来了永恒和美丽的地方。在那些人迹罕至的地方,男女老幼的日常生活并没有跟随时间的巨轮转动,他们依照定律与大自然和谐共处。
' N5 ]5 |8 b/ a1 X# t" i7 J: X9 u$ g$ l: U3 B
   每一格光影都是住在这些世外桃源的居民的真实写照。由他们作为导游,邀请我们用摄影机分享他们的世界。他们的故事,他们的日常生活与回忆均是影片内最珍贵的珠宝。每集围绕着三位居住在三个壮丽的地方的人,分享他们充满激情的大世界。  
8 [( n$ l( n% }9 }. \8 p$ [% P9 L) t8 L% {+ U7 ?
  Somewhere on Earth is a series of documentary films whose aim is to shine the spotlight on some of the few places on earth where nature and man exist in harmony. 7 c+ j! w; i( X3 {" c7 ~
  地球最后的净土是一系列纪录片,其目的是聚焦地球上少数一些人和自然和谐相处的地方。
  1. J:\巡游大世界Somewhere On Earth.HDTV.1080i.H264.AC3-tbw\巡游大世界Somewhere On Earth.HDTV.1080i.H264.AC3.EP01-tbw.ts# L9 f( y, {/ O9 Q: |  z
  2.   General #1
    4 |  B8 u0 e9 L+ m3 V5 k! v, {
  3.      ID : 1 (0x1)& W& U* M* e( w5 _
  4.      Complete name : J:\巡游大世界Somewhere On Earth.HDTV.1080i.H264.AC3-tbw\巡游大世界Somewhere On Earth.HDTV.1080i.H264.AC3.EP01-tbw.ts1 O1 `6 f2 Y' v5 [5 D1 X
  5.      Format : MPEG-TS/ r$ X& G3 f0 z
  6.      File size : 3.09 GiB
    % j! y; ?" T7 g  W2 M
  7.      Duration : 51mn 58s
    4 F! F) t, o. J1 e* V
  8.      Overall bit rate : 8 514 Kbps
    ) ~# b' ]3 v# B7 `8 s
  9.   Video #311, E0 D  p+ z9 N
  10.      ID : 311 (0x137). Y7 g0 U+ Y. Y# @( l% j# v
  11.      Menu ID : 1 (0x1)- y5 v  y8 M' B: |' ]: h
  12.      Format : AVC$ K. v+ k9 ]4 V
  13.      Format/Info : Advanced Video Codec
    # F1 b, x  _+ b  D4 X& Q/ E4 ~
  14.      Format profile : [email protected]
    # f; T- b9 J. @8 p
  15.      Format settings, CABAC : Yes
    / ^3 p4 R$ d: s3 |( _- k
  16.      Format settings, ReFrames : 4 frames1 p% v" t8 e5 k* T3 h6 W
  17.      Codec ID : 279 O0 ~9 A$ _' X) m6 C$ N( Q
  18.      Duration : 51mn 59s& w  r# f% a- o8 ]; h
  19.      Bit rate : 7 834 Kbps( J) [' B& v6 W8 w
  20.      Width : 1 920 pixels2 j6 `& I( b) r6 }
  21.      Height : 1 080 pixels) J  M& t# `: I# f" O2 K( C
  22.      Display aspect ratio : 16:9! H: s$ J. ?/ B4 k4 w
  23.      Frame rate : 25.000 fps0 v( p. a* p" P
  24.      Color space : YUV
    3 }: y7 Z; i  k
  25.      Chroma subsampling : 4:2:0
    7 X4 @/ u3 Z# ~5 r9 Q
  26.      Bit depth : 8 bits
    5 M, k6 ^6 S5 j' V* u& N
  27.      Scan type : MBAFF9 G' t5 f1 O; K$ c/ ~7 s
  28.      Scan order : Top Field First
    + L! M* q$ N$ H( J- O+ o! w& Y
  29.      Bits/(Pixel*Frame) : 0.1511 y& ~, R+ f6 [
  30.      Stream size : 2.84 GiB (92%)) M6 t/ X5 }+ P( Q, I
  31.      Color primaries : BT.709-5, BT.1361, IEC 61966-2-4, SMPTE RP177- r" L( z" ~4 K. D$ i
  32.      Transfer characteristics : BT.709-5, BT.1361
    ' e5 t3 A0 r5 N$ N$ d0 M
  33.      Matrix coefficients : BT.709-5, BT.1361, IEC 61966-2-4 709, SMPTE RP177$ s  e4 d8 h% V( k5 v6 G2 V, l. y
  34.   Audio #312$ W/ n, Y, I% L5 Z$ I
  35.      ID : 312 (0x138)
    $ P; x6 S, \4 y" v. D5 |/ m
  36.      Menu ID : 1 (0x1)
    # A3 L4 v. y  l$ o" `+ {% O& o
  37.      Format : AC-3
    8 h& F3 O# k* v$ D6 O6 e0 u$ h
  38.      Format/Info : Audio Coding 3( _/ ]% h! z6 b* `0 S# k3 X( }
  39.      Mode extension : CM (complete main)% ]0 D" Z* |6 a- V
  40.      Codec ID : 6
    " @3 [& M5 k7 A2 l2 h
  41.      Duration : 51mn 59s
    ) I: o. ~' E7 l
  42.      Bit rate mode : Constant
    ( h  f9 k0 B4 D: O, k; D; Z
  43.      Bit rate : 128 Kbps% F0 X' m. R$ [4 u: @3 d
  44.      Channel(s) : 2 channels# w; h/ m+ F7 d" A9 L
  45.      Channel positions : Front: L R
    , w# b2 P+ d: x( o0 v3 @7 C1 }
  46.      Sampling rate : 48.0 KHz
    ! v( z4 O$ ^) M- p
  47.      Bit depth : 16 bits
    * O/ c+ P4 [+ w) G( A) f* Y% l
  48.      Compression mode : Lossy
    * y* V* |) q. y2 @& t
  49.      Stream size : 47.6 MiB (2%)
    " h! u$ i: U- h( [5 j% a* c/ ~
  50.      Language : English
    0 b( D7 C# O+ {2 }; k/ ^7 i
  51.   Audio #313# o1 d4 X% C, N8 _, C) K* ^; A" B3 v
  52.      ID : 313 (0x139)$ M. U8 z" H# J$ R( W- j. O
  53.      Menu ID : 1 (0x1)7 E: E& }  ]& i, f8 h
  54.      Format : AC-3- \4 Y; E. m( k9 t8 V
  55.      Format/Info : Audio Coding 3
    3 T- W' J! Y; L; N; m' N
  56.      Mode extension : CM (complete main)
    . J; v$ b4 X# a: X  ]! X
  57.      Codec ID : 6
    0 Z8 u; e- l7 O; h/ z% t3 B0 Y
  58.      Duration : 51mn 58s
    + S! z5 ]' Q( O) d  D: M
  59.      Bit rate mode : Constant
      m* V* T/ l) q! Y0 b
  60.      Bit rate : 128 Kbps9 M. K2 Z. H. A  w5 x+ {
  61.      Channel(s) : 2 channels) U% J' a6 P6 T( I. P9 R) |7 @
  62.      Channel positions : Front: L R
    $ ?! f0 t6 B, g% u" p6 Y
  63.      Sampling rate : 48.0 KHz
    + P% F9 S* ?! v* i. l- t# _5 H
  64.      Bit depth : 16 bits' T4 Z- W* A$ n
  65.      Compression mode : Lossy! r7 ~5 p: o  ]6 |( w
  66.      Stream size : 47.6 MiB (2%)
    8 Z; {: Y" M+ F- {6 `9 E2 |5 a
  67.      Language : English
复制代码
! j6 H  ~/ ]0 O  h
& w) U8 ?0 o0 o% Q% L! Z
                               
登录/注册后可看大图

( M+ I5 e( ^1 U* y1 E: O9 V# S! q7 s' k" g6 M, _
% j& o; j# p5 ~
                               
登录/注册后可看大图

. [, ?# t2 W0 J: w1 V! H3 @# E: o9 ?- O% c

6 d- U. `( R# o) d8 x) K  n8 ^                               
登录/注册后可看大图
" N* \# L" g, U& Q4 [

- t3 ^& D& P1 ]& D6 C) x6 Z
4 y& f5 X+ J+ J$ B
                               
登录/注册后可看大图
+ n9 l1 K. z( J8 I. I' W2 ^! A/ T

! V! _% v$ Z, ]: o
3 S  I$ a3 c0 L# u, W- D0 G1 i
                               
登录/注册后可看大图
( e) o  e5 `8 ]$ A4 }; Y$ x- H
: W. s, \" q2 e9 F) q9 ^

1 Z' E2 }' `+ h+ X1 @# n" }                               
登录/注册后可看大图

9 s6 T% q) H8 C2 w
: p+ Z; _5 h3 a
; T, D" ^8 F1 h( V. Z  L
                               
登录/注册后可看大图
3 H1 s8 Y( d" a1 b% f$ e' y( Y4 T) M
% b3 a8 h' a- ~1 h, |9 |
5 Y; V* c. y: `9 _
                               
登录/注册后可看大图

7 q! s6 z9 t& `& b) G
2 N8 K  U# Y. s8 T% q

$ J8 n3 A# Z' ~% ~9 K7 i- |                               
登录/注册后可看大图
; O$ [, x/ \) i$ N- F9 y7 e

2 W  t- c& ~8 w! R4 @

/ \/ j: F: ~4 x: N& z' A- k                               
登录/注册后可看大图

9 M- k- K; Z, v3 j9 ^" d+ X) D# Z- e( M, r  R0 F" G9 r* B4 t
【下载地址】/ N. C/ q- C5 c

8 S& W5 @7 W- i" f" t7 |$ K. S
游客,如果您要查看本帖隐藏内容请回复  捐助论坛可免回复查看隐藏内容 详情请点击
最近访问 头像模式 列表模式
HD一条街,身边的一条街。
djggs66 该用户已被删除
发表于 2014-3-24 13:07:43 | 显示全部楼层
提示: 作者被禁止或删除 内容自动屏蔽
HD一条街,身边的一条街。
发表于 2014-3-24 13:33:34 | 显示全部楼层
提示: 作者被禁止或删除 内容自动屏蔽
HD一条街,身边的一条街。
发表于 2014-3-24 13:42:32 | 显示全部楼层
终于等全了!谢谢楼主!
HD一条街,身边的一条街。
发表于 2014-3-24 13:43:03 | 显示全部楼层
终于等全了!谢谢楼主!
HD一条街,身边的一条街。
发表于 2014-3-24 14:35:54 | 显示全部楼层
分享高清资源,就来HD一条街!
HD一条街,身边的一条街。
xsk 该用户已被删除
发表于 2014-3-24 17:39:41 | 显示全部楼层
提示: 作者被禁止或删除 内容自动屏蔽
HD一条街,身边的一条街。
ele_hoe0612 该用户已被删除
发表于 2014-3-24 19:18:54 | 显示全部楼层
提示: 作者被禁止或删除 内容自动屏蔽
HD一条街,身边的一条街。
发表于 2014-3-25 11:19:57 | 显示全部楼层
回复看看,谢谢楼主分享
HD一条街,身边的一条街。
您需要登录后才可以回帖 登录 | 加入我们

本版积分规则

手机版|小黑屋|有问题发邮件到admin#(换成@)hd1tj.org|微博|免责申明|HD一条街

GMT+8, 2017-1-20 05:21

Powered by Discuz! X3.1

© 2001-2013 Comsenz Inc.

快速回复 返回顶部 返回列表