开启辅助访问 切换到窄版

HD一条街论坛

 找回密码
 立即注册
查看: 665|回复: 25

[港台] RTHK31 巡遊大世界/地球最后的净土 第10集[完] 粤、英双语 繁体硬字幕 Somewhere On Earth 2010.Pack.HDTV.1080i.H264.AC3-tbw 3.14G

[复制链接]
发表于 2014-3-24 13:00:08 | 显示全部楼层 |阅读模式
本帖最后由 让心灵去旅行 于 2014-3-24 19:45 编辑
% R8 Z1 o8 m% t: S" ^! [
4 E( e8 @. t. }8 ~
. }  w! a3 R2 N" r+ l7 m$ q
                               
登录/注册后可看大图

' k1 W9 M  X% g  Q" e3 V. b3 K" k. A8 W5 D

# \& [& v; \, z5 T+ w9 ^$ B$ R" Q; v7 w简介
; x; Z* R& d7 H4 J# \导演: Dominique PIPAT  M# y4 W# g8 R5 d; r$ S1 |: m5 T
类型: 纪录片0 L5 Z  v8 K/ H8 {6 M# z( e& K
官方网站: www.patlyproductions.com/9 R) A6 g& b6 T( m
制片国家/地区: 法国
( N" E+ b" X1 N) m* I3 U语言: 英语! _( J- ]( w3 \0 Q
集数: 10
- g3 ~. |9 M" j$ ]; R单集片长: 52分钟) K! }$ g  i- ~8 Y! g0 o
播出信息:港台电视31台(RTHK31)2014年1月16日起星期四晚上8时30分(首播)5 e8 h, Y2 f% V) W
星期五凌晨0时30分(重温)9 I; g" H4 C" w/ n

  v2 s" q9 Y9 ~+ a第1集  密克罗尼西亚Micronesia
: S# G3 c- [' o, n+ @8 b第2集  哥斯达黎加Costa Rica
2 H! x; k$ o# m/ o: U& k第3集  阿拉斯加Alaska
7 Z- |$ g. \2 Y" O第4集  坦桑尼亚Tanzania4 A' ?1 i, t/ l$ J; C
第5集  新西兰New Zealand
6 Z& R/ q; H7 V) y第6集  澳洲Australia http://www.hd4fans.org/details.php?id=2404&hit=1
% S. F& p" h* ~& W第7集  马达加斯加Madagascar http://www.hd4fans.org/details.php?id=2624&hit=1  v' @# E5 w; j% \' O. ^7 S3 `
第8集  埃及Egypt2 e0 ?: F- D; n5 m1 W
第9集  摩洛哥Morocco 0 _0 j, c4 H2 e3 I7 W
第10集 巴塔哥尼亚Patagonia
1 @8 g/ o: D; H$ R  l% l: R. }  l: u+ E
   人类一向渴求寻找自己的根源。虽然可以征服的土地稀少,但总有值得我们探索的国度,接触的人们和他们的生活点滴。
9 p0 @& ^/ U5 ^  m9 I! t; C5 R2 Y; n7 g% Y4 |
   《巡游大世界》给我们带来了永恒和美丽的地方。在那些人迹罕至的地方,男女老幼的日常生活并没有跟随时间的巨轮转动,他们依照定律与大自然和谐共处。
) S# P& M7 y# ^/ m6 \' M' C$ k: C( D; L+ D
( h: E; j& P. }1 z& W8 C   每一格光影都是住在这些世外桃源的居民的真实写照。由他们作为导游,邀请我们用摄影机分享他们的世界。他们的故事,他们的日常生活与回忆均是影片内最珍贵的珠宝。每集围绕着三位居住在三个壮丽的地方的人,分享他们充满激情的大世界。  
; T( F5 b# E6 ~. ^0 a1 l# n+ V5 {5 j, s& z4 D/ m" ^8 H
  Somewhere on Earth is a series of documentary films whose aim is to shine the spotlight on some of the few places on earth where nature and man exist in harmony.
+ h# t# g% J# {7 F( O7 f" M  地球最后的净土是一系列纪录片,其目的是聚焦地球上少数一些人和自然和谐相处的地方。
  1. J:\巡游大世界Somewhere On Earth.HDTV.1080i.H264.AC3-tbw\巡游大世界Somewhere On Earth.HDTV.1080i.H264.AC3.EP01-tbw.ts
    3 s, p' J; T* @/ I9 v
  2.   General #1
    7 T/ U! y9 d; m. V& [+ e
  3.      ID : 1 (0x1)
    . N9 W/ ^  B4 s, T
  4.      Complete name : J:\巡游大世界Somewhere On Earth.HDTV.1080i.H264.AC3-tbw\巡游大世界Somewhere On Earth.HDTV.1080i.H264.AC3.EP01-tbw.ts
    . n2 V* C. n( }  }
  5.      Format : MPEG-TS
      F( W$ J+ b" {- q7 p
  6.      File size : 3.09 GiB; {0 r8 b# C- [' f3 M: v; z- a
  7.      Duration : 51mn 58s/ B4 A* O2 u5 G" f
  8.      Overall bit rate : 8 514 Kbps
    0 Z; N$ L+ i, T3 P
  9.   Video #3114 d7 ~1 j( q- X; z) O
  10.      ID : 311 (0x137)
    ; N1 G6 A  T& H8 C, q- G
  11.      Menu ID : 1 (0x1)
    0 g, y0 l0 v  L7 h
  12.      Format : AVC
    6 R5 U( P2 }$ ~( o$ v; n; N
  13.      Format/Info : Advanced Video Codec$ Y. {  _; v* O: I7 ]
  14.      Format profile : [email protected]
    ' Z' p9 w+ e5 ^) {+ c# h
  15.      Format settings, CABAC : Yes6 ?" N7 }3 Y* W" t7 t3 F
  16.      Format settings, ReFrames : 4 frames# V6 N5 }1 s- k# e
  17.      Codec ID : 27
    ' b1 ~! R. y$ |6 S
  18.      Duration : 51mn 59s
    # e( a, s$ U. Y9 y4 ^' E8 R
  19.      Bit rate : 7 834 Kbps+ Z* q0 O1 l. c7 E: T5 ~6 F
  20.      Width : 1 920 pixels
    3 ~; ^' z7 \! J4 ~- H4 Z/ U8 d
  21.      Height : 1 080 pixels
    - A- P1 k( _0 h! I" C
  22.      Display aspect ratio : 16:95 ^# E5 [7 X. `" l6 u8 {1 g( Z! O
  23.      Frame rate : 25.000 fps
    + t  G% U. d4 ?/ o4 Z
  24.      Color space : YUV
    3 q) P! L8 e  \2 \& S
  25.      Chroma subsampling : 4:2:0
    % }" ~8 P0 k, S) g: m  `* B
  26.      Bit depth : 8 bits/ v. f& \* P0 Q9 ~) _" m3 C
  27.      Scan type : MBAFF( M/ ?5 t- v9 H& f
  28.      Scan order : Top Field First
    7 d6 M  L5 u( |
  29.      Bits/(Pixel*Frame) : 0.151  r3 b9 B- H- \
  30.      Stream size : 2.84 GiB (92%)
    0 f  P8 h2 ]1 V! `
  31.      Color primaries : BT.709-5, BT.1361, IEC 61966-2-4, SMPTE RP177+ f: j5 C( O8 ]
  32.      Transfer characteristics : BT.709-5, BT.13610 ^4 o6 _$ W1 F/ w; v$ }
  33.      Matrix coefficients : BT.709-5, BT.1361, IEC 61966-2-4 709, SMPTE RP177" v) K  r! J4 _" j1 J
  34.   Audio #312
    ) x. k' M& i1 F9 u
  35.      ID : 312 (0x138)
    8 ]; A- J+ ^6 d9 K, h
  36.      Menu ID : 1 (0x1)
    0 X/ I$ Q0 m" p8 R6 B2 W" K# j: E
  37.      Format : AC-3* p: A7 y  @/ f
  38.      Format/Info : Audio Coding 3
    & f8 u- v# `- X2 F' v/ L
  39.      Mode extension : CM (complete main)
    + d0 n& x  g* G& P, A6 J
  40.      Codec ID : 6
    1 v9 ]! W7 _1 j6 P  I, Y9 h
  41.      Duration : 51mn 59s
    , F( i  n, r3 k: [+ t; }; ]! n
  42.      Bit rate mode : Constant
    % b/ H, C  c$ I
  43.      Bit rate : 128 Kbps6 O' z  J( r4 Q4 y
  44.      Channel(s) : 2 channels! B6 Y5 }( P# W/ H
  45.      Channel positions : Front: L R
    & J( J* m; o$ I
  46.      Sampling rate : 48.0 KHz8 @& \& l+ K  O! n
  47.      Bit depth : 16 bits  ^$ M  F, c/ |8 n% |! R: S
  48.      Compression mode : Lossy" q7 I6 [( B5 T5 Y" @9 k
  49.      Stream size : 47.6 MiB (2%)
    & w- v3 N/ ?& h/ g* G; k. ]
  50.      Language : English. W2 _9 P3 u$ D9 @+ t
  51.   Audio #3139 L) m) C0 L, Z0 v; B2 q, O! T$ {
  52.      ID : 313 (0x139)$ {+ |2 l" O5 Y" U% j% B# G
  53.      Menu ID : 1 (0x1)
    : I' ]' m# L  N
  54.      Format : AC-3- N  }, a1 I5 h2 O
  55.      Format/Info : Audio Coding 3: F% N' l! p/ N1 {- L4 w$ d
  56.      Mode extension : CM (complete main)
    1 s' C" V( E' H" Q/ v
  57.      Codec ID : 6; l8 Z# r( A) {9 i5 i7 F
  58.      Duration : 51mn 58s
    5 H" W- o1 @, u: ^1 Y# S: i
  59.      Bit rate mode : Constant
    " S0 W* Q+ v7 |$ N) n
  60.      Bit rate : 128 Kbps
    8 }% ?% p( m: X6 B  \) W
  61.      Channel(s) : 2 channels0 t1 b+ |  P& i) J, t
  62.      Channel positions : Front: L R
    # I4 |/ {8 Z; J# X# k! z  L
  63.      Sampling rate : 48.0 KHz' M/ Y$ @4 H. d3 F. Q$ w2 J# j
  64.      Bit depth : 16 bits  u, C) D* I9 v
  65.      Compression mode : Lossy
    0 _" C- g6 L  D$ L
  66.      Stream size : 47.6 MiB (2%)  p8 ~4 H, {/ Y
  67.      Language : English
复制代码

3 B4 A# ?& c, b3 \' t/ z: L+ l

! F# A7 h7 Z* ~5 [                               
登录/注册后可看大图
" W0 Q; r/ f; m  {1 p

" g/ _# Q: d2 n7 }8 S

6 m& f' K' \/ h% y4 c                               
登录/注册后可看大图
7 K6 c# |& x+ Y3 J' A) L
1 r4 k* r- U, Y9 {. [9 A

! w/ \2 ~- w  ~; O2 d3 k' t                               
登录/注册后可看大图
' q# G# o, W: ~/ w% y1 c- w* X
+ y2 ?' w% _0 G. B$ Q2 {- O: P

4 A5 @" K# s& x; B0 e                               
登录/注册后可看大图

* z; u5 L- b# }3 J% X' v9 C$ u" E4 ?$ g: N! P' q, a% U1 D
- t) b, `! u9 m2 r! k4 K: q
                               
登录/注册后可看大图

1 o7 j* p( X2 @7 C* e
  c) M) ^. [6 y: B" B: V$ E5 q5 M7 l

, ^* H% L2 I2 p/ W- C6 I                               
登录/注册后可看大图
& V# Y# O$ N  G0 s6 C
% m0 D* G* p' v, ^0 M3 K2 R0 N

) h8 |, |. l; ^& @                               
登录/注册后可看大图

6 V( e  j% E% i8 J8 I2 B9 ]4 l+ u
7 U/ {1 ~6 I+ L: ?' Q
$ y, K6 d: Y5 K3 V3 @
                               
登录/注册后可看大图
4 P2 d' i# l- ~" H. ]# a, @$ v* \

8 Q. J  J0 P+ f7 b& G5 v/ _
2 ~: w$ ?. O3 R. s  p
                               
登录/注册后可看大图
# k- t" d) f( \/ i2 {

, q- ?0 g4 {! x3 D! C

8 L3 S/ S) N9 H% H- w, M* R                               
登录/注册后可看大图
+ K! N+ B- g5 y& l: D: l

8 |- Z- H  k, E* s% z1 L5 \【下载地址】- ^% s  n2 }, V' d% @# s& J8 a

! l8 v& {/ p5 e$ b# p) a6 X
游客,如果您要查看本帖隐藏内容请回复  捐助论坛可免回复查看隐藏内容详情请点击
最近访问 头像模式 列表模式
HD一条街,身边的一条街。
djggs66 该用户已被删除
发表于 2014-3-24 13:07:43 | 显示全部楼层
提示: 作者被禁止或删除 内容自动屏蔽
HD一条街,身边的一条街。
发表于 2014-3-24 13:33:34 | 显示全部楼层
提示: 作者被禁止或删除 内容自动屏蔽
HD一条街,身边的一条街。
发表于 2014-3-24 13:42:32 | 显示全部楼层
终于等全了!谢谢楼主!
HD一条街,身边的一条街。
发表于 2014-3-24 13:43:03 | 显示全部楼层
终于等全了!谢谢楼主!
HD一条街,身边的一条街。
发表于 2014-3-24 14:35:54 | 显示全部楼层
分享高清资源,就来HD一条街!
HD一条街,身边的一条街。
xsk 该用户已被删除
发表于 2014-3-24 17:39:41 | 显示全部楼层
提示: 作者被禁止或删除 内容自动屏蔽
HD一条街,身边的一条街。
ele_hoe0612 该用户已被删除
发表于 2014-3-24 19:18:54 | 显示全部楼层
提示: 作者被禁止或删除 内容自动屏蔽
HD一条街,身边的一条街。
发表于 2014-3-25 11:19:57 | 显示全部楼层
回复看看,谢谢楼主分享
HD一条街,身边的一条街。
您需要登录后才可以回帖 登录 | 立即注册

本版积分规则

手机版|小黑屋|有问题发邮件到admin#(换成@)hd1tj.org|微博|免责申明|HD一条街

GMT+8, 2016-12-3 12:33

Powered by Discuz! X3.1

© 2001-2013 Comsenz Inc.

快速回复 返回顶部 返回列表