开启辅助访问 切换到窄版

HD一条街论坛

 找回密码
 立即注册
查看: 735|回复: 25

[港台] RTHK31 巡遊大世界/地球最后的净土 第10集[完] 粤、英双语 繁体硬字幕 Somewhere On Earth 2010.Pack.HDTV.1080i.H264.AC3-tbw 3.14G

[复制链接]
发表于 2014-3-24 13:00:08 | 显示全部楼层 |阅读模式
本帖最后由 让心灵去旅行 于 2014-3-24 19:45 编辑
9 w) I- m1 }. n: p) {$ Y$ V) C9 Q, n& g% {8 B

' e7 O! G: z( G                               
登录/注册后可看大图
; o1 V2 R0 }* X2 _
& a" c2 E4 L6 v/ \# V% _

# G" X6 b4 L! r/ p5 m$ [  L简介  V" x* }( R: E8 C
导演: Dominique PIPAT- h, Y7 D5 T) |8 K' ~8 M- {
类型: 纪录片* _! _" k2 ^9 G
官方网站: www.patlyproductions.com/# y1 x* d1 a9 z
制片国家/地区: 法国7 ]# ?% I  L  i( b9 f. j
语言: 英语
# ^4 G% E& F9 p集数: 10
: S6 H  d) w7 @/ e' x* i- [1 `单集片长: 52分钟2 G* I% u9 R! C. D0 P" \
播出信息:港台电视31台(RTHK31)2014年1月16日起星期四晚上8时30分(首播). |9 s- I+ a( C, U4 F. \$ H
星期五凌晨0时30分(重温)
4 i& z1 f" \& ?' _/ e# O$ y/ l' }. W4 L. \: G( Q! M0 `
第1集  密克罗尼西亚Micronesia% @% \# K% [# n5 b
第2集  哥斯达黎加Costa Rica ' E; J& g& D' K
第3集  阿拉斯加Alaska
/ z+ y- x; e& ^9 l! N第4集  坦桑尼亚Tanzania$ {. B! B' |& A2 Z$ N
第5集  新西兰New Zealand 1 y! h) i4 L( ]9 Q' b; W
第6集  澳洲Australia http://www.hd4fans.org/details.php?id=2404&hit=1
  ^7 Z" B5 `" f8 f第7集  马达加斯加Madagascar http://www.hd4fans.org/details.php?id=2624&hit=1
( E" e- K' z# [, F, }" |! B4 M第8集  埃及Egypt
; V6 {3 K/ N, x! u第9集  摩洛哥Morocco
4 }& @9 l9 V; P  p7 ^第10集 巴塔哥尼亚Patagonia + C& e' d& K/ j5 g' c7 z; T& Q

6 e, X8 M% p% D) _! N5 k2 k$ \   人类一向渴求寻找自己的根源。虽然可以征服的土地稀少,但总有值得我们探索的国度,接触的人们和他们的生活点滴。6 q6 U: k& Y- y( I# I5 ?) V
% _2 q0 b' `. v' W7 [, |0 ^
   《巡游大世界》给我们带来了永恒和美丽的地方。在那些人迹罕至的地方,男女老幼的日常生活并没有跟随时间的巨轮转动,他们依照定律与大自然和谐共处。
( c" s: [% K& G1 C  J" n# Y% F8 n
; B# A3 `; |9 I' B' u1 O. o, R/ o   每一格光影都是住在这些世外桃源的居民的真实写照。由他们作为导游,邀请我们用摄影机分享他们的世界。他们的故事,他们的日常生活与回忆均是影片内最珍贵的珠宝。每集围绕着三位居住在三个壮丽的地方的人,分享他们充满激情的大世界。  % e7 P3 O; r! p2 O) g8 T( E6 z
) b- [7 E2 |. b0 F7 ]: |/ _( e) d
  Somewhere on Earth is a series of documentary films whose aim is to shine the spotlight on some of the few places on earth where nature and man exist in harmony.
  T9 K; s- U2 U% y% N- d. k  地球最后的净土是一系列纪录片,其目的是聚焦地球上少数一些人和自然和谐相处的地方。
  1. J:\巡游大世界Somewhere On Earth.HDTV.1080i.H264.AC3-tbw\巡游大世界Somewhere On Earth.HDTV.1080i.H264.AC3.EP01-tbw.ts
    : n+ {+ C6 o6 d! C) @1 T
  2.   General #1% d7 Z4 W* Y' l+ s1 |
  3.      ID : 1 (0x1)
    / E4 Y7 Q: F; z
  4.      Complete name : J:\巡游大世界Somewhere On Earth.HDTV.1080i.H264.AC3-tbw\巡游大世界Somewhere On Earth.HDTV.1080i.H264.AC3.EP01-tbw.ts
    ; S1 Y8 p+ A8 A( Q) |" w
  5.      Format : MPEG-TS
    % `% v& Z6 P  ^2 l( {% `6 w) f
  6.      File size : 3.09 GiB: g6 N$ L9 P+ B
  7.      Duration : 51mn 58s3 b8 I" G' g( b0 }$ G: J9 _! a4 L
  8.      Overall bit rate : 8 514 Kbps
    / W4 Y! S+ |) V& b' v5 X# s2 }$ E% _
  9.   Video #311
    " k$ Y1 n* n1 E2 C8 R
  10.      ID : 311 (0x137)& R4 _* e# G9 y, Q4 ]
  11.      Menu ID : 1 (0x1)
    1 u! k, j* [) t1 Q1 s
  12.      Format : AVC* I  X  ~, ~4 ^
  13.      Format/Info : Advanced Video Codec, F4 N2 K) u8 c) N
  14.      Format profile : [email protected]
    3 C& @5 Q" p6 R3 h( A8 j6 \
  15.      Format settings, CABAC : Yes, X' V5 [: t7 f( `4 @! b' [
  16.      Format settings, ReFrames : 4 frames% \" q; I/ t7 H, z1 t6 `
  17.      Codec ID : 27
    , e3 @6 |' K0 x4 ]$ a
  18.      Duration : 51mn 59s" x5 \1 k- Q4 y6 ~# s" j$ A
  19.      Bit rate : 7 834 Kbps
    6 O5 {1 Z, U+ b% n8 K. {
  20.      Width : 1 920 pixels
    # C" }) x2 m' U9 N$ o
  21.      Height : 1 080 pixels
    $ f" a) C  d6 z0 F: H
  22.      Display aspect ratio : 16:94 Q. V$ @) v' G- Y. W1 R
  23.      Frame rate : 25.000 fps; R$ N/ m) d2 f& j
  24.      Color space : YUV
    # M9 I% T$ @& A+ O
  25.      Chroma subsampling : 4:2:0  H) [! ?1 q& H
  26.      Bit depth : 8 bits; x# y: v1 M; S6 E% x
  27.      Scan type : MBAFF
    , T  _& k4 w# d8 \$ W) g4 P0 t- @3 v
  28.      Scan order : Top Field First
    3 E! b6 K7 j2 D& s5 H* c; I; y4 z
  29.      Bits/(Pixel*Frame) : 0.151
    : _2 F; ?" p9 G8 B9 v# K$ |- D6 ?
  30.      Stream size : 2.84 GiB (92%)
    . k/ n, L: q+ I& u
  31.      Color primaries : BT.709-5, BT.1361, IEC 61966-2-4, SMPTE RP177
    8 i/ X1 u  S4 S/ O
  32.      Transfer characteristics : BT.709-5, BT.1361# B* k2 [. I$ Y# N9 v
  33.      Matrix coefficients : BT.709-5, BT.1361, IEC 61966-2-4 709, SMPTE RP177# ]3 r  S: L4 O
  34.   Audio #312( I* b% z8 l3 [; V/ t
  35.      ID : 312 (0x138)
    / M/ A' Z7 C* T4 E, ~! U
  36.      Menu ID : 1 (0x1)
    $ l+ ~- j8 v0 ^, @
  37.      Format : AC-3+ u- {, T* E2 l% q7 G! y4 D
  38.      Format/Info : Audio Coding 3
    3 J$ J1 |2 ]) x" x+ v! G+ Q
  39.      Mode extension : CM (complete main)' Y( Q2 M6 m$ Q& P+ {" @$ }
  40.      Codec ID : 6) ]7 f2 ~2 F; I: f( c) Q) ^
  41.      Duration : 51mn 59s. I5 M, Q+ b: R. C
  42.      Bit rate mode : Constant: Q% f" k. e+ j, e& H
  43.      Bit rate : 128 Kbps: Q( L- c: k) z* W
  44.      Channel(s) : 2 channels
    # [3 w' P+ W( L
  45.      Channel positions : Front: L R! c' D" ?  I" d3 L
  46.      Sampling rate : 48.0 KHz
    7 G# ~; z, J* j2 [
  47.      Bit depth : 16 bits
    " \8 |7 b% L% S3 e7 L  G5 x% m
  48.      Compression mode : Lossy9 z( g! R8 }8 U" x# E
  49.      Stream size : 47.6 MiB (2%)$ N1 Q5 O9 o5 R+ M5 s) {  d- n
  50.      Language : English
    5 ?) U( y6 g& j* e, ^
  51.   Audio #313
    - V. S# _& M6 n+ n9 a* j! H) D
  52.      ID : 313 (0x139)3 A# _9 \% f5 l% I
  53.      Menu ID : 1 (0x1)
    8 W/ l, Y5 k6 y- v" B0 \9 ^. X# m
  54.      Format : AC-3
    4 \; ~" b  T7 K
  55.      Format/Info : Audio Coding 3
    4 h  j( F9 M7 h5 I. t3 ?" a
  56.      Mode extension : CM (complete main)
    ; I& B. s6 W' d; R- d" s
  57.      Codec ID : 6
    , p3 D0 A1 a9 ?1 ]# |! S
  58.      Duration : 51mn 58s* u; x) C; q( D$ S7 E3 O
  59.      Bit rate mode : Constant
    ; l6 X3 Q0 D) F  Y, q
  60.      Bit rate : 128 Kbps
    7 [; X" \' B5 }- d
  61.      Channel(s) : 2 channels% ^3 V( l0 O$ B* a
  62.      Channel positions : Front: L R' w: B0 e6 z7 l1 ]
  63.      Sampling rate : 48.0 KHz
    5 [, l# }$ v0 n+ Y
  64.      Bit depth : 16 bits8 ]+ v" |! k* k
  65.      Compression mode : Lossy9 A5 _" g: g7 _+ u1 K5 \
  66.      Stream size : 47.6 MiB (2%)
    6 V5 C4 m' P, Q4 ?3 Z0 q' ^9 z0 n9 l
  67.      Language : English
复制代码
( q# ~* o& d$ I( s; n% ?& I

- D& a, F. u0 v. t- [                               
登录/注册后可看大图

9 {" A! o; N$ r
; o( P* j' ^& D' L. m, N

1 ~1 }% i1 p4 f' K8 [                               
登录/注册后可看大图
. |4 K; @$ Y6 x6 r. c$ w5 E. Y
" S6 Z: M9 f% R& h1 K1 W- Q8 t- j

4 J+ J; Y0 E& [, `( X                               
登录/注册后可看大图

5 q: A+ T- Q  a. a* U2 D+ d) i1 F4 b! l6 d& z& P! W2 m
8 B- w1 E5 P" z4 Q1 {% M: K' k
                               
登录/注册后可看大图

& R! q9 E- r( E1 Y" F# ]/ k% u" W9 N  h, u% W  N; C; ^4 F1 Z3 C
  |7 s; C  [; f2 J/ `, e2 K  u
                               
登录/注册后可看大图

7 s: K" |3 V* b( L" h  Q! ~& b% b# a& U3 \
7 x; D7 C: {* w3 r4 M
                               
登录/注册后可看大图
$ t: a- C8 C+ u
, Z9 ]# @- h/ t& P9 a

- A- ^. }! k" f3 u- W% e& B; G" \                               
登录/注册后可看大图

2 f8 g0 e% i2 \% h7 H8 q, \# r  @$ B1 _; P% _) e5 z  F- [
6 E* Y5 ?, }# K/ x' g+ f
                               
登录/注册后可看大图

  A) L! V3 L' n, N* V$ M, r1 e
; u9 L9 I) Q+ I" t" x7 N& J
7 _6 v5 X0 @4 c; W5 I  I. m& c
                               
登录/注册后可看大图

, ]7 J8 o8 L9 B+ v
1 E) e( h% E6 L, {/ m

4 F8 U, @, U) G/ p( E                               
登录/注册后可看大图

0 y8 ]  E/ F. ^+ O* p; b3 d) }
9 t! U# i. B0 l( ?& W【下载地址】
: f; r5 H. G6 u) C4 o* `/ K" o& T, a8 M! r& s
游客,如果您要查看本帖隐藏内容请回复  捐助论坛可免回复查看隐藏内容 详情请点击
最近访问 头像模式 列表模式
HD一条街,身边的一条街。
djggs66 该用户已被删除
发表于 2014-3-24 13:07:43 | 显示全部楼层
提示: 作者被禁止或删除 内容自动屏蔽
HD一条街,身边的一条街。
发表于 2014-3-24 13:33:34 | 显示全部楼层
提示: 作者被禁止或删除 内容自动屏蔽
HD一条街,身边的一条街。
发表于 2014-3-24 13:42:32 | 显示全部楼层
终于等全了!谢谢楼主!
HD一条街,身边的一条街。
发表于 2014-3-24 13:43:03 | 显示全部楼层
终于等全了!谢谢楼主!
HD一条街,身边的一条街。
发表于 2014-3-24 14:35:54 | 显示全部楼层
分享高清资源,就来HD一条街!
HD一条街,身边的一条街。
xsk 该用户已被删除
发表于 2014-3-24 17:39:41 | 显示全部楼层
提示: 作者被禁止或删除 内容自动屏蔽
HD一条街,身边的一条街。
ele_hoe0612 该用户已被删除
发表于 2014-3-24 19:18:54 | 显示全部楼层
提示: 作者被禁止或删除 内容自动屏蔽
HD一条街,身边的一条街。
发表于 2014-3-25 11:19:57 | 显示全部楼层
回复看看,谢谢楼主分享
HD一条街,身边的一条街。

手机版|小黑屋|有问题发邮件到admin#(换成@)hd1tj.org|微博|免责申明|HD一条街

GMT+8, 2017-3-29 05:45

Powered by Discuz! X3.1

© 2001-2013 Comsenz Inc.

快速回复 返回顶部 返回列表