开启辅助访问 切换到窄版

HD一条街论坛

 找回密码
 立即注册
查看: 431|回复: 14

[港台] RTHK31 巡遊大世界/地球最后的净土 第9集 [粤、英双语 繁体硬字幕]Somewhere On Earth HDTV 1080i H264 AC3 EP09-tbw 3.1G

[复制链接]
发表于 2014-3-16 15:06:39 | 显示全部楼层 |阅读模式
本帖最后由 让心灵去旅行 于 2014-3-16 16:55 编辑 : o/ Y! s* Z! l# I( r) G. P

: v0 ?7 F" ~! z6 r% L

3 [( b, Z3 N/ K. \1 \+ F* w) x                               
登录/注册后可看大图

0 d2 M8 j% b. W, n4 f/ [0 O
9 j4 K, {/ D$ O3 i& |简介* V  x* `, X4 W0 \
导演: Dominique PIPAT
& u, s. N! _8 Y0 c, b类型: 纪录片
$ Z/ M" w: o. T+ f+ G# C官方网站: www.patlyproductions.com/
; z; s! q3 F6 p+ @" Z制片国家/地区: 法国
6 [& [( x8 h  n3 E  T语言: 英语! q, W( A, z8 Y2 W$ t
集数: 101 N. W+ }$ m3 }+ u$ F; p. Q
单集片长: 52分钟
/ T" C( ~2 _! M( J% j播出信息:港台电视31台(RTHK31)2014年1月16日起星期四晚上8时30分(首播)
1 u) c' W- U, c+ g0 s5 h* q6 {" Y星期五凌晨0时30分(重温)
6 ?) \5 G6 S8 V! i! h! G
# h1 R( ~8 M$ F第1集  密克罗尼西亚Micronesia" z; }7 J: d" G0 b  h# x
第2集  哥斯达黎加Costa Rica
( \! v' N, w1 G' u第3集  阿拉斯加Alaska8 p8 L1 c5 C$ z4 m" B2 H, J' X
第4集  坦桑尼亚Tanzania
8 y/ U5 j7 I0 p% I/ r# I* A第5集  新西兰New Zealand
) }) b7 z: C$ }, O) f第6集  澳洲Australia http://www.hd4fans.org/details.php?id=2404&hit=1% D# c: F- w1 S  B+ N: i: T$ q
第7集  马达加斯加Madagascar http://www.hd4fans.org/details.php?id=2624&hit=1
- h! l( ~- y* H0 b& [; E第8集  埃及Egypt
/ ^( P  |! q6 e# C% j第9集  摩洛哥Morocco
8 \! i: j# q/ ~5 j; m, O: w5 V( W第10集 巴塔哥尼亚Patagonia
. e& ~1 E1 P0 h) p' _# i1 O5 T, h' _3 Q: Q
   人类一向渴求寻找自己的根源。虽然可以征服的土地稀少,但总有值得我们探索的国度,接触的人们和他们的生活点滴。: u& [( X$ J% g

7 I/ `1 W6 Y7 K7 ^3 e  t) K   《巡游大世界》给我们带来了永恒和美丽的地方。在那些人迹罕至的地方,男女老幼的日常生活并没有跟随时间的巨轮转动,他们依照定律与大自然和谐共处。; _/ t! `4 x9 I/ z0 G. e

7 @- p" R3 B0 B+ ?   每一格光影都是住在这些世外桃源的居民的真实写照。由他们作为导游,邀请我们用摄影机分享他们的世界。他们的故事,他们的日常生活与回忆均是影片内最珍贵的珠宝。每集围绕着三位居住在三个壮丽的地方的人,分享他们充满激情的大世界。  
0 h# E+ X5 G7 [" C2 u/ I( ?
" U( }! Y4 t' B6 \( a  Somewhere on Earth is a series of documentary films whose aim is to shine the spotlight on some of the few places on earth where nature and man exist in harmony.
" J. r5 K  _. F# v2 c9 d  地球最后的净土是一系列纪录片,其目的是聚焦地球上少数一些人和自然和谐相处的地方。
  1. J:\巡游大世界Somewhere On Earth.HDTV.1080i.H264.AC3-tbw\巡游大世界Somewhere On Earth.HDTV.1080i.H264.AC3.EP01-tbw.ts( ?0 x% u. e* G4 t: {
  2.   General #1
    8 E( u' c/ p" q7 a6 N5 ~
  3.      ID : 1 (0x1)( o6 w% \" G# ]7 W. W
  4.      Complete name : J:\巡游大世界Somewhere On Earth.HDTV.1080i.H264.AC3-tbw\巡游大世界Somewhere On Earth.HDTV.1080i.H264.AC3.EP01-tbw.ts
    4 z2 M' ~! \6 R- e/ |1 f" ~7 A7 ^
  5.      Format : MPEG-TS3 Y- S! [( y7 ^3 w& j& z# k# a& B2 I
  6.      File size : 3.09 GiB7 {- U! r5 e$ q! }& r& B
  7.      Duration : 51mn 58s! F/ y- n# d. |" H8 Z
  8.      Overall bit rate : 8 514 Kbps
    2 t+ M3 x  l6 M" {% Z3 h2 n3 P; s
  9.   Video #311
    + ?9 ?+ P* r, C. u/ {$ H6 u
  10.      ID : 311 (0x137)
    4 ~. Z* S3 o9 {# P. Z8 j
  11.      Menu ID : 1 (0x1)' v# |* z1 f3 Q1 }' L3 E
  12.      Format : AVC
    , w4 x9 x: D0 D' I5 N: R1 N. h
  13.      Format/Info : Advanced Video Codec
    6 j& [& K0 X$ _0 L( G: T% ~! S; |. Q
  14.      Format profile : [email protected]
    * t. i$ U9 w6 r9 u: X& w4 I
  15.      Format settings, CABAC : Yes" t; Q, y9 v2 c2 u, \4 {
  16.      Format settings, ReFrames : 4 frames* x& d9 e: \  w6 o1 m: G
  17.      Codec ID : 27- ?2 x0 b6 |- L
  18.      Duration : 51mn 59s
    + L2 B) y  z0 c' o' F
  19.      Bit rate : 7 834 Kbps
    4 \( }" y8 H8 l- q; F
  20.      Width : 1 920 pixels
    , Y' ?" B: J5 _4 r9 V
  21.      Height : 1 080 pixels. V* }& D1 X- Z3 {
  22.      Display aspect ratio : 16:9! e) B& l9 P+ [8 M) T" k, F
  23.      Frame rate : 25.000 fps: {2 W% R) z% X' C( ?3 Q
  24.      Color space : YUV
    & k4 Y9 U2 @) g. R% i! o6 Z+ ~' s
  25.      Chroma subsampling : 4:2:0
    8 W7 _, J7 m; L7 N" u
  26.      Bit depth : 8 bits1 D8 `4 r! O! T) A3 j' _
  27.      Scan type : MBAFF" Q* Z/ F% c* ]
  28.      Scan order : Top Field First
    6 b7 _" c% s2 N& c. E& [
  29.      Bits/(Pixel*Frame) : 0.151
    % Z  z" L& @; r: C. i- r3 Z
  30.      Stream size : 2.84 GiB (92%)" i$ {5 r* _* j! {3 l6 E
  31.      Color primaries : BT.709-5, BT.1361, IEC 61966-2-4, SMPTE RP177
    9 t: c, A$ R4 l/ ^/ e
  32.      Transfer characteristics : BT.709-5, BT.1361
    % h, [% G6 S; F+ I. a1 L( c  I6 G
  33.      Matrix coefficients : BT.709-5, BT.1361, IEC 61966-2-4 709, SMPTE RP177: E2 z2 u  A; ^  G5 c
  34.   Audio #312
    6 o5 |. X  j' l, G+ l3 K
  35.      ID : 312 (0x138)
    / v: X+ i9 I$ `8 k
  36.      Menu ID : 1 (0x1)0 I% z2 |8 o/ J/ r
  37.      Format : AC-39 S% E8 n$ i  w) N! G) @
  38.      Format/Info : Audio Coding 3  c% x# I2 c, Z3 o, L) I& }. ^
  39.      Mode extension : CM (complete main)
    0 \, Y* u  T9 H, b& ]
  40.      Codec ID : 6
    : Z( n: @; _. N/ a' F
  41.      Duration : 51mn 59s
    . L- O: f0 i( Q& b" j0 W7 @
  42.      Bit rate mode : Constant! h) Y& x  W5 X4 N0 m
  43.      Bit rate : 128 Kbps
    - x5 L4 T3 K( C
  44.      Channel(s) : 2 channels0 s1 ^& ~6 R4 X" J8 [' }0 Z- y) T. j
  45.      Channel positions : Front: L R9 u' r0 ^& C2 A9 x( e9 F! {
  46.      Sampling rate : 48.0 KHz9 G0 ]* D3 H9 L) N. @4 b! ?, a
  47.      Bit depth : 16 bits
    % L  G. K$ p6 T' _) K! o' o, x  b6 _8 P
  48.      Compression mode : Lossy$ _: r% ]$ S9 F$ P
  49.      Stream size : 47.6 MiB (2%)" H/ h# z' ?! ^* h
  50.      Language : English/ o# W0 X( C5 ?: Y( x, B
  51.   Audio #313' y( D: }2 @( O8 I1 {& L5 `0 g
  52.      ID : 313 (0x139)" U0 w- A4 ~7 ~* x0 b2 ?- k" M
  53.      Menu ID : 1 (0x1)# k% f- F( \1 G9 d' O
  54.      Format : AC-3
    8 |' O; i8 k8 i7 j
  55.      Format/Info : Audio Coding 3
    & n& v" ^. Z0 v: x/ {
  56.      Mode extension : CM (complete main)& m4 A8 J/ n; @4 k2 R! t/ D% `' D
  57.      Codec ID : 6. Z( [4 g4 O% l9 ]+ k) \4 f, ^. F2 f
  58.      Duration : 51mn 58s
    ! W" c( p" h* x3 S- g# A
  59.      Bit rate mode : Constant, n" N0 p4 U- {0 {+ ^
  60.      Bit rate : 128 Kbps
    0 n* P4 I: U- M
  61.      Channel(s) : 2 channels
    3 B7 c8 p! i2 j
  62.      Channel positions : Front: L R: e) M; ~. g1 v2 j, Z$ I* W- F
  63.      Sampling rate : 48.0 KHz2 b$ u  R; F2 b6 ]0 {. L
  64.      Bit depth : 16 bits
    - F$ U+ z4 @6 }2 B3 g' ^7 Y( c" Y
  65.      Compression mode : Lossy
    7 a. D! ~0 ^/ Q" d6 Q
  66.      Stream size : 47.6 MiB (2%)
    + z; E( u- ~" T) ^' r% d
  67.      Language : English
复制代码
/ G+ ?4 d5 A) S  C

2 |% `& q$ S; _! ^' ?3 y                               
登录/注册后可看大图
2 n  S( h' r8 m( K$ }9 y' u
6 m! F: a" U+ o6 C9 r1 _1 B2 l* t

) P' g8 L- A+ w4 v, s8 }7 D                               
登录/注册后可看大图
4 X' n7 r7 ?5 m% u' _
. f5 ?3 o+ n/ f7 Z; s

8 D9 q) t, l- T+ e1 j$ g                               
登录/注册后可看大图
: K! B& p4 G, i- [3 t7 \

. J4 {. ]* a( w# X" w( K4 r
. T$ [; I& x5 ]% M1 v
                               
登录/注册后可看大图

- y4 m2 h& ^4 {1 y' \- d& M, h4 F' {
" l$ q: R" f; Y
$ {/ V/ K$ }$ {% w6 g2 [
                               
登录/注册后可看大图
5 @4 L! `) ?* @6 k' _# i4 ?( ]. ^

5 a  v8 V: i# z* I* j
8 o; f: G( f2 ]4 b0 Y4 z2 _9 n1 Z6 a
                               
登录/注册后可看大图
% u8 ?9 j# o8 m6 E0 M

4 \; N. c3 h9 M

; s) T2 s; ~  w0 r: b0 I                               
登录/注册后可看大图

8 V: U9 w, i6 d# N. ]9 P0 g4 E" j0 S6 M2 u

& s1 \  j  h5 g6 k/ n& P4 A/ P                               
登录/注册后可看大图
2 g0 ]8 ^# s9 q; m8 M
' W# B- V# B; ?% U( O* L# v  t4 l
# R/ N& ^( J1 _6 f4 a
                               
登录/注册后可看大图

' c2 }) l1 j( j1 ?9 }& o  S) J* i$ j8 Q
【下载地址】
/ t  j. `+ f5 n0 [. c& R2 i9 j2 n/ l: J& p4 W4 z; R" Q, q& F
游客,如果您要查看本帖隐藏内容请回复  捐助论坛可免回复查看隐藏内容详情请点击
最近访问 头像模式 列表模式
HD一条街,身边的一条街。
dsngd13 该用户已被删除
发表于 2014-3-16 15:19:17 | 显示全部楼层
提示: 作者被禁止或删除 内容自动屏蔽
HD一条街,身边的一条街。
发表于 2014-3-17 10:09:14 | 显示全部楼层
回复看看,谢谢楼主分享
HD一条街,身边的一条街。
发表于 2014-3-17 16:07:20 | 显示全部楼层
看了LZ的帖子,我只想说一句很好很强大!
HD一条街,身边的一条街。
ui0987 该用户已被删除
发表于 2014-3-19 10:21:08 | 显示全部楼层
提示: 作者被禁止或删除 内容自动屏蔽
HD一条街,身边的一条街。
发表于 2014-3-22 13:05:55 | 显示全部楼层
希望楼主在HD一条街里多多发布更好的资源
HD一条街,身边的一条街。
发表于 2014-4-1 02:20:49 | 显示全部楼层
谢谢楼主分享                  
HD一条街,身边的一条街。
发表于 2014-4-4 22:11:10 | 显示全部楼层
HD一条街,是我心中的一条街
HD一条街,身边的一条街。
发表于 2014-4-13 22:04:42 | 显示全部楼层
哥顶的不是帖子,是寂寞!
HD一条街,身边的一条街。
您需要登录后才可以回帖 登录 | 立即注册

本版积分规则

手机版|小黑屋|有问题发邮件到admin#(换成@)hd1tj.org|微博|免责申明|HD一条街

GMT+8, 2016-12-9 07:59

Powered by Discuz! X3.1

© 2001-2013 Comsenz Inc.

快速回复 返回顶部 返回列表