开启辅助访问 切换到窄版

HD一条街论坛

 找回密码
 立即注册
查看: 463|回复: 18

[港台] RTHK31 巡遊大世界/地球最后的净土 第8集[粤、英双语 繁体硬字幕]Somewhere On Earth 2010.EP08.HDTV.1080i.H264.AC3-tbw 3.1G

[复制链接]
发表于 2014-3-15 21:29:19 | 显示全部楼层 |阅读模式
- l- {4 g, A% l+ |
                               
登录/注册后可看大图

( D1 O- t( A" Z' d& _4 J
: L0 q7 ]8 n, s/ w- S$ ?7 j7 z  t# R% O; i- ~% {
简介
* {* y! A: r1 R+ S9 K导演: Dominique PIPAT
+ P  K  m+ m% L; a4 d  q- r# Q+ I% S" M类型: 纪录片
: e$ C8 [& Y; _7 _$ ]* ^2 z: F官方网站: www.patlyproductions.com/4 g0 i7 j7 l! e6 x$ @4 X
制片国家/地区: 法国
2 T6 q' A- {! j" b7 A语言: 英语1 N6 e0 K9 }! x' }  u2 C6 z
集数: 10& s9 S! u. n5 l- T! Q1 f* m2 P
单集片长: 52分钟
! m5 ~( I. |) n6 t: O播出信息:港台电视31台(RTHK31)2014年1月16日起星期四晚上8时30分(首播)
8 P: G* M9 T$ C% u: L, s  W星期五凌晨0时30分(重温)
" r6 y) V4 ?. d9 J5 L: T) t2 h/ F6 Z. |" l9 K
% {7 e  Z) v  G! H6 e  h
第1集  密克罗尼西亚Micronesia
+ \2 w0 r" ]+ e, G( Y7 D第2集  哥斯达黎加Costa Rica
* y6 B) @9 M( V& o第3集  阿拉斯加Alaska  h+ g8 J8 Q3 C# J  ~! b
第4集  坦桑尼亚Tanzania) F% E; p% g3 F2 a2 D
第5集  新西兰New Zealand 9 }/ s+ @- Q6 Q/ H0 T
第6集  澳洲Australia# l! ]" ^  O; N! `) ~1 R
第7集  马达加斯加Madagascar " u; M* B: M) w
第8集  埃及Egypt0 _, k/ s$ l" @7 \& ^' C/ J1 v- F
第9集  摩洛哥Morocco + u0 ^# b: q! s1 m4 O- M# l
第10集 巴塔哥尼亚Patagonia
' b* W' V% D; Z5 _2 G2 a# N2 i. Q% h+ X  x- Y0 U* C
   人类一向渴求寻找自己的根源。虽然可以征服的土地稀少,但总有值得我们探索的国度,接触的人们和他们的生活点滴。
! Y) E' T6 z6 Q
2 Y7 _; T; f' t. k: [   《巡游大世界》给我们带来了永恒和美丽的地方。在那些人迹罕至的地方,男女老幼的日常生活并没有跟随时间的巨轮转动,他们依照定律与大自然和谐共处。: `: F7 R9 q# l3 t* ?/ i7 t& V

, l4 @, S! g9 _' c2 }" o# z6 U: L   每一格光影都是住在这些世外桃源的居民的真实写照。由他们作为导游,邀请我们用摄影机分享他们的世界。他们的故事,他们的日常生活与回忆均是影片内最珍贵的珠宝。每集围绕着三位居住在三个壮丽的地方的人,分享他们充满激情的大世界。  
4 V: H8 J7 M. Q. M. X0 c! I/ ~* L  G1 r% ^* N
  Somewhere on Earth is a series of documentary films whose aim is to shine the spotlight on some of the few places on earth where nature and man exist in harmony. 0 H4 ~2 c3 K' ]# n
  地球最后的净土是一系列纪录片,其目的是聚焦地球上少数一些人和自然和谐相处的地方。
  1. J:\巡游大世界Somewhere On Earth.HDTV.1080i.H264.AC3-tbw\巡游大世界Somewhere On Earth.HDTV.1080i.H264.AC3.EP01-tbw.ts
    ! H0 ^" H. G. {" D/ l9 t
  2.   General #12 u' _, ^! R! c" @" j
  3.      ID : 1 (0x1). u+ T, O: G4 M; R
  4.      Complete name : J:\巡游大世界Somewhere On Earth.HDTV.1080i.H264.AC3-tbw\巡游大世界Somewhere On Earth.HDTV.1080i.H264.AC3.EP01-tbw.ts7 ]6 @+ Y2 y0 |3 ~$ x7 v; V
  5.      Format : MPEG-TS
    . ]4 I2 J; O" a% V: D) L
  6.      File size : 3.09 GiB
    4 J; Q& s8 Y+ H# l7 ?( K2 f
  7.      Duration : 51mn 58s
    * H5 _; d' }0 x$ p& w& a1 ^# E% S- z
  8.      Overall bit rate : 8 514 Kbps/ K3 Y1 s$ ^- e; i
  9.   Video #311
    7 h3 h9 M* r3 B, m. _
  10.      ID : 311 (0x137)
    # x7 s+ V1 [# h+ a) ^& W7 [. e0 Q$ Y
  11.      Menu ID : 1 (0x1)
    , ^$ {: `" M4 I, F! p8 r
  12.      Format : AVC7 s4 b, Y, P/ o: Y  g5 C: O
  13.      Format/Info : Advanced Video Codec
    0 V! s+ C' K9 v4 \
  14.      Format profile : [email protected]
    ) k3 ^8 B) x- w" v. B7 @
  15.      Format settings, CABAC : Yes
    ! G8 ]: Y% v5 @9 T1 }" G6 U; ]  _
  16.      Format settings, ReFrames : 4 frames
      H# w3 z  g! B
  17.      Codec ID : 27/ F; v5 V8 @1 E' A
  18.      Duration : 51mn 59s+ i  X  j9 b+ l1 m# a  k1 {8 n
  19.      Bit rate : 7 834 Kbps0 k. y! L! D5 }, t9 W- g
  20.      Width : 1 920 pixels* o  J  r; g5 h4 W9 ~# _! d7 A
  21.      Height : 1 080 pixels
    2 E9 }) K7 ]! T& d! U
  22.      Display aspect ratio : 16:9
    9 N: E; P; f- u% ]
  23.      Frame rate : 25.000 fps* w! W8 g" a3 p9 Y
  24.      Color space : YUV
    ; {3 r3 g9 n- _6 D
  25.      Chroma subsampling : 4:2:0& n/ T8 l& _; n' n. N
  26.      Bit depth : 8 bits# `( \; D5 {9 n2 n" v  u3 `
  27.      Scan type : MBAFF
    9 v! w  o' }/ F5 x" N6 B7 `
  28.      Scan order : Top Field First; e  ]# I7 T, O
  29.      Bits/(Pixel*Frame) : 0.151* Z. }9 P7 H4 I3 ?" O
  30.      Stream size : 2.84 GiB (92%)- A2 @" d# v3 [$ \, Y
  31.      Color primaries : BT.709-5, BT.1361, IEC 61966-2-4, SMPTE RP177  u9 e$ }* S$ w
  32.      Transfer characteristics : BT.709-5, BT.1361! S  U# m! N, ]! I' X0 `
  33.      Matrix coefficients : BT.709-5, BT.1361, IEC 61966-2-4 709, SMPTE RP1776 R) `1 f$ {* F/ O4 D& I
  34.   Audio #3123 Y2 J2 n! _7 e  ^& l! x* H
  35.      ID : 312 (0x138)5 N0 @9 b% \9 A) `
  36.      Menu ID : 1 (0x1)
    ; a6 j$ g; C$ K2 C4 w' c1 X; y* h
  37.      Format : AC-3
    6 D" B% L  m; i  n" `
  38.      Format/Info : Audio Coding 3
    ( J: e8 Q/ d8 r; [1 Z6 i. }, b
  39.      Mode extension : CM (complete main)
    , z5 D, R# H; [
  40.      Codec ID : 6
    - E- l' B. i. k& O
  41.      Duration : 51mn 59s
    ) G- w0 V6 c0 c$ h9 l1 ^
  42.      Bit rate mode : Constant
    - g% Q" ]6 A6 U7 t- o8 L5 e
  43.      Bit rate : 128 Kbps/ L4 i, ?( }1 m* h, W6 {4 X1 M
  44.      Channel(s) : 2 channels& }" }4 E4 M7 ^
  45.      Channel positions : Front: L R
    & x7 [3 k' {5 N) y3 X2 J) {
  46.      Sampling rate : 48.0 KHz  {- `9 _) l0 k1 R
  47.      Bit depth : 16 bits' \9 t* p; t3 D2 D' S
  48.      Compression mode : Lossy
    2 }* p! @! ?' F& K' k- C
  49.      Stream size : 47.6 MiB (2%)' y; h& Z+ _. Y& Q. ?/ ~
  50.      Language : English5 Q5 w+ S* z; ^& k  H8 a
  51.   Audio #3131 f2 `, m- V9 ?; }. G! w
  52.      ID : 313 (0x139): P7 t, _( _- @& P8 v7 G
  53.      Menu ID : 1 (0x1); ?( `6 t) T- k0 Y) C2 H
  54.      Format : AC-3
    + R2 b& @7 H2 S9 i+ N7 l  {2 Z
  55.      Format/Info : Audio Coding 35 {; L  F3 y/ T
  56.      Mode extension : CM (complete main)
    , w1 h8 _$ c+ B( c5 |
  57.      Codec ID : 6* h+ ?! |. u# ~7 o" W
  58.      Duration : 51mn 58s
    , y( ~1 X! F% @5 C
  59.      Bit rate mode : Constant) M0 i  y. \; y: I4 x( T% T2 L' C
  60.      Bit rate : 128 Kbps
    + Q! L, k/ V& w2 \# z: _# Y
  61.      Channel(s) : 2 channels
    ; S, r7 P8 L8 c
  62.      Channel positions : Front: L R
    % x3 t' v, o9 |6 w( v! c, T
  63.      Sampling rate : 48.0 KHz
    % \, A( s. y2 ?" W8 W
  64.      Bit depth : 16 bits& ?, ]' n% _% N, G6 M
  65.      Compression mode : Lossy
    ) J  S& a3 k' {+ C1 {+ y( P
  66.      Stream size : 47.6 MiB (2%)
    $ V$ ~4 M$ V, t! I' X
  67.      Language : English
复制代码
; \/ J$ g& p# A5 u

8 e4 y9 v3 n8 [0 L# X: Y                               
登录/注册后可看大图

2 D4 @  E8 J( e7 A. J4 Y
0 l" t( l0 E0 T! W+ v- w! C

+ ?0 A" j. A7 {0 r9 l( I2 [                               
登录/注册后可看大图
; [% N0 R7 ]3 i' `( Z3 a& Q
$ \1 _6 d' r% {: H8 u6 u
! c% ^& v% h2 k- W
                               
登录/注册后可看大图
1 d. `; W1 b! k* D2 g; |5 q

1 G" U4 X5 b& V. u1 B: k
1 n, o1 Q1 r8 ~1 O
                               
登录/注册后可看大图

1 N9 _, O) G! N* Y8 i) u6 I
, @7 k5 P, c, b) A

) S* e& p- U1 G# ~* ~# S                               
登录/注册后可看大图
% P3 _  @5 T. D+ Q

( M0 v" l& q; Y( }8 e4 l

; ~* N/ J3 \- x/ m7 j8 N: c                               
登录/注册后可看大图
" a  U! y$ s+ \# p/ U( a0 h& L

- K7 ]+ J$ Z" W- Q0 \

; w$ W3 n! B3 [                               
登录/注册后可看大图
2 i: ?3 n% E* N2 j% ?! ?
3 K, U0 q( s( A- g7 Z

% d! n4 k" L- b" ]# ?# P% X% D0 ^                               
登录/注册后可看大图

" n# D4 L# b+ t3 p  P; F6 F! K$ P% S" n+ m

" O7 h8 z0 a$ r  E: S. @: P                               
登录/注册后可看大图

- I! ^! w) _! e( t
; o7 ^* L% o7 H4 V8 P/ u【下载地址】
7 g% s, {& |3 J# \6 N  E8 y; q1 i2 K/ ^. J  ^) ?) Z
游客,如果您要查看本帖隐藏内容请回复  捐助论坛可免回复查看隐藏内容详情请点击
最近访问 头像模式 列表模式
HD一条街,身边的一条街。
的监督我 该用户已被删除
发表于 2014-3-15 21:29:47 | 显示全部楼层
提示: 作者被禁止或删除 内容自动屏蔽
HD一条街,身边的一条街。
发表于 2014-3-15 21:58:27 | 显示全部楼层
谢谢分享,辛苦了
HD一条街,身边的一条街。
发表于 2014-3-16 00:41:42 | 显示全部楼层
為了找一部片子找到一個好網站,可喜可賀啊!
HD一条街,身边的一条街。
plines 该用户已被删除
发表于 2014-3-16 11:53:02 | 显示全部楼层
提示: 作者被禁止或删除 内容自动屏蔽
HD一条街,身边的一条街。
发表于 2014-3-17 10:07:57 | 显示全部楼层
回复看看,谢谢楼主分享
HD一条街,身边的一条街。
发表于 2014-3-17 16:03:16 | 显示全部楼层
分享高清资源,就来HD一条街!
HD一条街,身边的一条街。
qwqe 该用户已被删除
发表于 2014-3-18 05:06:31 | 显示全部楼层
提示: 作者被禁止或删除 内容自动屏蔽
HD一条街,身边的一条街。
采纳kid 该用户已被删除
发表于 2014-3-19 09:14:17 | 显示全部楼层
提示: 作者被禁止或删除 内容自动屏蔽
HD一条街,身边的一条街。
dhdh26ri 该用户已被删除
发表于 2014-3-20 05:27:52 来自手机 | 显示全部楼层
提示: 作者被禁止或删除 内容自动屏蔽
HD一条街,身边的一条街。
您需要登录后才可以回帖 登录 | 立即注册

本版积分规则

手机版|小黑屋|有问题发邮件到admin#(换成@)hd1tj.org|微博|免责申明|HD一条街

GMT+8, 2016-12-8 20:01

Powered by Discuz! X3.1

© 2001-2013 Comsenz Inc.

快速回复 返回顶部 返回列表