开启辅助访问 切换到窄版

HD一条街论坛

 找回密码
 加入我们
查看: 589|回复: 19

[港台] RTHK31 巡遊大世界/地球最后的净土 [第6集 粤/英双语 繁体硬字幕]Somewhere On Earth 2010.EP06.HDTV.1080i.H264.AC3-tbw 3.12G

[复制链接]
发表于 2014-3-14 21:06:55 | 显示全部楼层 |阅读模式
本帖最后由 让心灵去旅行 于 2014-3-15 11:24 编辑
' ^: V0 q& T/ k2 V5 r: i+ t
. @' H7 Q" ^2 N& M7 a' h6 I

: m7 D" j9 G$ z6 v  r7 B# E+ }                               
登录/注册后可看大图

3 i  F) f( j: x( A2 [, S' S
1 ~. }4 v: Y, {5 A% k) }- k
: D! a: _& U' d$ G& E: L. `3 t3 h7 x简介
) _9 P, c, D2 w5 w导演: Dominique PIPAT; R3 D" M" i# y/ Y! n9 C
类型: 纪录片
6 }# L3 T. G% k+ y; u9 G官方网站: www.patlyproductions.com/7 x7 `0 Z; E7 v7 Z7 o! c
制片国家/地区: 法国
) L8 v5 A) |0 @, `3 [语言: 英语
: P' Q2 s9 W  [- j集数: 10
. Z! D& ]5 P9 W1 u% u单集片长: 52分钟
: _1 }4 ^8 r9 V2 f播出信息:港台电视31台(RTHK31)2014年1月16日起星期四晚上8时30分(首播)# X; V& h+ H& X1 h2 k
星期五凌晨0时30分(重温)& O4 I! v" Q- W+ F
4 B5 w  P. w" ^* M- w- X6 i8 P
' W8 @3 [7 B( r: E( |2 u
第1集  密克罗尼西亚Micronesia2 V/ x" u8 f- n, o% E! B
第2集  哥斯达黎加Costa Rica , d: O1 D  k1 W2 s
第3集  阿拉斯加Alaska* a) J# Y/ w3 h, R* D  H- g6 T
第4集  坦桑尼亚Tanzania6 b! K- O( J" }) |4 ^8 }! f3 G
第5集  新西兰New Zealand
+ ]+ U# l& j. N3 O+ M& u9 t: `7 J第6集  澳洲Australia( M8 I' T' X; h4 W
第7集  马达加斯加Madagascar
( r8 V/ k. S" K3 N) P第8集  埃及Egypt
6 Q( y7 `/ W+ F5 J9 e: r第9集  摩洛哥Morocco
. \9 v8 ^% Z+ g  r, U9 l4 s/ _第10集 巴塔哥尼亚Patagonia / f/ P7 w. {# T/ Y8 ~5 k( `# f

5 |, m5 T/ l% X9 C7 K% C   人类一向渴求寻找自己的根源。虽然可以征服的土地稀少,但总有值得我们探索的国度,接触的人们和他们的生活点滴。
5 M$ p4 e7 m1 S; p; q' @& b8 b$ D. i. Y' n, ~$ M# F
   《巡游大世界》给我们带来了永恒和美丽的地方。在那些人迹罕至的地方,男女老幼的日常生活并没有跟随时间的巨轮转动,他们依照定律与大自然和谐共处。
4 b/ c& d% S+ T- r
; d, }( X2 D9 [- b3 z9 K- Q   每一格光影都是住在这些世外桃源的居民的真实写照。由他们作为导游,邀请我们用摄影机分享他们的世界。他们的故事,他们的日常生活与回忆均是影片内最珍贵的珠宝。每集围绕着三位居住在三个壮丽的地方的人,分享他们充满激情的大世界。  . R  M) @: {( ^& V% l( i+ t

) X; b# \4 j2 ~, F9 K/ z+ B; S% P) L  Somewhere on Earth is a series of documentary films whose aim is to shine the spotlight on some of the few places on earth where nature and man exist in harmony.
% r' `+ e& d0 G! v& Q  地球最后的净土是一系列纪录片,其目的是聚焦地球上少数一些人和自然和谐相处的地方。
  1. J:\巡游大世界Somewhere On Earth.HDTV.1080i.H264.AC3-tbw\巡游大世界Somewhere On Earth.HDTV.1080i.H264.AC3.EP01-tbw.ts( o9 _0 m  Y1 _( k  ]! m
  2.   General #1( v2 y3 i- O2 {  X
  3.      ID : 1 (0x1)
    4 P* h& D% t. }/ M4 H) S
  4.      Complete name : J:\巡游大世界Somewhere On Earth.HDTV.1080i.H264.AC3-tbw\巡游大世界Somewhere On Earth.HDTV.1080i.H264.AC3.EP01-tbw.ts
    $ K, i$ B+ {/ I, H; I
  5.      Format : MPEG-TS
    & v% Z5 i4 o, [$ G3 c' l3 n: P
  6.      File size : 3.09 GiB
    - g/ w0 Y1 U: J1 s3 ?  Y) h( N$ Y
  7.      Duration : 51mn 58s' Z  p5 n. y* ~8 E
  8.      Overall bit rate : 8 514 Kbps
    3 N+ w: ^5 t* E. i# I) X
  9.   Video #311. s2 o3 o. X  H/ p" d, c4 q  F
  10.      ID : 311 (0x137)5 b9 g6 v3 \# z! i
  11.      Menu ID : 1 (0x1)/ f( O, Q9 a7 b* v% z1 n* x+ ^" D
  12.      Format : AVC% w3 C$ F1 x. I' X3 t5 }: X
  13.      Format/Info : Advanced Video Codec6 ?/ B% }, A" W+ N2 h/ J% {
  14.      Format profile : [email protected]
    " y! V5 n, w  g0 L* C8 t
  15.      Format settings, CABAC : Yes' h5 w- y2 W" |3 v
  16.      Format settings, ReFrames : 4 frames
    2 C. w2 {. W: m
  17.      Codec ID : 27' i5 F6 ?& {: E8 T! D4 Z8 H
  18.      Duration : 51mn 59s
    9 V) D. o7 }. D
  19.      Bit rate : 7 834 Kbps
    3 t+ @( T6 A7 W$ r! C" u3 [: ~5 d9 D
  20.      Width : 1 920 pixels
    ! @, d9 f* n7 y; n
  21.      Height : 1 080 pixels1 h# o. k$ _9 f
  22.      Display aspect ratio : 16:9
    + C9 ?* `( }/ U/ g
  23.      Frame rate : 25.000 fps
    7 k+ J7 W! |9 o$ b3 k, I% X
  24.      Color space : YUV
    8 D  B9 i) v9 R5 Q! @- t& P# B
  25.      Chroma subsampling : 4:2:0
    ) y8 Q% J; N4 L! p- g
  26.      Bit depth : 8 bits
    % C+ Q) {% N& Q) ~" ~
  27.      Scan type : MBAFF
    $ B/ |9 J; m% y" n
  28.      Scan order : Top Field First
    3 [% n7 \. f) ~+ T# Y8 c
  29.      Bits/(Pixel*Frame) : 0.1512 B6 {  G7 g! f4 ?5 o+ e
  30.      Stream size : 2.84 GiB (92%)- T, j! \9 d2 \. w2 R+ y
  31.      Color primaries : BT.709-5, BT.1361, IEC 61966-2-4, SMPTE RP1778 G% i& v+ U) V; r; i2 \
  32.      Transfer characteristics : BT.709-5, BT.13619 I2 G+ u2 `+ x: F2 ?
  33.      Matrix coefficients : BT.709-5, BT.1361, IEC 61966-2-4 709, SMPTE RP177
    ( L9 R; N, h' R7 e* q
  34.   Audio #312
    0 ~: x2 W' X' h* w5 O2 \
  35.      ID : 312 (0x138)
    4 v+ K8 c; U- `1 x( N0 E; g" i% x
  36.      Menu ID : 1 (0x1)$ b/ y7 ^5 x; i5 Y
  37.      Format : AC-3& @. d. T  W, x
  38.      Format/Info : Audio Coding 3
    6 ?6 C8 D+ G; A- e  \& O- y( F
  39.      Mode extension : CM (complete main)) Z$ J5 {$ c7 \, |
  40.      Codec ID : 6
    2 @. f% P6 z# L3 k7 [8 Y
  41.      Duration : 51mn 59s
    8 E( d* ^  k$ C5 |" m3 u5 U
  42.      Bit rate mode : Constant
    . T. H% o6 f- }9 T: r
  43.      Bit rate : 128 Kbps
    6 u& W0 T! O5 @$ A
  44.      Channel(s) : 2 channels
    5 @+ g) U' k2 H6 v7 m
  45.      Channel positions : Front: L R. N( ~  [$ ~# E0 J+ {# M5 f
  46.      Sampling rate : 48.0 KHz: T& O: G4 O$ p; `+ s+ d2 U
  47.      Bit depth : 16 bits2 c/ F' {9 x. k/ ?1 _% Q
  48.      Compression mode : Lossy) ~. p! V9 R8 c/ N% @- G7 m
  49.      Stream size : 47.6 MiB (2%)8 S" C% O0 U3 V0 D% {
  50.      Language : English1 J2 v# l0 N: l  M4 S
  51.   Audio #3132 ~* Z8 T( {! B2 a6 P
  52.      ID : 313 (0x139)
    ; a" m- H. j2 K
  53.      Menu ID : 1 (0x1)
    ( y! S3 f" G" q; m# j0 B
  54.      Format : AC-3  I7 f6 |: [$ L# p9 n0 ]
  55.      Format/Info : Audio Coding 31 W, J9 F. F' }/ L% v7 e" \
  56.      Mode extension : CM (complete main)) E$ @. O& N+ Z0 K+ L
  57.      Codec ID : 6
    ) r5 o0 t: R! L6 u8 N/ g! v) l
  58.      Duration : 51mn 58s
    $ A/ R. n7 ?; g1 p" O+ `
  59.      Bit rate mode : Constant, V4 M, L/ U7 m% H
  60.      Bit rate : 128 Kbps
    * A3 e. d# n7 S: u+ p
  61.      Channel(s) : 2 channels. ^. D5 D. e/ K0 x: B; n/ T
  62.      Channel positions : Front: L R
    ) d, e( k( T8 P: O
  63.      Sampling rate : 48.0 KHz
      l1 P" F; y6 h- I1 `" m
  64.      Bit depth : 16 bits
    - B- W% |8 F& |! y1 Y$ k, B
  65.      Compression mode : Lossy  X$ R: F  S: V( j5 `6 ~3 |% [
  66.      Stream size : 47.6 MiB (2%)
    : u2 C1 @) t. g  v
  67.      Language : English
复制代码
+ \; d' r( _9 k' Z3 @6 U

" H7 R, P$ R4 {/ W  k! ]2 i9 r' A
$ Y8 O# b# h  P& X+ Y2 h
                               
登录/注册后可看大图
; R4 n) [# n+ Z* D& y1 }

1 i3 M* X/ h; _6 }# n2 H9 g

3 |; |+ V; R- z! E4 f                               
登录/注册后可看大图
$ B! k0 H& K: N
2 b6 F0 |1 z: d7 \: ~. F
% U2 I8 Z2 q: t
                               
登录/注册后可看大图

" t3 J( x0 m: g1 n7 g$ ?- u, L  w/ @; p4 f, c
. B# i+ s( z+ m- E1 p7 ^
                               
登录/注册后可看大图
1 J3 X" A) {# ?/ c" @7 e: H' M

2 I& A5 i6 Y4 {+ `6 ?
' Q3 y7 R1 A' O5 f% M
                               
登录/注册后可看大图
  E+ w& z% t( n6 q% E- H; l9 a
9 I1 J! C+ e  @( I# ^
2 `8 W0 L1 e# i7 L: E8 F+ P+ }! r$ l4 S0 @) p
                               
登录/注册后可看大图
* P; l) l8 I9 p" B4 y3 Z- V
& Q0 [/ g  Y# w) L2 m
* h5 w5 b3 X" q
                               
登录/注册后可看大图
+ V; \& x) o! j4 G1 O
4 u2 v1 I$ j4 d3 O3 ?* B
. b! E# _) {- @1 G
                               
登录/注册后可看大图
9 F1 p2 P0 H) i
# u8 c4 u$ S- |' m' J
# @) `) e$ ~, T# m4 u
                               
登录/注册后可看大图

6 e$ U8 u- Q3 b/ s* ?! }% L4 x5 u
【下载地址】5 i; i5 p: V$ z# I
1 J% X; t& R) e2 q" v7 T
游客,如果您要查看本帖隐藏内容请回复  捐助论坛可免回复查看隐藏内容 详情请点击
最近访问 头像模式 列表模式
HD一条街,身边的一条街。
dnshud 该用户已被删除
发表于 2014-3-14 21:07:40 | 显示全部楼层
提示: 作者被禁止或删除 内容自动屏蔽
HD一条街,身边的一条街。
发表于 2014-3-14 21:39:55 | 显示全部楼层
谢谢分享,开心了
HD一条街,身边的一条街。
雅蓉 该用户已被删除
发表于 2014-3-14 23:04:12 | 显示全部楼层
提示: 作者被禁止或删除 内容自动屏蔽
HD一条街,身边的一条街。
发表于 2014-3-15 03:06:35 | 显示全部楼层
影视资源尽在HD一条街中,
HD一条街,身边的一条街。
丿灬尛默丶 该用户已被删除
发表于 2014-3-15 03:13:00 | 显示全部楼层
提示: 作者被禁止或删除 内容自动屏蔽
HD一条街,身边的一条街。
发表于 2014-3-15 10:19:11 | 显示全部楼层
影视资源尽在HD一条街中,
HD一条街,身边的一条街。
发表于 2014-3-16 00:47:27 | 显示全部楼层
這是一部好片子
HD一条街,身边的一条街。
发表于 2014-3-16 00:48:10 | 显示全部楼层
這是一部好片子,要下全部
HD一条街,身边的一条街。
发表于 2014-3-17 10:00:22 | 显示全部楼层
回复看看,谢谢楼主分享
HD一条街,身边的一条街。
您需要登录后才可以回帖 登录 | 加入我们

本版积分规则

手机版|小黑屋|有问题发邮件到admin#(换成@)hd1tj.org|微博|免责申明|HD一条街

GMT+8, 2017-1-17 05:53

Powered by Discuz! X3.1

© 2001-2013 Comsenz Inc.

快速回复 返回顶部 返回列表