开启辅助访问 切换到窄版

HD一条街论坛

 找回密码
 立即注册
查看: 552|回复: 19

[港台] RTHK31 巡遊大世界/地球最后的净土 [第6集 粤/英双语 繁体硬字幕]Somewhere On Earth 2010.EP06.HDTV.1080i.H264.AC3-tbw 3.12G

[复制链接]
发表于 2014-3-14 21:06:55 | 显示全部楼层 |阅读模式
本帖最后由 让心灵去旅行 于 2014-3-15 11:24 编辑
6 j  k$ ]4 b  y5 t  w
4 P! q. M* q5 A  |, q# |3 j5 x

9 ^1 j" ]/ g+ w) d3 e/ k5 n                               
登录/注册后可看大图

, E( g! y) w( i  A) Z0 l
" x% S1 o9 u* K0 j9 T# K% X! O" m6 [& `! N6 s
简介
7 J; }- q8 r/ a2 J( O) S导演: Dominique PIPAT
" e( _. a6 @7 Z, [" [. v8 n类型: 纪录片! Q/ S4 V* x, A, ]/ [" ?! _
官方网站: www.patlyproductions.com/
; s1 s/ u4 q2 D制片国家/地区: 法国, Y, q3 g1 W8 w! j) H! g
语言: 英语: N9 Q/ s% ^* U4 C  G* g
集数: 10
- g, m0 E( @5 ^1 W单集片长: 52分钟
: I" h) A$ b3 P- v  A" O/ e0 c0 @8 J播出信息:港台电视31台(RTHK31)2014年1月16日起星期四晚上8时30分(首播)1 b* ^  a9 K% ~5 Y6 _  _
星期五凌晨0时30分(重温)1 g1 g, S2 P. r: v
4 D" j9 J$ f& d7 G

& M6 Y. G6 F# ~$ I2 J3 G第1集  密克罗尼西亚Micronesia
5 F3 ]8 @1 U/ W; g3 t' e第2集  哥斯达黎加Costa Rica
' E" @+ W! p; g! K2 D, `1 d# F第3集  阿拉斯加Alaska
5 V2 {( P6 Z5 |  t第4集  坦桑尼亚Tanzania6 a0 e; E2 B# Q6 l  ?# o
第5集  新西兰New Zealand
, K* R7 N6 g7 r! A" b9 i0 R9 Z% O( a第6集  澳洲Australia* U4 V: u8 \2 t' n. r7 G) U4 J
第7集  马达加斯加Madagascar
& P4 I$ A7 p$ k第8集  埃及Egypt; @& O# H$ Q6 @0 H" c
第9集  摩洛哥Morocco
9 I) \. a0 X0 F" ?$ Q5 b: O第10集 巴塔哥尼亚Patagonia 6 d# Z$ z  O3 R

  X, T: r& R; s# A+ X4 \   人类一向渴求寻找自己的根源。虽然可以征服的土地稀少,但总有值得我们探索的国度,接触的人们和他们的生活点滴。
. _. D2 J5 R( n0 Y5 V7 E9 X' _) A+ x# m; i3 m" p5 k% J( F
   《巡游大世界》给我们带来了永恒和美丽的地方。在那些人迹罕至的地方,男女老幼的日常生活并没有跟随时间的巨轮转动,他们依照定律与大自然和谐共处。
  M1 f' k& v0 C( S5 l6 B* Z% m4 D) T8 @# W8 U1 A8 k6 R7 \
   每一格光影都是住在这些世外桃源的居民的真实写照。由他们作为导游,邀请我们用摄影机分享他们的世界。他们的故事,他们的日常生活与回忆均是影片内最珍贵的珠宝。每集围绕着三位居住在三个壮丽的地方的人,分享他们充满激情的大世界。  - c$ E2 l( e+ A" f

% m. i9 L) Y/ J  Somewhere on Earth is a series of documentary films whose aim is to shine the spotlight on some of the few places on earth where nature and man exist in harmony.
' H; l) c- ?7 B# p  d* I. c1 w  地球最后的净土是一系列纪录片,其目的是聚焦地球上少数一些人和自然和谐相处的地方。
  1. J:\巡游大世界Somewhere On Earth.HDTV.1080i.H264.AC3-tbw\巡游大世界Somewhere On Earth.HDTV.1080i.H264.AC3.EP01-tbw.ts3 \( H$ v2 p! N+ M! N) C
  2.   General #1
    : e" Z+ Z/ F6 c  s: G
  3.      ID : 1 (0x1)
    ; S! G, o0 y; K* `1 Z& E9 |8 d, z
  4.      Complete name : J:\巡游大世界Somewhere On Earth.HDTV.1080i.H264.AC3-tbw\巡游大世界Somewhere On Earth.HDTV.1080i.H264.AC3.EP01-tbw.ts% w9 |6 H* w, d3 Q/ _& z9 C
  5.      Format : MPEG-TS; ?# s) {9 ]( M: ~8 w
  6.      File size : 3.09 GiB
    * a, K6 |9 `) N+ ]% [6 I8 Q+ b! P
  7.      Duration : 51mn 58s
    ( k- ]9 f6 e! A0 k' o3 ]% B# |
  8.      Overall bit rate : 8 514 Kbps
    - u2 m- r, Y" E8 X
  9.   Video #311# [2 s9 E  |) d( h7 G# T4 j
  10.      ID : 311 (0x137)$ _& O- k4 V0 V, S3 V7 l7 Q1 b) f# T3 c
  11.      Menu ID : 1 (0x1)) Y( l: P6 l; \/ [  `, i
  12.      Format : AVC
    3 f2 {% O7 G5 k) [
  13.      Format/Info : Advanced Video Codec
    ( b7 d* ~9 }4 W" u9 h
  14.      Format profile : [email protected]# d- V: J6 ?: K. A
  15.      Format settings, CABAC : Yes5 k# V! B: M* L  h! i0 e
  16.      Format settings, ReFrames : 4 frames6 T8 S+ C/ h/ q* T, W8 o
  17.      Codec ID : 27
    " x3 T, w. L5 U
  18.      Duration : 51mn 59s
    3 D" w4 g) ^0 U- I: @
  19.      Bit rate : 7 834 Kbps. D, a* Y) P: X- p2 Z* E
  20.      Width : 1 920 pixels
    3 m6 p$ g  x& h" R3 m
  21.      Height : 1 080 pixels
    + P2 e0 h1 W7 g8 G1 o0 F, ~5 _
  22.      Display aspect ratio : 16:9
    9 e# M' x+ ^2 |# R  c  d
  23.      Frame rate : 25.000 fps$ d1 |9 F6 V4 a/ `* h
  24.      Color space : YUV- c1 n# \9 N- g9 }
  25.      Chroma subsampling : 4:2:01 u0 T: R0 e( y' l
  26.      Bit depth : 8 bits2 _3 d# v3 ~! ~; a0 X
  27.      Scan type : MBAFF( r4 H0 g) x5 j. k8 P& E/ `5 V( I+ X+ a
  28.      Scan order : Top Field First
    $ O8 k+ M" q, `, e
  29.      Bits/(Pixel*Frame) : 0.151& S$ H% K4 q+ |# l, l
  30.      Stream size : 2.84 GiB (92%)
    9 t; w) w( L- j9 r8 E# Y& p
  31.      Color primaries : BT.709-5, BT.1361, IEC 61966-2-4, SMPTE RP177
    & T; o6 ]; t( \
  32.      Transfer characteristics : BT.709-5, BT.13614 H9 I0 ?0 t+ i8 U
  33.      Matrix coefficients : BT.709-5, BT.1361, IEC 61966-2-4 709, SMPTE RP177
      e- b, h/ K# i/ P3 N) B
  34.   Audio #312
    - o3 h1 [' ^' }' W9 R
  35.      ID : 312 (0x138)
    5 i3 u: R+ v( W) `9 G
  36.      Menu ID : 1 (0x1)
    ) i: C: O. y2 T: b0 n5 D! j
  37.      Format : AC-37 ~" k" Q$ O6 S2 Z3 N% ~7 r
  38.      Format/Info : Audio Coding 3/ g; e& b% _6 v$ U3 l
  39.      Mode extension : CM (complete main)
    : z$ B4 I) i6 D5 s
  40.      Codec ID : 61 {+ ~- l* W6 H9 L! L
  41.      Duration : 51mn 59s
    ' M% a( W/ T% p! I5 k
  42.      Bit rate mode : Constant. `: @5 s7 w; d) A
  43.      Bit rate : 128 Kbps
    , |# [# v$ n' u* R; a/ K2 _
  44.      Channel(s) : 2 channels( f0 A  D  Y& M" @7 p9 e  V
  45.      Channel positions : Front: L R
    / c) r( |/ b. e, [
  46.      Sampling rate : 48.0 KHz
    5 T+ F& e) ~' l% L( J% b
  47.      Bit depth : 16 bits3 b9 p+ ^, y( m; X
  48.      Compression mode : Lossy4 X! n! \1 ~. b- ]& _
  49.      Stream size : 47.6 MiB (2%)
    2 U. E; \& F/ V) P
  50.      Language : English
    , v9 Z, l6 H2 J, x: z# I! P
  51.   Audio #313+ ?' c( {0 M; q, `! o- v
  52.      ID : 313 (0x139)
    " M2 x$ G5 e$ a9 V5 b5 w; F
  53.      Menu ID : 1 (0x1)
    4 z; S1 u8 P5 d3 G
  54.      Format : AC-3$ `" i6 F, k) h. K
  55.      Format/Info : Audio Coding 3
    & ^8 n9 {* G- M; q# p
  56.      Mode extension : CM (complete main)" ]% L9 Z# t% O$ h8 {; i
  57.      Codec ID : 6
    # p% _  ?- u, x" @7 p  \# }  i8 o& F& |
  58.      Duration : 51mn 58s6 y9 l% F& a+ R5 l
  59.      Bit rate mode : Constant
    1 y- N; e2 `6 J/ m- F
  60.      Bit rate : 128 Kbps
    5 R2 ]: Y! c% P4 R7 S, E
  61.      Channel(s) : 2 channels
    6 R" k5 \8 V- F2 c  _  w
  62.      Channel positions : Front: L R
    0 s* G3 D0 b, L, m6 k. \( B
  63.      Sampling rate : 48.0 KHz
      `! W- B5 g1 p9 F- ]' U
  64.      Bit depth : 16 bits; j8 N) w- ~4 G2 ?- {' i
  65.      Compression mode : Lossy0 a7 l: C0 t9 s
  66.      Stream size : 47.6 MiB (2%)2 p# P) c$ ^. c0 O
  67.      Language : English
复制代码

$ w+ P) X& ]& z$ |0 A
0 `. E2 F# ]" ^% Q# k% p  f/ c

& l5 t- p6 T; W3 U6 I% }                               
登录/注册后可看大图
" P" W& N4 J) Y" B! P6 g

8 ]0 v- N/ T8 _# G0 C1 V

4 q( b$ S- y: Z3 a  B1 v$ v$ t: H                               
登录/注册后可看大图
3 ]1 _6 G7 y4 ?, W( z: z/ b* R8 y
; q' W: |( I$ X% G
3 ]. b4 Z3 A7 P/ G4 G$ I% `/ {: s; b
                               
登录/注册后可看大图
* |0 g" H! x; G8 X. `
  ]* V) g2 |5 O1 p9 P; l9 ^2 k

6 q8 I! C4 }! k! `$ y) r. m  t. m                               
登录/注册后可看大图
6 q8 \/ }  q' H! ]0 p8 ?) S2 c

# q  M0 s( J4 T, ^. y: q) B

% z5 \0 l8 c, B/ o. _                               
登录/注册后可看大图
1 W# W; M. f" ^4 D1 |) d9 J

/ k1 L& [& T  A6 h

2 u3 f+ P& r+ ?0 N                               
登录/注册后可看大图
& {/ t7 h0 m: j4 U
- k) m( \0 |) c) F1 g- I) d4 ^( v% i
: L9 g. |- t' t6 o* q+ N1 d- w
                               
登录/注册后可看大图
) i) d4 K% G7 w( e5 X
6 f( s0 \$ G% S/ _
" a/ f0 }5 x( D$ @5 E
                               
登录/注册后可看大图
/ Z6 N$ r3 O8 I( g$ A3 A/ q

1 G# F6 L4 Q' w
: I6 I: Z- X/ |( g, ^
                               
登录/注册后可看大图
2 G5 `( Z! |% k
" h- @5 I$ `! T
【下载地址】+ _: J% N8 V- o/ P( n# }& r% M- h
6 u9 V  q! ~" J4 b
游客,如果您要查看本帖隐藏内容请回复  捐助论坛可免回复查看隐藏内容详情请点击
最近访问 头像模式 列表模式
HD一条街,身边的一条街。
dnshud 该用户已被删除
发表于 2014-3-14 21:07:40 | 显示全部楼层
提示: 作者被禁止或删除 内容自动屏蔽
HD一条街,身边的一条街。
发表于 2014-3-14 21:39:55 | 显示全部楼层
谢谢分享,开心了
HD一条街,身边的一条街。
雅蓉 该用户已被删除
发表于 2014-3-14 23:04:12 | 显示全部楼层
提示: 作者被禁止或删除 内容自动屏蔽
HD一条街,身边的一条街。
发表于 2014-3-15 03:06:35 | 显示全部楼层
影视资源尽在HD一条街中,
HD一条街,身边的一条街。
丿灬尛默丶 该用户已被删除
发表于 2014-3-15 03:13:00 | 显示全部楼层
提示: 作者被禁止或删除 内容自动屏蔽
HD一条街,身边的一条街。
发表于 2014-3-15 10:19:11 | 显示全部楼层
影视资源尽在HD一条街中,
HD一条街,身边的一条街。
发表于 2014-3-16 00:47:27 | 显示全部楼层
這是一部好片子
HD一条街,身边的一条街。
发表于 2014-3-16 00:48:10 | 显示全部楼层
這是一部好片子,要下全部
HD一条街,身边的一条街。
发表于 2014-3-17 10:00:22 | 显示全部楼层
回复看看,谢谢楼主分享
HD一条街,身边的一条街。
您需要登录后才可以回帖 登录 | 立即注册

本版积分规则

手机版|小黑屋|有问题发邮件到admin#(换成@)hd1tj.org|微博|免责申明|HD一条街

GMT+8, 2016-12-8 17:54

Powered by Discuz! X3.1

© 2001-2013 Comsenz Inc.

快速回复 返回顶部 返回列表