开启辅助访问 切换到窄版

HD一条街论坛

 找回密码
 立即注册
查看: 605|回复: 19

[港台] RTHK31 巡遊大世界/地球最后的净土 [第6集 粤/英双语 繁体硬字幕]Somewhere On Earth 2010.EP06.HDTV.1080i.H264.AC3-tbw 3.12G

[复制链接]
发表于 2014-3-14 21:06:55 | 显示全部楼层 |阅读模式
本帖最后由 让心灵去旅行 于 2014-3-15 11:24 编辑 & f0 c- E5 F; L' A/ h, }
* D/ x. Y: \/ a/ p9 X. M
' O& G! a' t- q; M4 d
                               
登录/注册后可看大图

. t1 |# K$ ?5 H# L* q- [# n. u* i9 l! W8 n% L* A+ W
( Y0 L3 w8 b6 @" A
简介! K" ~, T( ]1 R$ }$ i2 L# I
导演: Dominique PIPAT+ n9 T: b2 `3 E% t
类型: 纪录片
" o% V7 q' F8 D8 ^官方网站: www.patlyproductions.com/
# s5 w: G9 m: m8 _; s制片国家/地区: 法国( ~2 N5 d7 _, @6 l3 z) V$ E
语言: 英语  A; `1 U, z& M* a4 J3 j
集数: 10" [( X: |/ y9 G0 ?- U
单集片长: 52分钟0 G, M+ l7 ^) x/ k* k3 R8 x
播出信息:港台电视31台(RTHK31)2014年1月16日起星期四晚上8时30分(首播)
8 e$ ~# O8 l) K, r* G* }3 v星期五凌晨0时30分(重温)
/ p+ n, j' u# P9 z" Z4 Z9 H
/ z4 D. l/ y4 ?& V3 ^4 h% `
" m4 U# o+ x( U. u2 [: P% m第1集  密克罗尼西亚Micronesia# P% W& l# ?3 @7 P6 @8 d, V% F
第2集  哥斯达黎加Costa Rica
3 E7 \6 C2 O: h, Q第3集  阿拉斯加Alaska1 h* i0 W/ |' D) a+ V4 r
第4集  坦桑尼亚Tanzania4 m2 j# E, V: `
第5集  新西兰New Zealand
) L% U( z2 P! M' T, h. @第6集  澳洲Australia" ~# ^: C; z5 b: X! ^
第7集  马达加斯加Madagascar 6 R& X1 }' o: c* x+ R
第8集  埃及Egypt% g6 E/ z9 O/ m
第9集  摩洛哥Morocco
& @5 p5 ?6 u. L第10集 巴塔哥尼亚Patagonia
! |8 F- ^. v! v1 g0 Y% ?/ p5 P  ]7 N# D+ v+ _/ I
   人类一向渴求寻找自己的根源。虽然可以征服的土地稀少,但总有值得我们探索的国度,接触的人们和他们的生活点滴。1 H  c/ w+ m( M0 M7 ?' Z3 F

* I, I6 r, s' e1 p% v. s   《巡游大世界》给我们带来了永恒和美丽的地方。在那些人迹罕至的地方,男女老幼的日常生活并没有跟随时间的巨轮转动,他们依照定律与大自然和谐共处。3 Z$ z; H5 b2 J) G
  R$ I2 k3 a7 h2 Z: {- j6 \
   每一格光影都是住在这些世外桃源的居民的真实写照。由他们作为导游,邀请我们用摄影机分享他们的世界。他们的故事,他们的日常生活与回忆均是影片内最珍贵的珠宝。每集围绕着三位居住在三个壮丽的地方的人,分享他们充满激情的大世界。  
4 k3 W" U% T; T$ ~2 f6 t- F. ^
" o0 M1 X  h( }- x, w- A  Somewhere on Earth is a series of documentary films whose aim is to shine the spotlight on some of the few places on earth where nature and man exist in harmony. 5 ^2 k2 ^7 B, w% L, I, S
  地球最后的净土是一系列纪录片,其目的是聚焦地球上少数一些人和自然和谐相处的地方。
  1. J:\巡游大世界Somewhere On Earth.HDTV.1080i.H264.AC3-tbw\巡游大世界Somewhere On Earth.HDTV.1080i.H264.AC3.EP01-tbw.ts
    ! v( J$ R; K: G& b1 G- M( k
  2.   General #1  D: f' f4 |* z1 f% \
  3.      ID : 1 (0x1)
    & E9 u7 Z( z) }- k
  4.      Complete name : J:\巡游大世界Somewhere On Earth.HDTV.1080i.H264.AC3-tbw\巡游大世界Somewhere On Earth.HDTV.1080i.H264.AC3.EP01-tbw.ts
    . r' d# S) R' c
  5.      Format : MPEG-TS
    1 ]3 a. l, f. [5 K& k
  6.      File size : 3.09 GiB( A3 l& b; w% c. O0 t
  7.      Duration : 51mn 58s8 l) m9 c6 F) V3 R( e! M1 C
  8.      Overall bit rate : 8 514 Kbps8 Z$ c! \" K9 x) E4 ?& F
  9.   Video #311
    8 p2 I" K4 K( Z. w
  10.      ID : 311 (0x137)5 s7 l; T/ Y- K/ K
  11.      Menu ID : 1 (0x1)% d/ W9 U  q" L3 m1 T0 u
  12.      Format : AVC
    $ E7 x  m6 Y1 `
  13.      Format/Info : Advanced Video Codec
    : a$ W2 [; l8 B; u7 |
  14.      Format profile : [email protected]: v: W/ R. Z0 e
  15.      Format settings, CABAC : Yes$ j  \- E7 O' F  Q7 C9 K$ N
  16.      Format settings, ReFrames : 4 frames
    . p8 y" i8 J/ u- \! o: x
  17.      Codec ID : 27
    5 X( h- o; V! f- i) p  m5 C5 U
  18.      Duration : 51mn 59s) K* _, _: |: h
  19.      Bit rate : 7 834 Kbps! X4 F+ c/ G* K2 i/ l( S9 f
  20.      Width : 1 920 pixels
    # O2 @+ z# [, a9 a
  21.      Height : 1 080 pixels3 _, B1 h" D, d5 ^. @
  22.      Display aspect ratio : 16:9
    0 }$ Z6 A# ?# L6 T
  23.      Frame rate : 25.000 fps
    * c! w; s' i& b# V5 [! V8 q
  24.      Color space : YUV+ c$ m1 J$ M- n3 ]8 D/ N
  25.      Chroma subsampling : 4:2:09 O. ?; v1 Y4 m0 F4 X' h" O# W$ ^
  26.      Bit depth : 8 bits
    1 p1 V# k9 c1 x1 ?2 W8 L
  27.      Scan type : MBAFF; {. V6 |% H3 S5 B
  28.      Scan order : Top Field First# Y% r  G8 t" Q0 V* ?5 t4 ^
  29.      Bits/(Pixel*Frame) : 0.151+ [( E4 x6 V. C) Q  c
  30.      Stream size : 2.84 GiB (92%)  d& |* T, j) y- p1 U$ h, ^. b5 l
  31.      Color primaries : BT.709-5, BT.1361, IEC 61966-2-4, SMPTE RP177
    / ~6 e+ P3 I* j1 N
  32.      Transfer characteristics : BT.709-5, BT.13617 C2 J; M! n$ Z) }' w# F8 s; O
  33.      Matrix coefficients : BT.709-5, BT.1361, IEC 61966-2-4 709, SMPTE RP1778 x9 V) V; |* h! c
  34.   Audio #312- F0 w* @0 r+ z$ _, i
  35.      ID : 312 (0x138)0 _; \" U$ ]% S! a$ E7 L# C2 [( t, w
  36.      Menu ID : 1 (0x1)
    1 m5 s$ w3 x, ~8 f( d
  37.      Format : AC-3! A" Z# ]% j. r; q% Y0 u
  38.      Format/Info : Audio Coding 3
    / H* N9 i/ S, m: R3 w! f+ p
  39.      Mode extension : CM (complete main)6 n! r* n% ]' l" F/ U' e: d+ o
  40.      Codec ID : 6
    + O; e. n, `; I, {9 f+ V; r! ~
  41.      Duration : 51mn 59s
    ! e, V; e2 M" }. a; d+ ~
  42.      Bit rate mode : Constant; [- c9 F6 g3 L7 S5 J
  43.      Bit rate : 128 Kbps: W9 [$ H2 C+ H; @
  44.      Channel(s) : 2 channels
    0 `* R1 o4 ^0 \8 |4 J. @
  45.      Channel positions : Front: L R/ Q4 V/ b7 e8 @- ~8 @
  46.      Sampling rate : 48.0 KHz* {1 l/ N! m/ N$ Z3 Y- s
  47.      Bit depth : 16 bits' h9 V1 R1 i2 n9 L3 |' Q+ w7 R
  48.      Compression mode : Lossy
    $ C1 M' ?! z5 J5 y2 q8 F
  49.      Stream size : 47.6 MiB (2%)
    , i, r: _2 i# j8 y+ @5 C$ b
  50.      Language : English
    $ p+ q( q0 t. \% Q. n
  51.   Audio #313: i& O  q9 \' _
  52.      ID : 313 (0x139)
    , i: o3 z2 V2 N; Y/ M9 t
  53.      Menu ID : 1 (0x1)7 @6 Q) A4 }% n
  54.      Format : AC-3, [  e1 _7 E0 h2 ?  m; n% X
  55.      Format/Info : Audio Coding 3" d% n5 ?$ ]+ b  c
  56.      Mode extension : CM (complete main)
    ! N% z/ |" W* a
  57.      Codec ID : 6
    * o6 |) H" b1 ]% D$ c* p- i
  58.      Duration : 51mn 58s
    & u# A2 H( |/ J! t- Z- i( [
  59.      Bit rate mode : Constant
    3 J2 d6 x+ a0 p% S" X) e) R
  60.      Bit rate : 128 Kbps
      ?1 f, U9 H! w
  61.      Channel(s) : 2 channels" _5 \  \5 ^" t- P
  62.      Channel positions : Front: L R
    5 L5 a$ [  [/ y, f) n8 D$ r& Y2 h  w
  63.      Sampling rate : 48.0 KHz
    ( r! B3 q5 t# S6 ^1 g
  64.      Bit depth : 16 bits4 A" [; b" o. J
  65.      Compression mode : Lossy
    : g3 A# p% R  Y$ O
  66.      Stream size : 47.6 MiB (2%)9 }% }) X& t# G6 h8 K- w4 x. v
  67.      Language : English
复制代码
& H+ a0 q8 A0 |7 J
$ o* t  l$ k. U0 E% I- M' I# |

, h+ a$ W7 c6 T# @                               
登录/注册后可看大图
" T9 x* c6 E* z( r* c

/ ]$ ], e9 O  ~- w0 U

, p/ E9 A! U  z7 J1 |4 i2 V                               
登录/注册后可看大图

" o; o( ]+ l8 [7 i1 ^$ ~3 J( U% p+ v; X6 ?2 [% U  E6 L
' W4 @$ n" }% m$ r$ s% d; L8 c
                               
登录/注册后可看大图
' q+ _; t& U: _

0 w5 v8 q5 t2 J; [4 |- \

0 K& A, G, |, D! `# ?) R7 d                               
登录/注册后可看大图

/ x7 i7 k. Q9 o: A% d- ^& Z3 t2 `! o) {' u1 q

; k+ O2 b) O: _3 q6 y  d0 S  D                               
登录/注册后可看大图

4 ^8 S7 k) u" U  d# c  S4 @
# Y' R, a5 Q* B) P' x8 M

5 Y" P' [, P" A1 q) N9 n8 z7 z6 g                               
登录/注册后可看大图
8 W0 C) E, p) j9 [! h
! ^: v3 f& T( s1 |8 m- ]

. ^- ^' k. ~" Y' k                               
登录/注册后可看大图

' h5 ~% g$ F* b& i3 _' M
, d! D6 t, a! U8 V; F" S' q
8 q5 t% M. h! P# s
                               
登录/注册后可看大图

, X$ F& {! m5 f( n8 c; i3 J
% S2 \# @- x0 n& L  Y$ M5 C9 S

# V2 _, t1 T$ N# [# r                               
登录/注册后可看大图
- a& r+ U, x4 i- Y0 C% Q/ w. J

7 g* o& O" D* S【下载地址】
2 A/ ]0 h- F) g" T
+ M+ ]' A% }- C* \" L
游客,如果您要查看本帖隐藏内容请回复  捐助论坛可免回复查看隐藏内容 详情请点击
最近访问 头像模式 列表模式
HD一条街,身边的一条街。
dnshud 该用户已被删除
发表于 2014-3-14 21:07:40 | 显示全部楼层
提示: 作者被禁止或删除 内容自动屏蔽
HD一条街,身边的一条街。
发表于 2014-3-14 21:39:55 | 显示全部楼层
谢谢分享,开心了
HD一条街,身边的一条街。
雅蓉 该用户已被删除
发表于 2014-3-14 23:04:12 | 显示全部楼层
提示: 作者被禁止或删除 内容自动屏蔽
HD一条街,身边的一条街。
发表于 2014-3-15 03:06:35 | 显示全部楼层
影视资源尽在HD一条街中,
HD一条街,身边的一条街。
丿灬尛默丶 该用户已被删除
发表于 2014-3-15 03:13:00 | 显示全部楼层
提示: 作者被禁止或删除 内容自动屏蔽
HD一条街,身边的一条街。
发表于 2014-3-15 10:19:11 | 显示全部楼层
影视资源尽在HD一条街中,
HD一条街,身边的一条街。
发表于 2014-3-16 00:47:27 | 显示全部楼层
這是一部好片子
HD一条街,身边的一条街。
发表于 2014-3-16 00:48:10 | 显示全部楼层
這是一部好片子,要下全部
HD一条街,身边的一条街。
发表于 2014-3-17 10:00:22 | 显示全部楼层
回复看看,谢谢楼主分享
HD一条街,身边的一条街。

手机版|小黑屋|有问题发邮件到admin#(换成@)hd1tj.org|微博|免责申明|HD一条街

GMT+8, 2017-3-29 05:44

Powered by Discuz! X3.1

© 2001-2013 Comsenz Inc.

快速回复 返回顶部 返回列表