开启辅助访问 切换到窄版

HD一条街论坛

 找回密码
 立即注册
查看: 721|回复: 30

[港台] RTHK31 巡遊大世界 第1-5集 粤、英双语 繁体硬字幕 Somewhere On Earth HDTV 1080i H264 AC3 EP01-05-tbw

[复制链接]
发表于 2014-3-13 12:24:30 | 显示全部楼层 |阅读模式
7 V5 o  M( W1 p* v, ~( d
                               
登录/注册后可看大图
% t; _' [1 B: y# S) L% z
4 S, w9 q& C# z0 C( Q2 t- ~: s
简介& _  p) y( {8 z5 l! ]( ]& w
第1集  密克罗尼西亚
5 o3 `- t  i" K' [4 z第2集 哥斯达黎加# I4 N* T) t" q
第3集 阿拉斯加4 k0 K+ Y6 s  R7 p
第4集 坦桑尼亚/ G7 m( F2 m$ g! [* ]$ `
第5集 新西兰
9 p/ U6 m, h0 o- m) V
2 i0 S7 M- \1 i7 y
  1. J:\巡游大世界Somewhere On Earth.HDTV.1080i.H264.AC3-tbw\巡游大世界Somewhere On Earth.HDTV.1080i.H264.AC3.EP01-tbw.ts
    * A: @5 Z9 p' i' t: d
  2.   General #1) t, U! T# Y  A6 k1 e6 C% h
  3.      ID : 1 (0x1): v. I9 p! K  l' j
  4.      Complete name : J:\巡游大世界Somewhere On Earth.HDTV.1080i.H264.AC3-tbw\巡游大世界Somewhere On Earth.HDTV.1080i.H264.AC3.EP01-tbw.ts
    % Z2 U/ W8 ]1 E+ Z$ ?
  5.      Format : MPEG-TS4 d5 G7 H& a% A% R3 M- A
  6.      File size : 3.09 GiB
    ( k3 l6 B8 J, T8 o* K) N0 T1 v
  7.      Duration : 51mn 58s
    1 Y: E  V  L8 ]7 X5 z
  8.      Overall bit rate : 8 514 Kbps
    1 C8 j6 r% m. C
  9.   Video #311
    1 U- Y6 \5 G' d: ^8 ]. U
  10.      ID : 311 (0x137)
    / x/ v! P3 `$ _
  11.      Menu ID : 1 (0x1)1 d  E) s" [, K5 Q- K' U
  12.      Format : AVC5 A7 h0 |9 k4 h3 c$ L! r- Q; {) M
  13.      Format/Info : Advanced Video Codec' u0 S. M1 I. L- X
  14.      Format profile : [email protected]
    7 x2 j$ `, P' b/ a) d8 h
  15.      Format settings, CABAC : Yes
    ! i% t8 _& J( \7 T0 p4 Q
  16.      Format settings, ReFrames : 4 frames/ [/ l5 q/ R6 A  ^  e* q) @! d
  17.      Codec ID : 27
    : O1 _( z. @, ~% r4 n
  18.      Duration : 51mn 59s: ?) I4 p: N- R! C
  19.      Bit rate : 7 834 Kbps$ J- Q/ s. S+ u/ c1 D9 j7 {. X
  20.      Width : 1 920 pixels
    ' {9 v/ u: |# X$ C
  21.      Height : 1 080 pixels7 c4 I; Q2 ~) ^6 P$ L5 o
  22.      Display aspect ratio : 16:9
    5 Q& B' I" g2 _/ _9 |! I$ L9 k
  23.      Frame rate : 25.000 fps
    8 J+ ?3 r% N1 H; b6 A% Y( }7 E
  24.      Color space : YUV9 A. X: I; G6 P- p8 d
  25.      Chroma subsampling : 4:2:04 S8 a" V* e6 x8 u- J5 v) d
  26.      Bit depth : 8 bits
    ) \3 W; k8 x0 |' a
  27.      Scan type : MBAFF& Z& ~& g4 x! y) F5 I  b; [' v# n, J
  28.      Scan order : Top Field First: F" l+ U5 x2 d: p* H
  29.      Bits/(Pixel*Frame) : 0.151
    ' E) ]7 e( @, A! A$ O+ \
  30.      Stream size : 2.84 GiB (92%)
    " j5 `+ I; H" O3 `
  31.      Color primaries : BT.709-5, BT.1361, IEC 61966-2-4, SMPTE RP177
    / ^; N  m# x$ K! t2 i7 K  t
  32.      Transfer characteristics : BT.709-5, BT.1361( w. R7 S2 ]- A$ c( t3 O# H, l
  33.      Matrix coefficients : BT.709-5, BT.1361, IEC 61966-2-4 709, SMPTE RP177
    - }. R# X2 m! y+ I5 m7 H" ]
  34.   Audio #312/ b+ v& q. r& z* ?
  35.      ID : 312 (0x138)* l/ T4 U0 d& d2 C( t$ u
  36.      Menu ID : 1 (0x1)
    8 [2 R; i9 U5 z8 l- ]1 B3 x# O. w
  37.      Format : AC-3' y/ C( R1 F3 P/ c* _
  38.      Format/Info : Audio Coding 3
    " I& J1 u4 }1 Q
  39.      Mode extension : CM (complete main)8 T( _' T0 f6 r7 Z% j
  40.      Codec ID : 6
    8 P( \1 M/ X% q2 ^
  41.      Duration : 51mn 59s+ @7 [4 r7 T8 e/ @* @7 i0 }3 S6 V
  42.      Bit rate mode : Constant
    * l3 A6 y  Z  Q- r  u3 o7 J8 [
  43.      Bit rate : 128 Kbps
    * V6 |  M! [* `0 h- F
  44.      Channel(s) : 2 channels( v3 [2 S, \$ n  g8 p
  45.      Channel positions : Front: L R
    0 Q0 b3 {3 y& f9 r9 w
  46.      Sampling rate : 48.0 KHz: V: o# y$ J$ p! g: D, y. T6 Z
  47.      Bit depth : 16 bits& z/ n- _5 g0 |2 t% @$ B0 V% g$ h8 b
  48.      Compression mode : Lossy
    - L: \5 v: o+ x! t; [+ @
  49.      Stream size : 47.6 MiB (2%)9 P9 U, |7 c, C# P# j
  50.      Language : English2 @- b4 \# ?  E, k* k. `3 u
  51.   Audio #313* n& w' L6 c! V$ k4 t
  52.      ID : 313 (0x139)
    : l% G! }! D! V+ N
  53.      Menu ID : 1 (0x1)
    9 ~; U( u% I' Q8 v
  54.      Format : AC-3# N+ J! y3 r; l# p! l6 y" B# ~
  55.      Format/Info : Audio Coding 3
    % o* g- s. b3 N$ q+ F2 \
  56.      Mode extension : CM (complete main)4 P3 U4 g, e. M
  57.      Codec ID : 6
    % w6 f) t5 r- k7 ?$ `, w9 L- I
  58.      Duration : 51mn 58s
    / e+ t1 V3 N4 _! `1 N3 l- @
  59.      Bit rate mode : Constant
      J) H" ]) l2 ~& O; [
  60.      Bit rate : 128 Kbps: m/ A$ H4 |. ]$ {, ~0 |
  61.      Channel(s) : 2 channels
    ! x! [( v" D9 }3 d
  62.      Channel positions : Front: L R& Q( H$ z- q+ j5 G) n/ ]' J6 G
  63.      Sampling rate : 48.0 KHz; |8 A, Z  x! e' _* R" _5 A' k
  64.      Bit depth : 16 bits$ ^9 L; `; U/ [( E. c8 a( k; F
  65.      Compression mode : Lossy  p3 ~) D0 ^+ U) k, ?: x
  66.      Stream size : 47.6 MiB (2%)2 G) K8 W9 i) m8 K8 B# T" z  C) ~* B
  67.      Language : English
复制代码

( ?  a: @" g: J3 f0 O
; ^! ~; s$ C) a6 F, j
/ H- i* T. F1 }  S5 A3 s- P- u1 Z
                               
登录/注册后可看大图
( a' t- ]* u- |) L
: Z. l3 h! Y; O! I6 ?

) P+ [' G" |0 m2 c5 ~% Y% F" n: q                               
登录/注册后可看大图

4 k2 G3 @+ ?! `, j
9 J- T' T0 L6 J5 E7 O
, a3 a0 R# I: C" R9 B
                               
登录/注册后可看大图
: }& p- j! U* `! x  T$ t6 }
6 s  s# S  @$ C. i1 |' A
! c- X) r2 [0 z* _; u1 E5 t6 b0 S
                               
登录/注册后可看大图

% l8 a, |9 j+ V4 I( \, K( b& f2 Q4 a0 W

& a; q2 n& j7 X1 {$ M4 u8 L; o: w9 ~                               
登录/注册后可看大图
2 T4 z* d1 R' p: R6 s5 @6 N

) Y8 @% d8 f' u
3 c6 R6 g" F) N5 B+ C' o4 e
                               
登录/注册后可看大图

2 S$ x( x6 A/ g% T, `3 A$ l3 c6 s, D7 d. b- }" d9 a1 f
4 Y* t8 ~* \5 f2 @3 h
                               
登录/注册后可看大图

" _! K1 _6 q- L# K( I9 F* M9 @2 y5 x9 O: ]; l6 s- p
! w! d. R- U  T6 }# B' G
                               
登录/注册后可看大图
- C3 l0 W; a) Z" C8 y/ v9 R1 P

( P1 T4 W5 R/ ]0 J【下载地址】
  v" a6 U/ K1 q- f! z, S7 v! e1 v% y. h! `6 S: T
游客,如果您要查看本帖隐藏内容请回复  捐助论坛可免回复查看隐藏内容详情请点击
最近访问 头像模式 列表模式
HD一条街,身边的一条街。
恋恋1983 该用户已被删除
发表于 2014-3-13 12:24:47 来自手机 | 显示全部楼层
提示: 作者被禁止或删除 内容自动屏蔽
HD一条街,身边的一条街。
发表于 2014-3-13 16:03:51 | 显示全部楼层
抵制论坛使用这个“ 幸运榜 / 衰神榜 ”垃圾插件
HD一条街,身边的一条街。
发表于 2014-3-13 16:22:25 | 显示全部楼层
影视资源尽在HD一条街中, 哦也!
HD一条街,身边的一条街。
发表于 2014-3-13 17:46:16 | 显示全部楼层
必须看,这辈子可能都不能去的地方
HD一条街,身边的一条街。
海豚的心事 该用户已被删除
发表于 2014-3-13 20:01:12 | 显示全部楼层
提示: 作者被禁止或删除 内容自动屏蔽
HD一条街,身边的一条街。
发表于 2014-3-14 11:57:29 | 显示全部楼层
影视资源尽在HD一条街中, 哦也!
HD一条街,身边的一条街。
的撒谎读的 该用户已被删除
发表于 2014-3-15 12:36:58 | 显示全部楼层
提示: 作者被禁止或删除 内容自动屏蔽
HD一条街,身边的一条街。
ytyutrtr 该用户已被删除
发表于 2014-3-15 23:52:10 | 显示全部楼层
提示: 作者被禁止或删除 内容自动屏蔽
HD一条街,身边的一条街。
发表于 2014-3-16 00:45:08 | 显示全部楼层
我要找到全部
HD一条街,身边的一条街。
您需要登录后才可以回帖 登录 | 立即注册

本版积分规则

手机版|小黑屋|有问题发邮件到admin#(换成@)hd1tj.org|微博|免责申明|HD一条街

GMT+8, 2016-12-3 12:38

Powered by Discuz! X3.1

© 2001-2013 Comsenz Inc.

快速回复 返回顶部 返回列表