开启辅助访问 切换到窄版

HD一条街论坛

 找回密码
 加入我们
查看: 821|回复: 30

[港台] RTHK31 巡遊大世界 第1-5集 粤、英双语 繁体硬字幕 Somewhere On Earth HDTV 1080i H264 AC3 EP01-05-tbw

[复制链接]
发表于 2014-3-13 12:24:30 | 显示全部楼层 |阅读模式
2 V) z& b5 l, i8 F6 ]. j) |2 @
                               
登录/注册后可看大图

( L' Y( f3 n; }7 M/ O& U$ w7 m4 `
3 P6 v3 v" K3 s% t# _简介2 B- V  H( |9 k# B/ X. N- n
第1集  密克罗尼西亚
1 O6 o' }# i' a3 O0 M' @+ I第2集 哥斯达黎加
( A. ~3 U/ [2 G2 j第3集 阿拉斯加. C$ r  r4 M, b# f8 s  s
第4集 坦桑尼亚$ `6 n: A2 G: \+ b& ^# S$ F
第5集 新西兰
7 q, T" ~9 N/ d1 S/ ?6 }! _' j  w1 K( n
  1. J:\巡游大世界Somewhere On Earth.HDTV.1080i.H264.AC3-tbw\巡游大世界Somewhere On Earth.HDTV.1080i.H264.AC3.EP01-tbw.ts9 D! r4 K. V4 x4 P8 @( {
  2.   General #1; ~$ O6 |; s+ ], F1 ]0 z
  3.      ID : 1 (0x1)+ Z5 Q% g' e4 w: ?
  4.      Complete name : J:\巡游大世界Somewhere On Earth.HDTV.1080i.H264.AC3-tbw\巡游大世界Somewhere On Earth.HDTV.1080i.H264.AC3.EP01-tbw.ts5 t6 |) g+ w% G% t3 H1 F, [8 H
  5.      Format : MPEG-TS+ H; v  `8 q/ q, y. W9 }) w3 m
  6.      File size : 3.09 GiB" s& w( O2 {+ G* s" `
  7.      Duration : 51mn 58s
    ; |8 D; r( p5 n5 A
  8.      Overall bit rate : 8 514 Kbps
    1 q* C* r6 Z" Q: S9 S6 ~2 @# b: M  d
  9.   Video #3116 Q* G! G) o( X6 G
  10.      ID : 311 (0x137)
    2 y) S' B8 v0 k2 a1 w0 D' V
  11.      Menu ID : 1 (0x1)- z3 L& ?( \3 v4 S: w& e( h
  12.      Format : AVC4 H$ y& T- b: [2 @( f9 ?+ G0 M
  13.      Format/Info : Advanced Video Codec
    * b  F/ M+ h& n% N* ?: r
  14.      Format profile : [email protected]
    7 S! u% P$ {3 x7 F$ B# N  e' c
  15.      Format settings, CABAC : Yes- S% _! y& h9 `. x( z6 J
  16.      Format settings, ReFrames : 4 frames% M5 |0 F0 N+ O5 F
  17.      Codec ID : 272 a. L, v4 l1 ~$ B0 O+ z0 ~, i7 j
  18.      Duration : 51mn 59s, n2 b* S4 H3 h$ {
  19.      Bit rate : 7 834 Kbps$ s+ E; h, [- m
  20.      Width : 1 920 pixels
    * H- f- h# J9 Y# B: x& x3 D/ C+ s3 [4 r
  21.      Height : 1 080 pixels% M1 a# E5 f. d7 B
  22.      Display aspect ratio : 16:9
    + h. w% D; l$ L/ k% n1 c
  23.      Frame rate : 25.000 fps+ q. c+ n) d& F8 @" O6 z: i0 q- @
  24.      Color space : YUV
    , |8 ^* C7 I% `% c$ z4 ?4 d1 j; p
  25.      Chroma subsampling : 4:2:0
    : `6 U2 }) j0 s+ I  g
  26.      Bit depth : 8 bits3 |- u7 b: m+ J
  27.      Scan type : MBAFF) o* r, w3 x7 x# [; u% Q
  28.      Scan order : Top Field First
    $ R+ i, ^  V$ I6 V, d+ g
  29.      Bits/(Pixel*Frame) : 0.151
    1 E% s" K) S0 L8 s+ @
  30.      Stream size : 2.84 GiB (92%)
    / _+ j5 P! `( X2 E
  31.      Color primaries : BT.709-5, BT.1361, IEC 61966-2-4, SMPTE RP177
    , X: N- L/ |% `
  32.      Transfer characteristics : BT.709-5, BT.1361
      f  u9 j% }# Z3 X, g) r
  33.      Matrix coefficients : BT.709-5, BT.1361, IEC 61966-2-4 709, SMPTE RP1771 h/ O+ B5 K1 S5 r$ v
  34.   Audio #312
    / M8 }6 ^: E- `- w+ R
  35.      ID : 312 (0x138)
    * X, A, N/ m2 a9 h  {4 q
  36.      Menu ID : 1 (0x1)
    8 n) x+ e3 @2 d* {. v
  37.      Format : AC-3
    8 Y7 e: U6 w8 w) n. j+ \- M# L: A
  38.      Format/Info : Audio Coding 3- `/ I+ k$ J- ~9 b
  39.      Mode extension : CM (complete main)( ^0 ^* v: K9 Q* j) ~- h; ]  b7 h  Z
  40.      Codec ID : 6
    * K! K% g; L1 {0 U! D
  41.      Duration : 51mn 59s
    7 G( @  o3 A9 p# k, c0 A
  42.      Bit rate mode : Constant' A5 d+ \; M; w, ^0 X
  43.      Bit rate : 128 Kbps8 u5 o" T$ j9 ^- d( j  V7 q2 H# A
  44.      Channel(s) : 2 channels
    ' l( S" Z0 C6 l0 k1 [! H4 `
  45.      Channel positions : Front: L R* ?, M6 _2 q, K* B! i2 G
  46.      Sampling rate : 48.0 KHz
    4 J3 O, ]) i# m& Y2 w2 r
  47.      Bit depth : 16 bits! q/ ~9 a0 F6 e* }7 F: k; {3 _
  48.      Compression mode : Lossy$ J5 T, ?( Z' T7 Q0 |6 G
  49.      Stream size : 47.6 MiB (2%)3 a) x* L- m; i6 |5 _0 N
  50.      Language : English
    * C0 b7 B: h2 C! U1 s5 m
  51.   Audio #313
    2 R0 f) f/ I0 z$ i
  52.      ID : 313 (0x139)
    4 v3 r' E3 v1 d! @. A3 q  y2 p1 ?, ^
  53.      Menu ID : 1 (0x1)( _& B! [- h& o$ U8 o, y
  54.      Format : AC-3
    $ n7 E" ]# {5 j. P
  55.      Format/Info : Audio Coding 35 {& H* J& [! i6 ~7 I. R
  56.      Mode extension : CM (complete main)# o9 w2 Y' ^  b; K4 ~) A
  57.      Codec ID : 6' Z, r- y. A0 G& Q( a9 B# `4 K% Q
  58.      Duration : 51mn 58s- p  R* L) E4 ?& h# F: f# j
  59.      Bit rate mode : Constant2 |4 o+ V! m( _
  60.      Bit rate : 128 Kbps" T2 K1 i% t" v' ]4 v9 g
  61.      Channel(s) : 2 channels
    7 _, J, Z2 J( R7 Z$ X7 X, d4 W9 u
  62.      Channel positions : Front: L R, e1 \4 B) }2 q  B, X
  63.      Sampling rate : 48.0 KHz
    % K/ q$ f  S: Q- N
  64.      Bit depth : 16 bits2 I1 Q: F% I5 b# g
  65.      Compression mode : Lossy
    . C, M* R2 ?/ Z+ w% v3 D. w0 u1 B$ R
  66.      Stream size : 47.6 MiB (2%)6 J: l9 t$ y+ m, n; b4 e) l
  67.      Language : English
复制代码

, `2 g' X7 Y  R* [
* o* ~2 z- B) q' a2 G$ v7 n4 g) X

+ v4 V7 O3 C: s; L2 C  z/ h$ X                               
登录/注册后可看大图

. f3 f) S3 S, o2 M( b. ~) k: P8 O8 J: W, `; x
/ u: b+ F6 L) ~# N+ X
                               
登录/注册后可看大图

. m+ \) _9 c+ K* e% x# u- q
" }& s) k, n1 E

$ n+ K2 Y& P+ O6 v+ W/ f                               
登录/注册后可看大图

5 Y& R) m0 `. Y; q7 n5 @+ ^1 ]+ T$ ^

% o. q$ e& `$ L" }7 Z6 p% R                               
登录/注册后可看大图

2 e: }/ ~* N6 d! M5 N. p8 ^& ]; Z4 ~0 L; B5 d/ a- A
2 b! n% V$ H7 a+ A7 e3 |
                               
登录/注册后可看大图

. Q. \7 d" U+ M0 ]+ s' ~, j/ t: J& k# \( X& |" b; D4 H) l- N
$ L  w0 V3 I* M, {, X
                               
登录/注册后可看大图
% j) Z9 t& [) V% M! U  m/ k

. H9 s& T/ N! q2 {* l
8 z9 C8 ?4 M9 U$ P8 r; m/ {
                               
登录/注册后可看大图
) d4 D; P! r# Q! \$ _3 Q% H

0 ^0 ^2 L0 M" X- K: \% V- ~4 B! ], E
3 G0 p4 D+ d# l6 d. D
                               
登录/注册后可看大图
. u  a0 y# ]) F# y! D

: ?  f6 H0 _% U. v1 f【下载地址】" b  n1 L% r. m/ {) X4 K4 T- ?3 o+ e
7 q. ^, q/ _8 }3 C
游客,如果您要查看本帖隐藏内容请回复  捐助论坛可免回复查看隐藏内容 详情请点击
最近访问 头像模式 列表模式
HD一条街,身边的一条街。
恋恋1983 该用户已被删除
发表于 2014-3-13 12:24:47 来自手机 | 显示全部楼层
提示: 作者被禁止或删除 内容自动屏蔽
HD一条街,身边的一条街。
发表于 2014-3-13 16:03:51 | 显示全部楼层
抵制论坛使用这个“ 幸运榜 / 衰神榜 ”垃圾插件
HD一条街,身边的一条街。
发表于 2014-3-13 16:22:25 | 显示全部楼层
影视资源尽在HD一条街中, 哦也!
HD一条街,身边的一条街。
发表于 2014-3-13 17:46:16 | 显示全部楼层
必须看,这辈子可能都不能去的地方
HD一条街,身边的一条街。
海豚的心事 该用户已被删除
发表于 2014-3-13 20:01:12 | 显示全部楼层
提示: 作者被禁止或删除 内容自动屏蔽
HD一条街,身边的一条街。
发表于 2014-3-14 11:57:29 | 显示全部楼层
影视资源尽在HD一条街中, 哦也!
HD一条街,身边的一条街。
的撒谎读的 该用户已被删除
发表于 2014-3-15 12:36:58 | 显示全部楼层
提示: 作者被禁止或删除 内容自动屏蔽
HD一条街,身边的一条街。
ytyutrtr 该用户已被删除
发表于 2014-3-15 23:52:10 | 显示全部楼层
提示: 作者被禁止或删除 内容自动屏蔽
HD一条街,身边的一条街。
发表于 2014-3-16 00:45:08 | 显示全部楼层
我要找到全部
HD一条街,身边的一条街。
您需要登录后才可以回帖 登录 | 加入我们

本版积分规则

手机版|小黑屋|有问题发邮件到admin#(换成@)hd1tj.org|微博|免责申明|HD一条街

GMT+8, 2017-1-25 03:22

Powered by Discuz! X3.1

© 2001-2013 Comsenz Inc.

快速回复 返回顶部 返回列表