开启辅助访问 切换到窄版

HD一条街论坛

 找回密码
 立即注册
查看: 856|回复: 30

[港台] RTHK31 巡遊大世界 第1-5集 粤、英双语 繁体硬字幕 Somewhere On Earth HDTV 1080i H264 AC3 EP01-05-tbw

[复制链接]
发表于 2014-3-13 12:24:30 | 显示全部楼层 |阅读模式
$ _" T  s, ^" h( m: v% h& Y; G3 f
                               
登录/注册后可看大图
) T+ @, F$ ]+ M  w0 S
- A: C3 U0 a3 k  @4 u: {. r1 o
简介
4 Y$ Y; D( Z2 j1 \第1集  密克罗尼西亚
( o) O7 `% ?& X第2集 哥斯达黎加
  E+ Q) e8 R3 c- T7 H第3集 阿拉斯加
1 G* C' [' i: ?) L# @第4集 坦桑尼亚
) T( O' f8 B# N% }第5集 新西兰3 p  e+ r! U' E6 f0 K

1 p' K0 H' ~- r# J5 j' S8 x# T
  1. J:\巡游大世界Somewhere On Earth.HDTV.1080i.H264.AC3-tbw\巡游大世界Somewhere On Earth.HDTV.1080i.H264.AC3.EP01-tbw.ts: W" C* k! c- a$ G+ G5 @
  2.   General #1# O; j! U9 F: W4 i; {: `
  3.      ID : 1 (0x1)
    1 P; @( a! n$ ?( T9 [; L7 A
  4.      Complete name : J:\巡游大世界Somewhere On Earth.HDTV.1080i.H264.AC3-tbw\巡游大世界Somewhere On Earth.HDTV.1080i.H264.AC3.EP01-tbw.ts, y" E! P- h# J
  5.      Format : MPEG-TS8 X, n0 _3 [& }
  6.      File size : 3.09 GiB& L) F( L3 A8 \
  7.      Duration : 51mn 58s
    ) w$ x5 y, H2 r  `3 {5 M, h1 D
  8.      Overall bit rate : 8 514 Kbps
    % ?, M9 L# B. W' r
  9.   Video #311
      X' {  F% l% D. v4 \
  10.      ID : 311 (0x137)  ^) o  i, ?" a  g1 g
  11.      Menu ID : 1 (0x1), f8 D0 M7 y9 q6 \
  12.      Format : AVC
    , ^6 l' v( L" i+ i
  13.      Format/Info : Advanced Video Codec4 k; G/ ~" h  d& |0 H
  14.      Format profile : [email protected]
    5 ^* _/ a! M, E% L. X
  15.      Format settings, CABAC : Yes
    : D& T* T+ a, f7 z! D8 S8 ?) E$ a
  16.      Format settings, ReFrames : 4 frames6 L5 h6 O1 @2 `9 p7 R& @
  17.      Codec ID : 27
    8 s" o1 U2 c# T' |1 `! R, U  S
  18.      Duration : 51mn 59s
    / J( M1 _6 |/ F) v
  19.      Bit rate : 7 834 Kbps6 I; d# M- c  m% k' b# W8 h
  20.      Width : 1 920 pixels
    - S, {* Z6 A+ \# r9 F6 i
  21.      Height : 1 080 pixels. b) L) r5 U+ n) [  k; @- o
  22.      Display aspect ratio : 16:97 L0 C( P! ^, Q  B5 q7 M! S& R
  23.      Frame rate : 25.000 fps
    ) {7 ?; g2 ~, K- m
  24.      Color space : YUV
    4 d+ M% d4 O# u* a
  25.      Chroma subsampling : 4:2:0) Q/ D: x/ a, k1 n2 Z9 X
  26.      Bit depth : 8 bits9 y- t0 ?* b3 s# T; i
  27.      Scan type : MBAFF. `' ~8 D/ b6 h
  28.      Scan order : Top Field First
    1 O7 P( Y( h6 p2 S
  29.      Bits/(Pixel*Frame) : 0.151& [( H' x' z1 k2 C7 T1 i
  30.      Stream size : 2.84 GiB (92%)
    1 R/ r8 U0 d+ Y2 a8 v; g& W
  31.      Color primaries : BT.709-5, BT.1361, IEC 61966-2-4, SMPTE RP177
    2 f" a4 Z5 Z8 e
  32.      Transfer characteristics : BT.709-5, BT.1361
    , S3 Q: x4 Y( S2 R
  33.      Matrix coefficients : BT.709-5, BT.1361, IEC 61966-2-4 709, SMPTE RP1774 z6 |# ^( f+ n+ q* ]" t' s
  34.   Audio #312
    " ~4 f0 ~5 ^/ |" u0 Q4 z" i
  35.      ID : 312 (0x138)
    1 o2 O1 J; A6 D' ?" C- R8 D
  36.      Menu ID : 1 (0x1)' r2 L4 E- _9 @8 G
  37.      Format : AC-3' v/ e+ n& \! s, }( K
  38.      Format/Info : Audio Coding 3+ O# e8 u, z( W9 {, k3 P
  39.      Mode extension : CM (complete main)- M8 V$ r5 ]% ?
  40.      Codec ID : 6: [. W' m5 {6 ?) N$ n$ K' t$ V9 K
  41.      Duration : 51mn 59s) @1 D7 q6 C0 G( G9 Q: y% L
  42.      Bit rate mode : Constant
    & z) U0 S' A8 s! f& t6 W9 I7 ?6 e0 h
  43.      Bit rate : 128 Kbps
    ; {5 x- o) q6 U+ J( n% }) |
  44.      Channel(s) : 2 channels) }. J- @* T0 R- s5 Z* J
  45.      Channel positions : Front: L R
    ' m. A* A, O1 O, E2 u$ D
  46.      Sampling rate : 48.0 KHz
    - ~. _8 G. \/ F; q% D- g. x1 M
  47.      Bit depth : 16 bits- {3 R! h  _1 j
  48.      Compression mode : Lossy
    9 S2 S5 H1 u6 }! J
  49.      Stream size : 47.6 MiB (2%)* b( m" P3 e' U' `0 n: D
  50.      Language : English% M. ?7 F0 z5 p" Z. L# D, ^
  51.   Audio #313
    5 w, v+ L7 d/ p% |7 g, p& |3 H
  52.      ID : 313 (0x139)+ F5 {: ]6 _2 q; T$ t" \5 n
  53.      Menu ID : 1 (0x1)" U/ z8 F; p) S! E# Y
  54.      Format : AC-3
    0 a0 H3 Q; B5 A  J( ^2 F  Z
  55.      Format/Info : Audio Coding 3
    * b# o& Q! ?7 P$ |
  56.      Mode extension : CM (complete main)8 _9 _0 i5 ?0 r- j) M) P
  57.      Codec ID : 6
    # I9 R: `/ o# A; u1 m' v
  58.      Duration : 51mn 58s
    ; U; D8 \8 j# x+ d1 f! h
  59.      Bit rate mode : Constant
    9 V$ [7 L/ N: t
  60.      Bit rate : 128 Kbps
    0 c# _4 ?* P0 G. B. i
  61.      Channel(s) : 2 channels
    7 X: R* V4 Y7 t+ y$ E
  62.      Channel positions : Front: L R7 G. ]  u& X! O! W. j% K6 Z! e4 V; U
  63.      Sampling rate : 48.0 KHz  Y2 M6 k6 S9 p1 Y
  64.      Bit depth : 16 bits
    - ?' I* X5 `' }
  65.      Compression mode : Lossy
    + u/ o4 B* Z0 G; ]0 F! a8 a1 u/ x
  66.      Stream size : 47.6 MiB (2%)" a# d& N+ N2 Q5 x& S
  67.      Language : English
复制代码
9 M+ u2 i4 z1 E1 @
2 g. U9 c, W8 _3 F5 E  ]9 Y# O
! T4 l" I+ q# f) H8 f! k
                               
登录/注册后可看大图
0 P. Z+ _9 J  j

0 ~4 c" t8 r5 k1 }

3 ^  @2 r; s2 j! f3 X0 t  z                               
登录/注册后可看大图

# l! x$ `3 E; e; f  _
0 {, F1 b0 w9 R% d% G6 X* k5 O  R5 s: |5 y

: m* k8 u1 t' @; B1 G                               
登录/注册后可看大图
' L' c  |( k0 X1 t
" h( b( V1 M7 m* ^8 {2 W) g
/ h  k# }3 [! \' x
                               
登录/注册后可看大图

8 B. H* ]7 t$ v+ n% X
) K& r& [1 V9 F+ W

4 b4 w3 Z2 k; I3 @                               
登录/注册后可看大图
% f7 j2 f' h8 B! z' N$ F

8 {8 U; X2 h" r% C/ _$ R1 r

; }* {+ I7 p) C: Q                               
登录/注册后可看大图

- x; [' W: z! i6 M& a6 X0 ?5 \2 m8 I; p2 k1 e! \1 d) x

% E1 ~8 U/ l6 ^- Q& n                               
登录/注册后可看大图

! t! T0 g, o/ P: A( K) [' l
0 j0 I: T9 v! |4 l

4 q) q0 F4 ]% V1 I" E                               
登录/注册后可看大图
# H, K8 k, X1 s5 F

' n. M1 e2 U7 U# }" S【下载地址】
3 \5 c0 u0 @' z. X2 n$ h: e1 B$ r8 k2 l1 t4 l8 p
游客,如果您要查看本帖隐藏内容请回复  捐助论坛可免回复查看隐藏内容 详情请点击
最近访问 头像模式 列表模式
HD一条街,身边的一条街。
恋恋1983 该用户已被删除
发表于 2014-3-13 12:24:47 来自手机 | 显示全部楼层
提示: 作者被禁止或删除 内容自动屏蔽
HD一条街,身边的一条街。
发表于 2014-3-13 16:03:51 | 显示全部楼层
抵制论坛使用这个“ 幸运榜 / 衰神榜 ”垃圾插件
HD一条街,身边的一条街。
发表于 2014-3-13 16:22:25 | 显示全部楼层
影视资源尽在HD一条街中, 哦也!
HD一条街,身边的一条街。
发表于 2014-3-13 17:46:16 | 显示全部楼层
必须看,这辈子可能都不能去的地方
HD一条街,身边的一条街。
海豚的心事 该用户已被删除
发表于 2014-3-13 20:01:12 | 显示全部楼层
提示: 作者被禁止或删除 内容自动屏蔽
HD一条街,身边的一条街。
发表于 2014-3-14 11:57:29 | 显示全部楼层
影视资源尽在HD一条街中, 哦也!
HD一条街,身边的一条街。
的撒谎读的 该用户已被删除
发表于 2014-3-15 12:36:58 | 显示全部楼层
提示: 作者被禁止或删除 内容自动屏蔽
HD一条街,身边的一条街。
ytyutrtr 该用户已被删除
发表于 2014-3-15 23:52:10 | 显示全部楼层
提示: 作者被禁止或删除 内容自动屏蔽
HD一条街,身边的一条街。
发表于 2014-3-16 00:45:08 | 显示全部楼层
我要找到全部
HD一条街,身边的一条街。

手机版|小黑屋|有问题发邮件到admin#(换成@)hd1tj.org|微博|免责申明|HD一条街

GMT+8, 2017-3-30 20:48

Powered by Discuz! X3.1

© 2001-2013 Comsenz Inc.

快速回复 返回顶部 返回列表