开启辅助访问 切换到窄版

HD一条街论坛

 找回密码
 立即注册
查看: 7630|回复: 217

[国产] 【已更新网盘】CCTV9HD 一城一味 全7集 [中文内嵌字幕]CCTV9HD.Yi.Cheng.Yi.Wei.2014.HDTV.1080i.x264.AAC 3.13G

  [复制链接]
发表于 2014-2-5 15:41:51 | 显示全部楼层 |阅读模式
本帖最后由 让心灵去旅行 于 2014-5-28 16:41 编辑
7 C' i, J) F' `( b
. {0 {6 Y& p$ [- [/ `

( y' L9 U  J2 _0 S9 E                               
登录/注册后可看大图
7 K) H3 I' e( ?, t7 d

) w, L! l* J0 S/ l6 J6 o' {4 d. ^
5 P% I: I5 o, H4 t3 x  p    每集纪录一个城市。以专业厨师的视角走进城市深处,在街边小店,在百姓家庭,在餐厅酒楼,寻找发现最能代表城市特色的民间美食。以美食为主线索,串联起城市历史、文化、环境等纵深元素。以美食的味道,解析城市味道、城市气质。
* a0 j7 o- o7 k" M     《一城一味》第一季。从全国精心甄选七个城市作为拍摄地。囊括东南西北各个方位的特色美食、地域文化。以“变化的城市,不变的味道”为灵魂,传递“一方水土养一方人”的中国文化,以食物的美好,表达城市的美好,诠释城市魅力。8 j8 J; u0 q( [9 [: S. O. A

" X- m1 H! x. s9 lD:\一城一味\一城一味:芜湖.mp4' @8 r1 z! j& V3 N( p
General
8 t/ \* A% @4 a% N   Complete name : D:\一城一味\一城一味:芜湖.mp4
4 [4 e+ y6 ]: ^$ U) Y; \2 D, ]$ }   Format : MPEG-4
2 ]1 @* l8 J3 ^4 l   Format profile : Base Media / Version 2
6 }# z! B5 V/ t5 U, l- A1 }   Codec ID : mp42
0 |( ~: w! n: V" E6 g$ S! z0 ~   File size : 457 MiB/ Z" M7 m6 c4 Q: l
   Duration : 23mn 44s
" y6 w2 J% b# U" z   Overall bit rate mode : Variable
6 a6 @3 E2 n; @, k0 `/ s& T   Overall bit rate : 2 692 Kbps
9 b! u6 u3 R0 j- f Video #1" s& _/ I- m3 `
   ID : 1; F4 u+ {3 f: s; u3 Q9 n0 D
   Format : AVC
0 |" m; G+ S  O8 p/ }3 ~" V" M4 V" A   Format/Info : Advanced Video Codec
  u' d2 R/ A9 N: p0 d   Format profile : [email protected]! E; q7 U1 |* S1 a; X
   Format settings, CABAC : Yes
" h! e7 ^1 y0 [0 P1 U: x+ u3 o   Format settings, ReFrames : 4 frames+ K& X8 g" o9 @. d* _
   Codec ID : avc1
9 o9 E& R" H* J/ o   Codec ID/Info : Advanced Video Coding- |( L! c2 L* r$ E3 f7 m6 b( @
   Duration : 23mn 44s
. W8 J4 Y% }* S# {& O2 c   Bit rate mode : Variable2 y/ x- L/ M  v2 G4 v" p
   Bit rate : 2 593 Kbps
# a% j' k6 P, H0 D   Width : 1 920 pixels; w. r9 R9 l' l! Y' z
   Height : 1 072 pixels2 T. ?3 E1 |5 c
   Display aspect ratio : 16:9
# \. V7 n7 f( J   Frame rate mode : Constant9 F2 O% w! R$ Z( q7 P, E
   Frame rate : 25.000 fps# n8 v  e! F6 B5 ^0 Q
   Color space : YUV8 g5 v4 t3 x0 V: w9 _% S/ e( J
   Chroma subsampling : 4:2:0  X; n, O2 H2 Z9 G' L) I; J
   Bit depth : 8 bits/ s! @$ n8 g9 b* W* o+ K1 {, L
   Scan type : Progressive) Y' h, L) e) Y6 X& f: o- J9 Q
   Bits/(Pixel*Frame) : 0.050. L$ Q* n# i) [; u' u/ L
   Stream size : 440 MiB (96%)
! o: B4 z5 Z3 b: ?" m" Q. ]   Language : English( t. B+ D6 }: x; ?3 d& a0 l! w
   Color primaries : BT.7099 ]* d3 H! R% z, b) f
   Transfer characteristics : BT.709
$ W  {0 {6 w6 B- U   Matrix coefficients : BT.709
, G/ [7 f4 C7 ~/ M Audio #2
! r) o8 d! D; U$ m* u1 q   ID : 2
$ F- ]: J: m. ^9 _  o& c3 @4 n9 N" L   Format : AAC/ I2 z# [  f0 n6 k7 _7 ~. w
   Format/Info : Advanced Audio Codec
6 [% M, E/ K4 r4 n$ |' O7 W% W   Format profile : HE-AAC / LC
0 }5 K$ d9 h! z$ T  X" [- q( C   Codec ID : 40
* T# Y( J) {3 T   Duration : 23mn 44s
+ k3 W: W' I: c3 A1 v$ V, A% G  ?& w   Bit rate mode : Variable
4 b, B# Q% O) e   Bit rate : 96.0 Kbps  o" C3 b8 G' k, a0 S8 V
   Maximum bit rate : 103 Kbps/ `7 I$ z0 w& g8 X( l& E; h
   Channel count : 2 channels: N9 w/ _! O  E( }2 O* V& |( s! E5 d
   Channel positions : Front: L R" J3 n1 D$ d3 g5 ~
   Sampling rate : 44.1 KHz / 22.05 KHz* T8 r4 G% u* }4 m) t3 O% k
   Compression mode : Lossy' `$ \) Y4 n# }
   Stream size : 16.3 MiB (4%)
- y! l7 I+ [7 P- U4 [   Language : China/ I5 N9 u1 x" z- A0 h
6 {% F2 K, [* a# T. |! i9 D
【下载地址】已更新网盘
( e; }( P, l* G: H
3 y7 w" K3 Z& q* E
游客,如果您要查看本帖隐藏内容请回复  捐助论坛可免回复查看隐藏内容详情请点击
最近访问 头像模式 列表模式
HD一条街,身边的一条街。
vsdvdsvdg 该用户已被删除
发表于 2014-2-5 15:43:03 来自手机 | 显示全部楼层
提示: 作者被禁止或删除 内容自动屏蔽
HD一条街,身边的一条街。
uwyefcn5 该用户已被删除
发表于 2014-2-5 15:44:01 来自手机 | 显示全部楼层
提示: 作者被禁止或删除 内容自动屏蔽
HD一条街,身边的一条街。
发表于 2014-2-5 16:47:43 | 显示全部楼层
谢谢分享,辛苦了
HD一条街,身边的一条街。
pla1986321 该用户已被删除
发表于 2014-2-5 17:06:38 | 显示全部楼层
提示: 作者被禁止或删除 内容自动屏蔽
HD一条街,身边的一条街。
cloudqqq 该用户已被删除
发表于 2014-2-5 18:00:20 | 显示全部楼层
提示: 作者被禁止或删除 内容自动屏蔽
HD一条街,身边的一条街。
zz_oo 该用户已被删除
发表于 2014-2-5 18:46:37 | 显示全部楼层
提示: 作者被禁止或删除 内容自动屏蔽
HD一条街,身边的一条街。
发表于 2014-2-5 19:20:56 | 显示全部楼层
看了LZ的帖子,我想说一句很好
HD一条街,身边的一条街。
发表于 2014-2-5 20:35:11 | 显示全部楼层
thank you very much for this show
HD一条街,身边的一条街。
musiczlp 该用户已被删除
发表于 2014-2-5 21:31:27 | 显示全部楼层
提示: 作者被禁止或删除 内容自动屏蔽
HD一条街,身边的一条街。
您需要登录后才可以回帖 登录 | 立即注册

本版积分规则

手机版|小黑屋|有问题发邮件到admin#(换成@)hd1tj.org|微博|免责申明|HD一条街

GMT+8, 2016-12-4 14:07

Powered by Discuz! X3.1

© 2001-2013 Comsenz Inc.

快速回复 返回顶部 返回列表