开启辅助访问 切换到窄版

HD一条街论坛

 找回密码
 立即注册
查看: 7877|回复: 217

[国产] 【已更新网盘】CCTV9HD 一城一味 全7集 [中文内嵌字幕]CCTV9HD.Yi.Cheng.Yi.Wei.2014.HDTV.1080i.x264.AAC 3.13G

  [复制链接]
发表于 2014-2-5 15:41:51 | 显示全部楼层 |阅读模式
本帖最后由 让心灵去旅行 于 2014-5-28 16:41 编辑 $ Y8 h: `+ H% w: g& U2 E8 v- E

1 c; z3 o+ p  U0 A4 ^
& v- a9 w7 M( q- B
                               
登录/注册后可看大图

! ]) i" h. B% K; ^) J/ @- q
; s' O) n: s4 s4 y: @; @2 W) @$ I, t7 a
    每集纪录一个城市。以专业厨师的视角走进城市深处,在街边小店,在百姓家庭,在餐厅酒楼,寻找发现最能代表城市特色的民间美食。以美食为主线索,串联起城市历史、文化、环境等纵深元素。以美食的味道,解析城市味道、城市气质。$ W& W: B; W. G$ H
     《一城一味》第一季。从全国精心甄选七个城市作为拍摄地。囊括东南西北各个方位的特色美食、地域文化。以“变化的城市,不变的味道”为灵魂,传递“一方水土养一方人”的中国文化,以食物的美好,表达城市的美好,诠释城市魅力。
& @1 |- Q' e2 ~/ z2 w8 x) d( h; T  x, R% `+ W* s
D:\一城一味\一城一味:芜湖.mp4  j* f( m  L) g; p& r: i# t# v
General3 e8 F) ?) g9 M8 i/ t/ x& C, L
   Complete name : D:\一城一味\一城一味:芜湖.mp4
+ }0 B" F5 Y; S3 W% ^! L- @   Format : MPEG-4
) W! C( _9 g1 f2 ^) G+ s/ c, t( j   Format profile : Base Media / Version 2( T* x/ l& H1 K( c% ?/ }$ ^  u
   Codec ID : mp42
' a' L0 y5 e. }! R5 \1 m   File size : 457 MiB( ~; O1 m  D. M4 z2 N
   Duration : 23mn 44s3 B6 v) |6 k  o9 F6 |4 i$ }
   Overall bit rate mode : Variable% `+ o; F, z( U. C
   Overall bit rate : 2 692 Kbps5 L3 t$ `- ^6 H# Q' g# d
Video #1
2 \1 s1 b" ~0 R9 l/ d1 K* a   ID : 1- r* v) H0 D) z; j
   Format : AVC
7 ]1 ^5 z: Q1 r: ]; b5 `& v   Format/Info : Advanced Video Codec
# X0 i. O& _0 H- r' L2 f   Format profile : [email protected]
, e5 o. m. P0 i$ v' I( m   Format settings, CABAC : Yes
/ H; a: W* u3 a0 N* N" k7 X) r   Format settings, ReFrames : 4 frames
8 H4 @5 O6 Q6 R7 H. @% t   Codec ID : avc1* T, h7 k9 p' Q$ C$ M
   Codec ID/Info : Advanced Video Coding; [9 R4 u% e# B" e: }
   Duration : 23mn 44s
  Q/ S! o& o7 h; p   Bit rate mode : Variable
1 I! }0 {& p; ^# R4 t' y   Bit rate : 2 593 Kbps5 p9 b9 S2 S, K9 f
   Width : 1 920 pixels
! O5 {* k  b5 p. ~/ f   Height : 1 072 pixels. A! o- r& P& l9 R- k! x9 }+ `
   Display aspect ratio : 16:9
% [6 d" W1 @# W3 S& C4 R+ N2 ^   Frame rate mode : Constant& c( z$ q- f; D4 g7 j
   Frame rate : 25.000 fps" @9 o; f9 V1 P" s+ @4 l0 m! n
   Color space : YUV
8 `! V9 q  b/ |8 z' m1 R   Chroma subsampling : 4:2:0
6 J6 z/ _" R% ^   Bit depth : 8 bits; w& s; r" r& K) s0 O; V. ?  U& q2 ~
   Scan type : Progressive
, j; S% w" O9 H   Bits/(Pixel*Frame) : 0.050& u) j! A+ W0 \% g" K+ A
   Stream size : 440 MiB (96%)) Q7 ?5 x# J# L$ u* z7 |6 P" L
   Language : English0 F8 i0 q. L# M/ A, N0 [
   Color primaries : BT.709
9 y7 M8 V3 ^4 c   Transfer characteristics : BT.709
, W9 I) X/ a, T   Matrix coefficients : BT.709
" [$ b0 A  f- k) G7 _# l Audio #2
& a: L' _8 \, B1 z   ID : 2
- W1 n: {3 @2 N8 Y. A   Format : AAC
! c% U+ g+ p* C! G* H2 W5 p   Format/Info : Advanced Audio Codec3 S. q) x0 c! e
   Format profile : HE-AAC / LC: v3 L% q( I0 X; N" B2 [
   Codec ID : 40
, U7 R0 n, c5 H8 P6 r+ p* k   Duration : 23mn 44s
# ?' N- l# D& d! {4 U3 ^   Bit rate mode : Variable2 S9 b5 q# S6 y5 n
   Bit rate : 96.0 Kbps
% R: S- b8 {; l, H" m6 a   Maximum bit rate : 103 Kbps  s3 \. T& f. s3 r2 H% l
   Channel count : 2 channels
1 {4 |& L8 ~" V7 b# y9 T% X9 J   Channel positions : Front: L R
% r1 b! E+ p/ C& M8 `- ^6 C   Sampling rate : 44.1 KHz / 22.05 KHz8 E) ^% @6 R# u* n5 X( g3 ?! B- ^& [
   Compression mode : Lossy
7 }  h4 \  Q+ @   Stream size : 16.3 MiB (4%)* M) R  A" P: L8 O7 v: M
   Language : China, X- p# D5 \* ^9 D3 P  D& u

4 Z% o$ R* s0 b5 W0 P0 X* x, l) w8 ?【下载地址】已更新网盘0 y' \% A& q6 U, n

( y  v2 g. p* `# M5 B
游客,如果您要查看本帖隐藏内容请回复  捐助论坛可免回复查看隐藏内容 详情请点击
最近访问 头像模式 列表模式
HD一条街,身边的一条街。
vsdvdsvdg 该用户已被删除
发表于 2014-2-5 15:43:03 来自手机 | 显示全部楼层
提示: 作者被禁止或删除 内容自动屏蔽
HD一条街,身边的一条街。
uwyefcn5 该用户已被删除
发表于 2014-2-5 15:44:01 来自手机 | 显示全部楼层
提示: 作者被禁止或删除 内容自动屏蔽
HD一条街,身边的一条街。
发表于 2014-2-5 16:47:43 | 显示全部楼层
谢谢分享,辛苦了
HD一条街,身边的一条街。
pla1986321 该用户已被删除
发表于 2014-2-5 17:06:38 | 显示全部楼层
提示: 作者被禁止或删除 内容自动屏蔽
HD一条街,身边的一条街。
cloudqqq 该用户已被删除
发表于 2014-2-5 18:00:20 | 显示全部楼层
提示: 作者被禁止或删除 内容自动屏蔽
HD一条街,身边的一条街。
zz_oo 该用户已被删除
发表于 2014-2-5 18:46:37 | 显示全部楼层
提示: 作者被禁止或删除 内容自动屏蔽
HD一条街,身边的一条街。
发表于 2014-2-5 19:20:56 | 显示全部楼层
看了LZ的帖子,我想说一句很好
HD一条街,身边的一条街。
发表于 2014-2-5 20:35:11 | 显示全部楼层
thank you very much for this show
HD一条街,身边的一条街。
musiczlp 该用户已被删除
发表于 2014-2-5 21:31:27 | 显示全部楼层
提示: 作者被禁止或删除 内容自动屏蔽
HD一条街,身边的一条街。

手机版|小黑屋|有问题发邮件到admin#(换成@)hd1tj.org|微博|免责申明|HD一条街

GMT+8, 2017-3-30 14:43

Powered by Discuz! X3.1

© 2001-2013 Comsenz Inc.

快速回复 返回顶部 返回列表