开启辅助访问 切换到窄版

HD一条街论坛

 找回密码
 立即注册
查看: 7871|回复: 217

[国产] 【已更新网盘】CCTV9HD 一城一味 全7集 [中文内嵌字幕]CCTV9HD.Yi.Cheng.Yi.Wei.2014.HDTV.1080i.x264.AAC 3.13G

  [复制链接]
发表于 2014-2-5 15:41:51 | 显示全部楼层 |阅读模式
本帖最后由 让心灵去旅行 于 2014-5-28 16:41 编辑 0 |6 O' ?/ S, v0 t) @* v
' ]4 h/ B, _8 v

- X+ h9 W: U1 ^( D6 {                               
登录/注册后可看大图

1 D- @! D; D; N) n6 N+ ^+ f- }; A7 ?. A/ _$ u& ^1 q9 Q

# ~, Z- O; h! C0 E5 {% m. G    每集纪录一个城市。以专业厨师的视角走进城市深处,在街边小店,在百姓家庭,在餐厅酒楼,寻找发现最能代表城市特色的民间美食。以美食为主线索,串联起城市历史、文化、环境等纵深元素。以美食的味道,解析城市味道、城市气质。
( p1 O  K, j9 g# G9 J     《一城一味》第一季。从全国精心甄选七个城市作为拍摄地。囊括东南西北各个方位的特色美食、地域文化。以“变化的城市,不变的味道”为灵魂,传递“一方水土养一方人”的中国文化,以食物的美好,表达城市的美好,诠释城市魅力。. M! l+ Q9 _5 n) t* b6 n2 |( p' z

6 X( _3 R# [. Z  H: VD:\一城一味\一城一味:芜湖.mp4
- Y/ d: f, |' M7 V# t( E! ~ General* m0 z3 u! ?" l1 M% F
   Complete name : D:\一城一味\一城一味:芜湖.mp4
% _. j0 I+ Z1 P& e) N   Format : MPEG-49 v5 g$ U# y; D/ @- a# j: k
   Format profile : Base Media / Version 2
/ C5 W/ W& v+ |- [/ ]1 |   Codec ID : mp427 p8 h: a( C# _4 e, G5 y
   File size : 457 MiB
! d( ?* s5 Z1 S6 W) ~   Duration : 23mn 44s! }/ g" @2 M% J8 n. f& j
   Overall bit rate mode : Variable! m& g! h' k% m+ ~" @  N2 d5 P7 z
   Overall bit rate : 2 692 Kbps0 l; f7 H, Q& [
Video #11 E4 c6 F  t- ?6 E& b' R4 Q
   ID : 1+ k& Q6 O7 }2 b5 q6 i- w: Z1 D
   Format : AVC
0 G" q; R: I& K/ V/ T1 z0 [& v   Format/Info : Advanced Video Codec. O7 P+ S& ~9 i% V/ K# v
   Format profile : [email protected]2 Q9 [2 v" [9 f% H
   Format settings, CABAC : Yes4 b, g7 x* Q$ i3 Z1 p( P" d  [' m
   Format settings, ReFrames : 4 frames* J" d$ q* @0 C
   Codec ID : avc1( }4 }. h+ O6 d
   Codec ID/Info : Advanced Video Coding
8 H" R9 H  ]4 R( F% b2 x- E   Duration : 23mn 44s+ s7 Z% e/ \" a
   Bit rate mode : Variable& x. t" T0 l9 n( E% D: K5 E
   Bit rate : 2 593 Kbps2 E8 I( a5 H8 i" V
   Width : 1 920 pixels% R; j7 ?( \/ I" n
   Height : 1 072 pixels
' P2 q7 ^' {& v6 s: Y   Display aspect ratio : 16:9
+ p. O" F! X) V- `   Frame rate mode : Constant
; q% X. q7 U) G$ s- P   Frame rate : 25.000 fps4 O5 g7 ?; F# B7 `* {
   Color space : YUV( G7 C. z7 K- r7 E4 c
   Chroma subsampling : 4:2:06 K: k+ k* h8 \5 F- ?% I
   Bit depth : 8 bits
0 l. R, S* l# D% c, c  U# u2 q   Scan type : Progressive
* e3 Z, N* r: a# {* Q   Bits/(Pixel*Frame) : 0.050
( @5 a5 {" r- K4 E0 ]$ ]   Stream size : 440 MiB (96%)
" d. _: n1 [8 D+ x* }2 S3 M   Language : English
7 Q/ p5 f3 ?! r   Color primaries : BT.709
, H; t! S' j, Z' w' \- m5 j6 W0 t   Transfer characteristics : BT.709- {# y/ ~8 e8 Z4 W6 U" u
   Matrix coefficients : BT.7094 [8 T5 `) R9 o! s6 D& P/ K2 v
Audio #2
% D$ s# g& C( ]   ID : 2
; D+ }6 l0 T/ v8 Y   Format : AAC
$ j% F9 {9 I  l   Format/Info : Advanced Audio Codec
; c' |% V9 ~7 I+ P) s5 @   Format profile : HE-AAC / LC
! W$ {) @! m6 t& v   Codec ID : 40$ c! b) ?- J1 ?7 y2 ?% q5 Y
   Duration : 23mn 44s! f( U# g$ ?+ h
   Bit rate mode : Variable, t5 P/ E1 `4 W9 y* T$ @
   Bit rate : 96.0 Kbps
5 p0 B' {0 i' R/ P  @5 j6 E   Maximum bit rate : 103 Kbps
. g' }6 ~" S) b1 j% m   Channel count : 2 channels: \( Y' D3 c! u* f5 p, A
   Channel positions : Front: L R. t. R4 ~8 T& M* X+ K7 `
   Sampling rate : 44.1 KHz / 22.05 KHz
- H5 ^7 F/ `: t3 V7 F/ g- O   Compression mode : Lossy
' P, d! `5 [0 S1 p- S& i   Stream size : 16.3 MiB (4%)8 u. i. x, @8 x" C5 J' i8 U
   Language : China
8 o4 I0 h& K4 J, e' A5 ?
8 q9 U" y* U+ }* l+ Y【下载地址】已更新网盘2 G' C8 H) v  U4 u9 ^' T
' Q* v7 T; ]3 \3 _6 h* ^8 I' Z
游客,如果您要查看本帖隐藏内容请回复  捐助论坛可免回复查看隐藏内容 详情请点击
最近访问 头像模式 列表模式
HD一条街,身边的一条街。
vsdvdsvdg 该用户已被删除
发表于 2014-2-5 15:43:03 来自手机 | 显示全部楼层
提示: 作者被禁止或删除 内容自动屏蔽
HD一条街,身边的一条街。
uwyefcn5 该用户已被删除
发表于 2014-2-5 15:44:01 来自手机 | 显示全部楼层
提示: 作者被禁止或删除 内容自动屏蔽
HD一条街,身边的一条街。
发表于 2014-2-5 16:47:43 | 显示全部楼层
谢谢分享,辛苦了
HD一条街,身边的一条街。
pla1986321 该用户已被删除
发表于 2014-2-5 17:06:38 | 显示全部楼层
提示: 作者被禁止或删除 内容自动屏蔽
HD一条街,身边的一条街。
cloudqqq 该用户已被删除
发表于 2014-2-5 18:00:20 | 显示全部楼层
提示: 作者被禁止或删除 内容自动屏蔽
HD一条街,身边的一条街。
zz_oo 该用户已被删除
发表于 2014-2-5 18:46:37 | 显示全部楼层
提示: 作者被禁止或删除 内容自动屏蔽
HD一条街,身边的一条街。
发表于 2014-2-5 19:20:56 | 显示全部楼层
看了LZ的帖子,我想说一句很好
HD一条街,身边的一条街。
发表于 2014-2-5 20:35:11 | 显示全部楼层
thank you very much for this show
HD一条街,身边的一条街。
musiczlp 该用户已被删除
发表于 2014-2-5 21:31:27 | 显示全部楼层
提示: 作者被禁止或删除 内容自动屏蔽
HD一条街,身边的一条街。

手机版|小黑屋|有问题发邮件到admin#(换成@)hd1tj.org|微博|免责申明|HD一条街

GMT+8, 2017-3-29 05:46

Powered by Discuz! X3.1

© 2001-2013 Comsenz Inc.

快速回复 返回顶部 返回列表