开启辅助访问 切换到窄版

HD一条街论坛

 找回密码
 加入我们
查看: 7772|回复: 217

[国产] 【已更新网盘】CCTV9HD 一城一味 全7集 [中文内嵌字幕]CCTV9HD.Yi.Cheng.Yi.Wei.2014.HDTV.1080i.x264.AAC 3.13G

  [复制链接]
发表于 2014-2-5 15:41:51 | 显示全部楼层 |阅读模式
本帖最后由 让心灵去旅行 于 2014-5-28 16:41 编辑
/ o, P1 G/ y" S3 o8 m# x" |0 A2 f5 J
$ A  J1 B6 b, b4 i6 Q6 ?

* @- ~$ n( L* w& P0 m8 F                               
登录/注册后可看大图

  A  x/ ?) j" r+ O. O
1 {6 q9 Y3 n* i4 ^5 k% i; B; g1 w7 \, H; K) [, P9 T# A* Z% r
    每集纪录一个城市。以专业厨师的视角走进城市深处,在街边小店,在百姓家庭,在餐厅酒楼,寻找发现最能代表城市特色的民间美食。以美食为主线索,串联起城市历史、文化、环境等纵深元素。以美食的味道,解析城市味道、城市气质。% P3 D% P" ]# U/ W" z% Y
     《一城一味》第一季。从全国精心甄选七个城市作为拍摄地。囊括东南西北各个方位的特色美食、地域文化。以“变化的城市,不变的味道”为灵魂,传递“一方水土养一方人”的中国文化,以食物的美好,表达城市的美好,诠释城市魅力。
/ P, ^( Z; d5 H4 j2 A7 n1 T, Q: }. ^8 |9 s
D:\一城一味\一城一味:芜湖.mp4) a! X+ H/ Z( V. h; V
General
( k2 g& }* z/ r5 O4 x0 U6 k( R   Complete name : D:\一城一味\一城一味:芜湖.mp4
2 i. g7 M9 h1 X8 B   Format : MPEG-4# L+ A' S! c; w/ ~: u
   Format profile : Base Media / Version 29 x/ g7 a, ~: U) ?+ x" e, c, _
   Codec ID : mp42
/ v3 C8 H' s7 N* T- ?   File size : 457 MiB
7 E' K7 C, S  h+ J+ y1 F   Duration : 23mn 44s
: {- f0 g' q) S. ]( _% q9 {; i/ O- W   Overall bit rate mode : Variable$ x9 m0 B6 i/ B5 f1 \+ f; w+ l
   Overall bit rate : 2 692 Kbps' y4 _; f/ ?- e' F& Q" G6 Q
Video #1
* U# s0 S# `% q' `1 w   ID : 15 m9 b# e, b: d' P4 u& W
   Format : AVC
! ?/ X& f; t% {+ y; X! g5 o  a   Format/Info : Advanced Video Codec
9 s& V  w3 Z' h0 r" z# l' ^   Format profile : [email protected]2 F% i. {" O$ g! j2 g: {' f
   Format settings, CABAC : Yes
. d9 G% [; t! o; ~   Format settings, ReFrames : 4 frames/ |) Q9 `: \  ]: j
   Codec ID : avc17 p1 Z  O0 B" W1 c6 @) H5 Z% Z6 A/ ^
   Codec ID/Info : Advanced Video Coding
6 b3 k# C# ?( _5 n, @/ k   Duration : 23mn 44s
  B' C+ g' h& R8 j   Bit rate mode : Variable
3 \2 `2 n2 p. G# X3 S! L   Bit rate : 2 593 Kbps, C# D2 c/ P4 e- F4 [& }
   Width : 1 920 pixels! J: c3 ?6 K% y2 N7 }- n
   Height : 1 072 pixels$ R1 E9 }% B4 v" k, J
   Display aspect ratio : 16:9" L' C9 E% r  d$ G7 c4 C
   Frame rate mode : Constant3 [( z( Z* }" |! h( H; `4 b
   Frame rate : 25.000 fps& L& e1 n) ^# a  R- s/ \
   Color space : YUV
& Q1 Z  o' V. h! f* k4 w! N, {& Q   Chroma subsampling : 4:2:0
, Z# g7 l. b/ l) l1 R$ W* ^   Bit depth : 8 bits
  \/ t: J0 H0 l/ M4 e( D   Scan type : Progressive2 ]7 u8 J" z% {/ R( F
   Bits/(Pixel*Frame) : 0.050
0 A: m2 F7 L6 s. z: V" N6 G   Stream size : 440 MiB (96%)
6 L- J* Q/ F# E& c- S! `% v   Language : English
3 T5 ^' l2 U, z0 {* F   Color primaries : BT.709
1 a, g9 V# R+ d& H% b   Transfer characteristics : BT.709. k1 ?& j$ ~1 U1 @& X6 z
   Matrix coefficients : BT.7096 D7 |2 s/ d5 o; k. \/ i9 V
Audio #2- J! v5 |% H4 A
   ID : 2; k( {8 R- v( d4 \. ?
   Format : AAC/ p' M5 R8 ]4 S  H1 y( V
   Format/Info : Advanced Audio Codec
* t  k6 Y: w5 ^8 V   Format profile : HE-AAC / LC
0 i. a" y# o% f% J1 A   Codec ID : 40# c( m7 j  `5 w" g$ e
   Duration : 23mn 44s6 E; ^, E' S( s9 {3 X
   Bit rate mode : Variable
( Y4 N3 W" I( r' w* J4 e   Bit rate : 96.0 Kbps
5 M. s$ o2 L/ D& _& L   Maximum bit rate : 103 Kbps
% h3 j4 o( p' t2 y: t0 }4 Q* }, g% u   Channel count : 2 channels
  U& i$ }2 K+ W0 b) N( Z* C; B8 E   Channel positions : Front: L R$ y3 w7 s* l: h% J6 W
   Sampling rate : 44.1 KHz / 22.05 KHz+ o# l5 ?0 L$ e
   Compression mode : Lossy
6 B/ d  {4 E. `$ ^7 C2 R   Stream size : 16.3 MiB (4%)
; S# c# s* g! U$ m1 C) ?- z, s: r   Language : China
/ E( M* h& T% d4 ^, t/ [  s, ^1 u7 ~+ y; @" h
【下载地址】已更新网盘3 j1 M- M, f/ {+ u

* g1 E1 h# {4 V: V
游客,如果您要查看本帖隐藏内容请回复  捐助论坛可免回复查看隐藏内容 详情请点击
最近访问 头像模式 列表模式
HD一条街,身边的一条街。
vsdvdsvdg 该用户已被删除
发表于 2014-2-5 15:43:03 来自手机 | 显示全部楼层
提示: 作者被禁止或删除 内容自动屏蔽
HD一条街,身边的一条街。
uwyefcn5 该用户已被删除
发表于 2014-2-5 15:44:01 来自手机 | 显示全部楼层
提示: 作者被禁止或删除 内容自动屏蔽
HD一条街,身边的一条街。
发表于 2014-2-5 16:47:43 | 显示全部楼层
谢谢分享,辛苦了
HD一条街,身边的一条街。
pla1986321 该用户已被删除
发表于 2014-2-5 17:06:38 | 显示全部楼层
提示: 作者被禁止或删除 内容自动屏蔽
HD一条街,身边的一条街。
cloudqqq 该用户已被删除
发表于 2014-2-5 18:00:20 | 显示全部楼层
提示: 作者被禁止或删除 内容自动屏蔽
HD一条街,身边的一条街。
zz_oo 该用户已被删除
发表于 2014-2-5 18:46:37 | 显示全部楼层
提示: 作者被禁止或删除 内容自动屏蔽
HD一条街,身边的一条街。
发表于 2014-2-5 19:20:56 | 显示全部楼层
看了LZ的帖子,我想说一句很好
HD一条街,身边的一条街。
发表于 2014-2-5 20:35:11 | 显示全部楼层
thank you very much for this show
HD一条街,身边的一条街。
musiczlp 该用户已被删除
发表于 2014-2-5 21:31:27 | 显示全部楼层
提示: 作者被禁止或删除 内容自动屏蔽
HD一条街,身边的一条街。
您需要登录后才可以回帖 登录 | 加入我们

本版积分规则

手机版|小黑屋|有问题发邮件到admin#(换成@)hd1tj.org|微博|免责申明|HD一条街

GMT+8, 2017-1-18 13:50

Powered by Discuz! X3.1

© 2001-2013 Comsenz Inc.

快速回复 返回顶部 返回列表