开启辅助访问 切换到窄版

HD一条街论坛

 找回密码
 立即注册
查看: 830|回复: 38

[欧美] 鸟类的秘密生活/鸟的秘密[BBC纪录片 5集全]BBC - The Secret Life of Birds 2012 1080p BluRay AVC DD 2.0-HDWinG 21.83G

[复制链接]
发表于 2014-1-14 12:55:41 | 显示全部楼层 |阅读模式
lGaj6tM.jpg . F+ V- ]3 `" P5 I- K; `
fvQrtq8.jpg
& ^& \) F: \  {0 O. E
  ?: R9 e' Y0 I+ R5 H" {' t
% n0 `% ?5 ?# w+ m◎译  名 鸟类的秘密生活1 a9 g* c" a9 K4 i; q
◎片  名 The Secret Life of Birds' Y+ Y5 u: G0 j# v- R  {1 y
◎年  代 2012, f2 [  Z! F9 r+ y$ n# v
◎地  区 英国
! B6 _+ W. H/ [& F! W" I. y◎类  别 纪录片  [& r/ K0 m8 t1 H9 k
◎语  言 英语
: j* i  i# N6 @  i◎IMDB评分  6.7/10 from 11 users# V( V- @* P* d% V  ?
◎IMDB链接  http://www.imdb.com/title/tt2647790/
: h" s7 o" L; ~& H1 L6 K$ P& F+ ]' q7 C◎片  长 30mins × 5
2 {- O" Z* k3 m1 `8 J◎制  片 Mill Creek Entertainment
! U) x! {( D- n5 M  J2 E1 s" |. K# z" N3 a

# f# [9 m' i$ v! ~3 H◎简  介
# |/ y$ L) ~* h3 V- k( g9 W
% g- S7 }+ \$ R9 V2 |# f& c+ }) t* }  K  从遥远的海岸边,到我们居住的城市,在这个迷人的自然系列片中,BBC主持人和野生动物专家威廉姆斯将带您穿越威尔士,探寻居住在这片神奇土地上的各种鸟类。
9 D- ^1 m, j$ k: ?+ e& M$ M. ?- i  威廉姆斯带我们一起了解鸟类如何适应环境的变化,探究鸟类飞行的奥秘,发现隐藏在他们绚丽羽毛与美妙歌喉背后的故事。$ n! N7 L/ h2 T1 D9 l6 k
: i1 h+ \, ^, M8 n( W. G- B2 H
  Take flight into an enchanting world7 @! Z/ o$ _1 x) B
% E" x1 S3 y# m' r2 H' C
  Travelling from wild coastlines to urban habitats, this fascinating natural history series from the BBC explores the behaviour of birds, revealing all aspects of their lives, from surviving harsh winters and avoiding predators to living alongside us in towns and cities.
: H% v' _$ a) ~8 J3 H
3 f1 O7 S+ ?' y  Host and wildlife expert Iolo Williams discovers how birds have adapted to changing landscapes, studying their ability to fly and how their unique design, colour and camouflage enables them to live in many habitats, as well as uncovering their courtship and nesting rituals and finding out how and why they communicate. Offering a visual treat of stunning landscapes and captivating wildlife behaviour, The Secret Life of Birds provides perfect family entertainment – educating and enthralling in equal measure.! \% c( Z; {8 W& ?: q

4 I6 T+ k$ W" P8 S1 {6 ~5 E2 Q7 d, |+ _  ?" |: ^: ~) H9 u, ?
  Episode 1: Dawn Chorus (00:30:22)" D' Q/ K( A* ^; R2 Y' W
: V9 N% S, q. ?8 q2 H" N/ f% R
  This film examines the early morning activities of birds. Featured is the "secret life of bird calls." Studied is the Welsh natural habitat in which the birds live, the effort to identify the birds through their sounds and calls, and bird calls to both mate and "mark their territory." Though most birds call for mates, the woodpecker drums. Also highlighted: the challenges faced by birds nesting in urban areas, birds living in areas without many suitable perches, warning calls, Raven and Grouse calls, and communication in large groups.
* R4 U6 H% {4 D5 d. n
& i6 ]7 O; T! L" R1 a  Episode 2: Feathering the Nest (00:30:17)
) U# R6 f4 o1 j5 }! [) o) V" ]$ Q" [6 E, h0 p- W
  This episode highlights the varied mating rituals and family life of birds. Examined is the mating season physical changes of species, mating song, and mating displays of flight for species with poor song and little color. Also studied is the physical mating process, nest construction and location - including cliff nesting - the unending search for food, and feeding young.
0 u+ [6 P4 h" E0 A6 _
' Y$ G5 ~* `4 @* F  Episode 3: Living on the Edge (00:30:26)
4 @5 c2 ^2 M, x% h# B" O6 h0 W9 z* _
/ F* z2 L% R& [6 P% ~# L. F1 Z, P  The chicks have hatched, and all seems well, until disaster - many types of disaster - often strikes. This film examines the threat of predators to newly-hatched chicks, how birds prevent their young from being eaten by predators, and how they defend themselves against the elements. Also: the effect of mild conditions fooling birds into mating at the wrong time of year, the benefits of springtime in Wales and the challenges of harsh winter conditions, feeding in both clear and inclement weather, the role of personal hygiene in survival, and autumn and wintertime migration.5 i4 O/ `: l+ K1 C, _5 y

# l. d- v3 Z5 l' u. I6 A0 V9 }& [  Episode 4: Living with Us (00:30:20)+ ~2 c) e8 V  ]/ V5 c  ]- T3 ~
3 h( D/ G0 _  E  c; z5 j+ a
  This film focuses on the life of birds as it is influenced by the presence of man. Examined is the necessary adaptation to co-exist side-by-side with people and other animals and birds' ability to take advantage of man's structures and materials, particularly discarded materials. Featured is the life of urban birds, the brilliant displays available to bird watchers thanks to a familiarity between the species, the replacement of cliffs by manmade structures as nesting spots, and feeding from human trash.: O) u# ?! y- T/ c" t& x" p- {
2 N; a) d+ f7 |' p6 }/ A1 d
  Episode 5: Designed For a Welsh Life (00:30:37). i4 `5 O" @9 Q5 ]6 U5 e
1 `& P( K5 I+ o9 v# z) \
  The final feature examines how species have adapted to Wales, regardless of natural design. Studied is the purpose and usage of the beak, various types and uses of feet, taking advantage of the natural geography and resources available, the unique Jay which uses color and song as both an attractant and a repellant, a bird's natural camouflage, and varied uses for flight.
  1. DISC INFO:# m! [4 \( Z7 n0 f( h9 W- s7 t9 }2 M
  2. % G9 f. g6 L/ H& ^$ K0 P, r8 g: V' c% M
  3. Disc Title:     THE SECRET LIFE OF BIRDS8 V# }7 W; S! \/ F) X
  4. Disc Size:      23,432,275,520 bytes- P1 o3 L+ P" n/ p; S
  5. Protection:     AACS! x4 H; e5 I8 m& g& T
  6. BD-Java:        No
    " Q9 j3 s8 Y' E" N2 `
  7. BDInfo:         0.5.8
    ( W* Y& ?" Y5 A! f0 o& l
  8. + G: z4 o+ |/ F: _8 ]( O! s
  9. PLAYLIST REPORT:8 L8 k* `% t" o  _) J7 r/ t- A

  10. & l9 C6 V$ _# [4 e
  11. Name:                   00000.MPLS
    - U  C  L& Q1 }6 e
  12. Length:                 0:30:22.487 (h:m:s.ms)
    " b& V: q1 W, K( ]) h: ~
  13. Size:                   4,587,411,456 bytes
    & ~4 Y7 H3 _9 }# F* ~
  14. Total Bitrate:          20.14 Mbps
    , ~- I' E, N0 X) D2 v8 X4 |

  15. ' v" B8 J1 T! l
  16. VIDEO:
    " [" Z( b! v, c! N

  17. $ D8 |! g9 X3 B& Q- m/ Z
  18. Codec                   Bitrate             Description     ! e% D; I" \5 W
  19. -----                   -------             -----------     
      m* D- q/ Q  b' a* C4 Z) c% ]
  20. MPEG-4 AVC Video        18998 kbps          1080p / 23.976 fps / 16:9 / High Profile 4.1. E; G( ?- U' S: V8 S: G* _

  21. " x* B7 d- K# R* y- }8 H2 E  z
  22. AUDIO:6 Y0 L; _" I: ?; i! A& N
  23. & X+ T( e; P" Z9 Q
  24. Codec                           Language        Bitrate         Description     , n# W/ A' M" u( L& U
  25. -----                           --------        -------         -----------     . E$ \$ [: k3 I, W! {! ~
  26. Dolby Digital Audio             English         192 kbps        2.0 / 48 kHz / 192 kbps / DN -4dB
    9 t# B4 O5 Y: o
  27. 4 M% Q/ q0 @5 R
  28. FILES:
    6 h( y: H( ?# Z1 C8 O

  29. + o1 ?# u. g, X  W; f
  30. Name            Time In         Length          Size            Total Bitrate   " M- ~/ W0 _  U  Y/ _$ c7 V
  31. ----            -------         ------          ----            -------------   5 a' D0 w6 m% n. S8 M& j
  32. 00002.M2TS      0:00:00.000     0:30:22.487     4,587,411,456   20,137         
    . ^" n$ T( e( N  F' t, p' ]
  33. , z0 s" i, F! W
  34. Name:                   00001.MPLS
    ! k, N  ~1 `# ?, d1 d
  35. Length:                 0:30:17.398 (h:m:s.ms)
    % }! D6 L, |; h% g8 E; j: J
  36. Size:                   4,668,751,872 bytes
    8 i- f* m2 A$ ?: C5 Q5 N* j
  37. Total Bitrate:          20.55 Mbps
    - o# ~' h0 ~& ]& `0 g

  38.   V; b. K, Y2 ^4 [, G- h0 o8 T
  39. VIDEO:! `) ^$ z! _" C, i; E$ t8 ~6 T

  40. ! O* S/ }) q% o3 v' e
  41. Codec                   Bitrate             Description     8 Z/ W/ P$ Y. o% M+ p$ u- A6 J* _
  42. -----                   -------             -----------     
    + y/ x0 q9 a6 m* w& g/ k2 t
  43. MPEG-4 AVC Video        19395 kbps          1080p / 23.976 fps / 16:9 / High Profile 4.1
    4 t% a9 ^, R# f7 s, P

  44. + u8 W4 v. G9 [7 G/ _1 \
  45. AUDIO:6 K% G3 q' |! o" y9 ]1 Y9 c- G3 l& \
  46. ; S, i* w7 B: F# V( i" q  T
  47. Codec                           Language        Bitrate         Description     . m  C! x4 N3 N- Q6 L$ |  h
  48. -----                           --------        -------         -----------     
    8 e9 J" o! v* E( l: Z; G
  49. Dolby Digital Audio             English         192 kbps        2.0 / 48 kHz / 192 kbps / DN -4dB
    ( O4 |) w7 F% D, j* c9 Y4 \( m+ V

  50. : c/ G) w+ I: T9 s
  51. FILES:, B4 o1 i! {- Z' Z

  52. 4 h  T) E0 }" K0 l8 ]1 B- l
  53. Name            Time In         Length          Size            Total Bitrate   # q- ~8 V  \1 X( T1 m
  54. ----            -------         ------          ----            -------------   
    0 o( n. V9 \; o+ F
  55. 00003.M2TS      0:00:00.000     0:30:17.398     4,668,751,872   20,551          ! ~- p1 z( h7 F! n" w

  56. / ~* k- C$ m+ w! N/ r
  57. Name:                   00002.MPLS
    $ N1 M  G8 I4 h7 g9 e5 v
  58. Length:                 0:30:26.783 (h:m:s.ms)0 w" b6 ]4 m* ?* M4 a0 p: w
  59. Size:                   4,552,888,320 bytes" h8 M3 C' o8 m/ p7 D1 i
  60. Total Bitrate:          19.94 Mbps4 K# M9 Q: |5 i# {% M2 a
  61. * j- m. U' C/ M5 ]; j( @" R
  62. VIDEO:* w9 j' W/ F( R* B1 {
  63. 2 j* c7 g( F1 q
  64. Codec                   Bitrate             Description     
      x! `# e. e' |' M3 Y' V
  65. -----                   -------             -----------     4 K, g% \4 p+ [8 n& d- ?! U
  66. MPEG-4 AVC Video        18808 kbps          1080p / 23.976 fps / 16:9 / High Profile 4.1
    0 c7 j& t% d/ ]7 {
  67. 6 ]! c$ h4 U; _; N
  68. AUDIO:
    % o. R  k0 }4 |5 d0 o0 d3 G

  69. ; [. \, G& a4 [& G
  70. Codec                           Language        Bitrate         Description     2 a* ?$ Q# G. P4 b, }* b! w
  71. -----                           --------        -------         -----------     
    5 J! r' o1 g% g8 D
  72. Dolby Digital Audio             English         192 kbps        2.0 / 48 kHz / 192 kbps / DN -4dB$ ?! O1 ~. w5 j: M" U5 j5 R

  73. ; `% R& m9 w. ]1 {1 G7 x
  74. FILES:
    & |3 l6 {( d, Y7 P0 g1 x  M( [2 Y% m4 V

  75. / U7 y0 \7 z& v
  76. Name            Time In         Length          Size            Total Bitrate   
    8 v/ u) H9 p" g1 @: R
  77. ----            -------         ------          ----            -------------   7 q- w. j! @* d/ I9 W: y) U
  78. 00004.M2TS      0:00:00.000     0:30:26.783     4,552,888,320   19,938         
    ' J( }( J& i; S1 R7 h! ^5 C  j
  79. 6 Z8 ^& V5 d! C
  80. Name:                   00003.MPLS
    ( v% i6 t3 x9 u2 f" q% [" k
  81. Length:                 0:30:20.527 (h:m:s.ms)6 Y; G( z) L; ^5 }! B  V% J
  82. Size:                   4,603,828,224 bytes/ ?# |1 ?+ N2 c, o
  83. Total Bitrate:          20.23 Mbps
    , |, Y3 [4 ?7 q. H0 ]
  84. & k+ h& U4 A3 a: n9 S
  85. VIDEO:3 r4 ~3 o$ J& J4 w
  86. 9 V' _2 f* e9 e
  87. Codec                   Bitrate             Description     
    - j8 @9 t' t4 }" T
  88. -----                   -------             -----------     3 ~: B4 F8 I2 J0 {
  89. MPEG-4 AVC Video        19088 kbps          1080p / 23.976 fps / 16:9 / High Profile 4.1* b- O' t6 u1 Q& M) I5 i
  90. ( _3 O' k1 p1 k- `- C2 i0 ?) n
  91. AUDIO:
    5 f% L4 s; c$ D4 h! [8 q, ^2 z

  92. 8 V' O5 K, r7 u$ C# M; U
  93. Codec                           Language        Bitrate         Description     ; V; w* N/ z* B/ V3 f, o- _9 O
  94. -----                           --------        -------         -----------     9 d( C( J; u# n, z; W; f
  95. Dolby Digital Audio             English         192 kbps        2.0 / 48 kHz / 192 kbps / DN -4dB$ k# F; l' y% b& S* w
  96. 5 y  Y0 w) N4 s4 k: F7 D& t
  97. FILES:
    ; f- h# l7 p2 H! v2 r" A$ |

  98. & [2 S' i7 f( C/ M5 ]; x
  99. Name            Time In         Length          Size            Total Bitrate   
    3 [9 R* |9 C- k5 m$ D& @
  100. ----            -------         ------          ----            -------------   5 l3 u% `; p0 R; M( l) K2 |
  101. 00005.M2TS      0:00:00.000     0:30:20.527     4,603,828,224   20,231         
    , _0 w0 n( {5 }
  102. / w8 I  q) l& V( v% z$ r" A( t$ l
  103. 4 ]& U) R3 x0 F5 Q
  104. Name:                   00004.MPLS
    . S. o8 L9 c9 w3 z% ]) a! N/ G
  105. Length:                 0:30:37.961 (h:m:s.ms)
    7 o5 r4 C/ ~. _6 M7 K& t, h. f
  106. Size:                   4,715,870,208 bytes8 ^* h! k4 [% h( D; H' i4 R
  107. Total Bitrate:          20.53 Mbps
    ! P- C- E' A9 Z

  108. ) u/ q6 l, b# U. C0 Y
  109. VIDEO:, n* N3 _, ~/ B$ i

  110. " w1 O5 z+ w) |" e- l& X+ d
  111. Codec                   Bitrate             Description     
    2 ^3 F2 J" r: {% E7 w6 X
  112. -----                   -------             -----------     - T5 Z* i8 b& ~8 X& i# z5 D6 B
  113. MPEG-4 AVC Video        19371 kbps          1080p / 23.976 fps / 16:9 / High Profile 4.12 j* u# ^' J. a: F9 p8 W& E
  114. . J3 q, \7 t+ ]' g; F6 e4 ?
  115. AUDIO:
    3 ?1 A3 C% ]" S* v& u
  116. / y2 n4 t2 _! q9 a( y- k4 a
  117. Codec                           Language        Bitrate         Description     
    ! y% F- R+ u7 t+ R6 E7 `2 C* N& G1 N
  118. -----                           --------        -------         -----------     
    & {6 w7 P& J  N8 [0 r! [
  119. Dolby Digital Audio             English         192 kbps        2.0 / 48 kHz / 192 kbps / DN -4dB
    / ]' y  _' e2 ?1 P
  120. & ~/ ?1 J2 N3 p; {# y0 [+ L" s* i1 q
  121. FILES:5 @7 x8 R8 W) t' Z) q
  122. ! p1 s. |# g3 T) }8 B" H! G
  123. Name            Time In         Length          Size            Total Bitrate   
    ) {- R: F$ W4 N( m, x
  124. ----            -------         ------          ----            -------------   
    5 g4 d9 G+ e& R$ Z; e9 F
  125. 00006.M2TS      0:00:00.000     0:30:37.961     4,715,870,208   20,527      
复制代码
郑重声明:& O" e! i$ M1 ?0 @) y4 }1 Z* U
本站提供的所有影视作品均是在网上搜集任何涉及商业盈利目的均不得使用,否则产生的一切后果将由您自己承担!本站将不对本站的任何内容负任何法律责任!该下载内容仅做宽带测试使用,请在下载后24小时内删除。请购买正版!

# H/ s7 o5 E$ r! ?
5 ?$ D3 R7 _/ t$ D" F  L【下载地址】
# K2 D/ H* A  M8 _& X! ^9 u1 p6 d8 q( D+ N" o& u  n
游客,如果您要查看本帖隐藏内容请回复  捐助论坛可免回复查看隐藏内容详情请点击
最近访问 头像模式 列表模式
HD一条街,身边的一条街。
cnk9843 该用户已被删除
发表于 2014-1-14 12:59:39 | 显示全部楼层
提示: 作者被禁止或删除 内容自动屏蔽
HD一条街,身边的一条街。
977nddkdk 该用户已被删除
发表于 2014-1-14 13:06:50 | 显示全部楼层
提示: 作者被禁止或删除 内容自动屏蔽
HD一条街,身边的一条街。
发表于 2014-1-14 15:55:57 | 显示全部楼层
精品纪录片!
HD一条街,身边的一条街。
bianfl 该用户已被删除
发表于 2014-1-14 20:16:07 | 显示全部楼层
提示: 作者被禁止或删除 内容自动屏蔽
HD一条街,身边的一条街。
发表于 2014-1-14 23:28:08 | 显示全部楼层
感謝大大無私的分享!
HD一条街,身边的一条街。
ele_hoe0612 该用户已被删除
发表于 2014-1-15 00:11:50 | 显示全部楼层
提示: 作者被禁止或删除 内容自动屏蔽
HD一条街,身边的一条街。
squallmp5 该用户已被删除
发表于 2014-1-15 01:36:41 | 显示全部楼层
提示: 作者被禁止或删除 内容自动屏蔽
HD一条街,身边的一条街。
云中岳 该用户已被删除
发表于 2014-1-15 10:18:18 | 显示全部楼层
提示: 作者被禁止或删除 内容自动屏蔽
HD一条街,身边的一条街。
发表于 2014-1-16 08:00:54 | 显示全部楼层
Thank you.
HD一条街,身边的一条街。
您需要登录后才可以回帖 登录 | 立即注册

本版积分规则

手机版|小黑屋|有问题发邮件到admin#(换成@)hd1tj.org|微博|免责申明|HD一条街

GMT+8, 2016-12-3 06:15

Powered by Discuz! X3.1

© 2001-2013 Comsenz Inc.

快速回复 返回顶部 返回列表