开启辅助访问 切换到窄版

HD一条街论坛

 找回密码
 立即注册
搜索
查看: 2490|回复: 57

[其它] [迅雷快传][倩女幽魂 2003版 全40集][MKV版/5G][国语 英文字幕][2003年/徐熙媛/陈晓东/宣萱/吴京/罗嘉良主演的香港古装爱情剧]

  [复制链接]
发表于 2013-12-8 20:34:00 | 显示全部楼层 |阅读模式
1XmDK.jpg + Q8 L! @- v* X0 p2 \3 `5 M
, J3 w% w3 Q, A0 f# {
导演: 陈十三+ H' E- K1 t: {1 k
主演: 徐熙媛 / 陈晓东 / 宣萱 / 吴京 / 罗嘉良 / 邓萃雯 / 吕颂贤 / 元华 / 麦家琪 / 聂远6 z$ s5 G2 ~0 d) s& f
类型: 爱情 / 武侠 / 古装. `: C: m" s" d  g3 `0 w
制片国家/地区: 香港
& n& l1 M( [$ k4 {) L6 }语言: 普通话/国语
# v4 H2 p: B( h9 ~集数: 40) S8 @5 j1 {. U* {/ R; u% o1 R
又名: 천녀유혼2 `4 N2 j4 T$ t2 l5 r

5 A2 K' j; f. I倩女幽魂的剧情简介  ·  ·  ·  ·  ·  ·" O, [, j+ a7 _2 R1 V  J  ?
  大唐元年,天下繁盛。然而一段有关“七世怨侣”的预言,却使众人惶惶不得终日。传说魔道将凭七世怨侣的力量而得天下,人间从此化作无间地狱。玄心正宗的宗主燕赤霞(元华饰)尽展平生所学和魔君六道(罗嘉良饰)大战,魔君六道被燕赤霞杀死,留下一子七夜(聂远饰)。二十年后,一介书生宁采臣(陈晓东饰)来到有妖孽作崇的南郭镇。在入镇以前,宁采臣就接连遇见了很多离奇之事。先是被装神弄鬼的狐妖聂小倩(徐熙媛饰)吓个半死,然后又遇到一个叫人摸不着头脑的神秘少女马红叶(宣萱饰)。入镇以后,更被一个自称燕赤霞首席弟子的诸葛流云(吴京饰)苦缠。因缘际会,在冥冥中的安排下,一场凄美的人鬼情悲情上演。
6 e  B- w/ o7 b8 f2 q  由亚视著名鬼才编剧陈十三执导的古装奇幻电视剧《倩女幽魂》,根据我国经典名著聊斋的故事《聂小倩》改编。这部多地区合拍版剧集,两岸三地众星加盟,重新演绎一段至死不渝的真爱故事。
1 V0 k7 w; T7 }! ^2 V
5 v0 L4 \* b0 d$ `1 R4 y' d& k$ VTitle: 倩女幽魂 / Qian Nv You Hun
4 c+ |8 @! F1 c4 [Also known as: Eternity: A Chinese Ghost Story
$ Q* R& o5 r" P6 y9 f( ]; EEpisodes: 40" Z6 l; Z* n9 \: E: W$ i+ H3 z7 C
Broadcast network: CTS* s$ J/ Y7 D4 _& T
Broadcast year: 20038 E7 {( h7 B5 w6 g1 n3 q; @& R, y
Opening theme song: Qian Nv You Hun by Daniel Chan0 O, Y8 p& U4 |9 V" M" Q3 m
Ending theme song: What Can I Do by Daniel Chan- }2 X  b0 N& m! E9 y
' r/ K+ i& h9 y8 v* ]$ }
Subtitles: English" V! t5 w5 x  e  u& ]2 L
Language: Mandarin
  1. Format                           : mkv1 S6 x2 }2 y& J4 l& H
  2. Format/Info                      : Advanced Video Codec/ Q( L0 z, u' A4 f
  3. Format profile                   : [email protected]1 r( l2 M; b- }. R7 n, c" `
  4. Format settings, CABAC           : Yes
    5 y: b! P: W. s6 q
  5. Format settings, ReFrames        : 8 frames) r# [! ]7 e/ |& _; O4 D" `6 D0 @
  6. Codec ID                         : V_MPEG4/ISO/AVC
    . ?4 j! ^+ u4 U3 u5 ~6 ?2 n% \
  7. Duration                         : 49mn 42s
    0 X% }. W$ S( G- Y
  8. Bit rate                         : 178 Kbps& X$ Z- j& m! L. X3 P; S
  9. Width                            : 352 pixels
    * l$ Z  e: R8 _+ V7 U# d; v  `& D
  10. Height                           : 288 pixels
    ; f7 H1 ^2 u0 J0 I/ V  p: C) P, c+ G" P
  11. Display aspect ratio             : 1.222& n' y2 I/ k$ h
  12. Frame rate mode                  : Variable
    1 d! Q& k. ^" c
  13. Frame rate                       : 25.000 fps3 u+ c1 ]. w; b$ `: z% C0 `
  14. Standard                         : PAL8 a: y! n+ [, e
  15. Color space                      : YUV5 }0 D8 ^( P! F, }
  16. Chroma subsampling               : 4:2:07 K8 |7 ~5 P& b
  17. Bit depth                        : 8 bits
    . P9 H6 K+ P- ~; N9 t
  18. Scan type                        : Progressive9 m3 G/ p3 y, e8 c+ M# W
  19. Bits/(Pixel*Frame)               : 0.070
    9 C0 G7 y$ Q# _. h# @
  20. Stream size                      : 63.3 MiB (52%)
    6 z: U9 P$ v1 r& F8 h! J8 J
  21. Writing library                  : x264 core 122
    4 I0 U/ ~5 `0 L: i
  22. Encoding settings                : cabac=1 / ref=8 / deblock=1:1:1 / analyse=0x3:0x133 / me=umh / subme=10 / psy=1 / psy_rd=0.00:0.00 / mixed_ref=1 / me_range=16 / chroma_me=1 / trellis=2 / 8x8dct=1 / cqm=0 / deadzone=21,11 / fast_pskip=1 / chroma_qp_offset=0 / threads=6 / sliced_threads=0 / nr=0 / decimate=1 / interlaced=0 / bluray_compat=0 / constrained_intra=0 / bframes=5 / b_pyramid=2 / b_adapt=2 / b_bias=0 / direct=1 / weightb=1 / open_gop=0 / weightp=2 / keyint=250 / keyint_min=25 / scenecut=40 / intra_refresh=0 / rc_lookahead=50 / rc=crf / mbtree=1 / crf=26.0 / qcomp=0.60 / qpmin=3 / qpmax=69 / qpstep=4 / ip_ratio=1.40 / aq=1:0.60# V* _6 M0 P5 s) s0 Y
  23. Language                         : English
    ; @& J7 Q% w5 G( x' J" X( ~
  24. Color primaries                  : BT.470-6 System B, BT.470-6 System G, BT.601-6 625, BT.1358 625, BT.1700 625 PAL, BT.1700 625 SECAM
    $ G- F! ^4 U! S  U! `
  25. Transfer characteristics         : BT.709-5, BT.1361! v; O# Q2 L5 D! L! t+ c+ c. D
  26. Matrix coefficients              : BT.601-6 525, BT.1358 525, BT.1700 NTSC, SMPTE 170M0 _9 R. n  x+ B( i* ]
  27. / G' F$ @* j8 I- ?: a' r/ l
  28. Audio
    % ]: j1 b0 Y3 J" R% ]3 l$ v0 O
  29. ID                               : 2
    ' G1 V) Y- v7 m4 r7 u3 J0 A
  30. Format                           : Vorbis' _/ S2 j) `1 i/ S
  31. Format settings, Floor           : 1
    2 L2 R6 M# |, {- g2 [3 {
  32. Codec ID                         : A_VORBIS; E3 i7 M6 @% ^5 H, D
  33. Duration                         : 49mn 42s
    & d  e! S" {$ C3 u4 F, d* ^& Z
  34. Bit rate                         : 160 Kbps+ G$ [4 |6 v3 T( d; d( X
  35. Channel(s)                       : 1 channel. h9 b3 ~5 a# x8 g# J0 D/ W7 r
  36. Sampling rate                    : 48.0 KHz
    3 L/ O! u' n% ]1 x' {: o
  37. Stream size                      : 56.9 MiB (46%)6 @+ s# W2 G/ E5 t
  38. Writing library                  : aoTuV 20110424 (UTC 2011-04-24)
    ; u. {# s9 i+ I
  39. Language                         : un
复制代码

0 ~5 H, T  j: o# m) z) Z4 v6 F& t  N' o4 D, t/ ~3 G
【下载地址】
( G- [0 y3 w9 \5 J
游客,如果您要查看本帖隐藏内容请回复  捐助论坛可免回复查看隐藏内容 详情请点击
最近访问 头像模式 列表模式
HD一条街,身边的一条街。
脑残箭请问i 该用户已被删除
发表于 2013-12-8 20:38:16 | 显示全部楼层
提示: 作者被禁止或删除 内容自动屏蔽
HD一条街,身边的一条街。
xbfn24 该用户已被删除
发表于 2013-12-8 20:41:50 来自手机 | 显示全部楼层
提示: 作者被禁止或删除 内容自动屏蔽
HD一条街,身边的一条街。
barret7824 该用户已被删除
发表于 2013-12-8 22:51:29 | 显示全部楼层
提示: 作者被禁止或删除 内容自动屏蔽
HD一条街,身边的一条街。
联威科技 该用户已被删除
发表于 2013-12-8 23:57:28 | 显示全部楼层
提示: 作者被禁止或删除 内容自动屏蔽
HD一条街,身边的一条街。
活着的死人 该用户已被删除
发表于 2013-12-9 03:16:10 来自手机 | 显示全部楼层
提示: 作者被禁止或删除 内容自动屏蔽
HD一条街,身边的一条街。
发表于 2013-12-9 08:12:18 | 显示全部楼层
喜欢陈晓东,谢谢楼主分享!
HD一条街,身边的一条街。
发表于 2013-12-9 09:44:04 | 显示全部楼层
感谢楼主分享!!!
HD一条街,身边的一条街。
jicemoon 该用户已被删除
发表于 2013-12-9 11:00:54 | 显示全部楼层
提示: 作者被禁止或删除 内容自动屏蔽
HD一条街,身边的一条街。
飞扬 该用户已被删除
发表于 2013-12-9 12:00:23 | 显示全部楼层
提示: 作者被禁止或删除 内容自动屏蔽
HD一条街,身边的一条街。

手机版|小黑屋|有问题发邮件到admin#(换成@)hd1tj.org|微博|免责申明|HD一条街

GMT+8, 2017-4-29 11:44

Powered by Discuz! X3.1

© 2001-2013 Comsenz Inc.

快速回复 返回顶部 返回列表