开启辅助访问 切换到窄版

HD一条街论坛

 找回密码
 加入我们
查看: 2329|回复: 57

[其它] [迅雷快传][倩女幽魂 2003版 全40集][MKV版/5G][国语 英文字幕][2003年/徐熙媛/陈晓东/宣萱/吴京/罗嘉良主演的香港古装爱情剧]

  [复制链接]
发表于 2013-12-8 20:34:00 | 显示全部楼层 |阅读模式
1XmDK.jpg + x/ O+ P" y# b% ]9 g/ F0 X* ~
' r  s8 Q% `+ i* N
导演: 陈十三
+ O) S; ^- ]+ z5 C; V* ]% F8 r主演: 徐熙媛 / 陈晓东 / 宣萱 / 吴京 / 罗嘉良 / 邓萃雯 / 吕颂贤 / 元华 / 麦家琪 / 聂远8 j) ^  T2 s& r4 p4 T* B
类型: 爱情 / 武侠 / 古装
( E8 `6 n9 [  V6 u* t% R) }/ n9 G制片国家/地区: 香港
2 Q6 ~% \$ K* O5 d7 ~0 A  m/ f语言: 普通话/国语
1 k/ S; D: A6 o" u- v7 \集数: 40- _! I7 \4 j% u, m1 N+ A$ _
又名: 천녀유혼$ ^9 l% ~; i( P' |
+ I; w# e5 x6 o6 t1 r
倩女幽魂的剧情简介  ·  ·  ·  ·  ·  ·8 Y) i# K5 v; m: A$ Z
  大唐元年,天下繁盛。然而一段有关“七世怨侣”的预言,却使众人惶惶不得终日。传说魔道将凭七世怨侣的力量而得天下,人间从此化作无间地狱。玄心正宗的宗主燕赤霞(元华饰)尽展平生所学和魔君六道(罗嘉良饰)大战,魔君六道被燕赤霞杀死,留下一子七夜(聂远饰)。二十年后,一介书生宁采臣(陈晓东饰)来到有妖孽作崇的南郭镇。在入镇以前,宁采臣就接连遇见了很多离奇之事。先是被装神弄鬼的狐妖聂小倩(徐熙媛饰)吓个半死,然后又遇到一个叫人摸不着头脑的神秘少女马红叶(宣萱饰)。入镇以后,更被一个自称燕赤霞首席弟子的诸葛流云(吴京饰)苦缠。因缘际会,在冥冥中的安排下,一场凄美的人鬼情悲情上演。 # g- L7 k, e1 z* x8 {
  由亚视著名鬼才编剧陈十三执导的古装奇幻电视剧《倩女幽魂》,根据我国经典名著聊斋的故事《聂小倩》改编。这部多地区合拍版剧集,两岸三地众星加盟,重新演绎一段至死不渝的真爱故事。) U% ^' E7 M* q+ m
0 q- H* O2 S! K
Title: 倩女幽魂 / Qian Nv You Hun! _% m7 C; z+ [0 o: |+ h
Also known as: Eternity: A Chinese Ghost Story
. O$ }2 D1 A) ]+ bEpisodes: 401 W  k* w. ]! ~
Broadcast network: CTS
$ x9 l3 G8 V- ]. Q  F! }/ ^) WBroadcast year: 2003# c- M* N* F! r# h! h. {
Opening theme song: Qian Nv You Hun by Daniel Chan
0 Q2 X2 h9 |  T! _; }Ending theme song: What Can I Do by Daniel Chan* m! t" l1 h% ]) f9 L& d; K% Z
% I! p* y/ L, U1 R3 `& t
Subtitles: English
0 ]7 {' B! F4 i1 GLanguage: Mandarin
  1. Format                           : mkv
    5 f1 I- B2 ~7 a
  2. Format/Info                      : Advanced Video Codec3 F( B7 V6 B. r" o- \& ]
  3. Format profile                   : [email protected]
    5 J. m0 v3 _% j$ P
  4. Format settings, CABAC           : Yes
    ( G  N, [) [, E0 X2 p
  5. Format settings, ReFrames        : 8 frames
    2 A, H5 W$ k, z! m% ~
  6. Codec ID                         : V_MPEG4/ISO/AVC7 G# W/ H+ y3 i+ T
  7. Duration                         : 49mn 42s
    - i& S6 v9 |3 l5 s* a4 S3 x
  8. Bit rate                         : 178 Kbps4 T1 c7 L' B+ _: |7 }
  9. Width                            : 352 pixels# }  b  o- d; a3 ?9 G9 V1 C% k
  10. Height                           : 288 pixels' {# G; P& y0 r; ]. y  a0 v
  11. Display aspect ratio             : 1.2223 t( N$ }+ v  a
  12. Frame rate mode                  : Variable
    1 J" y8 R' N( r
  13. Frame rate                       : 25.000 fps0 K, x6 K8 [0 ]
  14. Standard                         : PAL0 K9 N9 M: b$ w, }% I, d7 O
  15. Color space                      : YUV
    5 u6 M! a* v+ O: z6 y% h0 p
  16. Chroma subsampling               : 4:2:0
    $ @* ?& d8 u: h, x
  17. Bit depth                        : 8 bits5 m, U% V) R$ c) o8 ?! ?
  18. Scan type                        : Progressive* E9 H" c. m2 B& |2 ?
  19. Bits/(Pixel*Frame)               : 0.0705 H, Q+ U" w8 x2 i" `3 f7 X! f* @
  20. Stream size                      : 63.3 MiB (52%); w+ @( i2 {) K
  21. Writing library                  : x264 core 122
    3 r' a* t& f* W+ K# C; D# n0 j
  22. Encoding settings                : cabac=1 / ref=8 / deblock=1:1:1 / analyse=0x3:0x133 / me=umh / subme=10 / psy=1 / psy_rd=0.00:0.00 / mixed_ref=1 / me_range=16 / chroma_me=1 / trellis=2 / 8x8dct=1 / cqm=0 / deadzone=21,11 / fast_pskip=1 / chroma_qp_offset=0 / threads=6 / sliced_threads=0 / nr=0 / decimate=1 / interlaced=0 / bluray_compat=0 / constrained_intra=0 / bframes=5 / b_pyramid=2 / b_adapt=2 / b_bias=0 / direct=1 / weightb=1 / open_gop=0 / weightp=2 / keyint=250 / keyint_min=25 / scenecut=40 / intra_refresh=0 / rc_lookahead=50 / rc=crf / mbtree=1 / crf=26.0 / qcomp=0.60 / qpmin=3 / qpmax=69 / qpstep=4 / ip_ratio=1.40 / aq=1:0.60
    2 |2 U# g0 c0 h* R
  23. Language                         : English. |+ l* g0 O: C1 b3 n$ F
  24. Color primaries                  : BT.470-6 System B, BT.470-6 System G, BT.601-6 625, BT.1358 625, BT.1700 625 PAL, BT.1700 625 SECAM6 V' d/ V$ O9 g
  25. Transfer characteristics         : BT.709-5, BT.1361
    ! M$ G6 i- O+ h, h8 f  K) [
  26. Matrix coefficients              : BT.601-6 525, BT.1358 525, BT.1700 NTSC, SMPTE 170M
    4 A+ f2 |( M* U/ S) u4 x6 X

  27. 1 h1 q  d$ S" X: v$ H! i3 x
  28. Audio( [- b) K6 i" a# d1 l) a6 X" j( |
  29. ID                               : 2
    2 _+ _7 h' F" L5 y# e# r
  30. Format                           : Vorbis
    5 f6 N& y% L: f" o* O
  31. Format settings, Floor           : 1: d0 p' _9 R! R. A, _3 z
  32. Codec ID                         : A_VORBIS
    , ]- j) X  b0 E  {" K' X; G: i
  33. Duration                         : 49mn 42s
    " A1 t: a4 a" [) ~8 Y! P' Y) R
  34. Bit rate                         : 160 Kbps
      _- f3 I' _: K/ E1 I" _
  35. Channel(s)                       : 1 channel; B4 o% `8 _2 i' d- M0 }/ p6 z
  36. Sampling rate                    : 48.0 KHz+ p7 `) c( f# s$ p- n- I0 {" B
  37. Stream size                      : 56.9 MiB (46%)
    # R7 ?' t& z: B  R. I0 g
  38. Writing library                  : aoTuV 20110424 (UTC 2011-04-24)( t+ z& E% P0 H- \% ]4 i
  39. Language                         : un
复制代码

$ c( j8 A+ I- Y+ |9 I. y6 D' _3 |) I3 y) M$ u3 o
【下载地址】
8 k5 |7 |0 H& P/ `
游客,如果您要查看本帖隐藏内容请回复  捐助论坛可免回复查看隐藏内容 详情请点击
最近访问 头像模式 列表模式
HD一条街,身边的一条街。
脑残箭请问i 该用户已被删除
发表于 2013-12-8 20:38:16 | 显示全部楼层
提示: 作者被禁止或删除 内容自动屏蔽
HD一条街,身边的一条街。
xbfn24 该用户已被删除
发表于 2013-12-8 20:41:50 来自手机 | 显示全部楼层
提示: 作者被禁止或删除 内容自动屏蔽
HD一条街,身边的一条街。
barret7824 该用户已被删除
发表于 2013-12-8 22:51:29 | 显示全部楼层
提示: 作者被禁止或删除 内容自动屏蔽
HD一条街,身边的一条街。
联威科技 该用户已被删除
发表于 2013-12-8 23:57:28 | 显示全部楼层
提示: 作者被禁止或删除 内容自动屏蔽
HD一条街,身边的一条街。
活着的死人 该用户已被删除
发表于 2013-12-9 03:16:10 来自手机 | 显示全部楼层
提示: 作者被禁止或删除 内容自动屏蔽
HD一条街,身边的一条街。
发表于 2013-12-9 08:12:18 | 显示全部楼层
喜欢陈晓东,谢谢楼主分享!
HD一条街,身边的一条街。
发表于 2013-12-9 09:44:04 | 显示全部楼层
感谢楼主分享!!!
HD一条街,身边的一条街。
jicemoon 该用户已被删除
发表于 2013-12-9 11:00:54 | 显示全部楼层
提示: 作者被禁止或删除 内容自动屏蔽
HD一条街,身边的一条街。
飞扬 该用户已被删除
发表于 2013-12-9 12:00:23 | 显示全部楼层
提示: 作者被禁止或删除 内容自动屏蔽
HD一条街,身边的一条街。
您需要登录后才可以回帖 登录 | 加入我们

本版积分规则

手机版|小黑屋|有问题发邮件到admin#(换成@)hd1tj.org|微博|免责申明|HD一条街

GMT+8, 2017-2-28 08:58

Powered by Discuz! X3.1

© 2001-2013 Comsenz Inc.

快速回复 返回顶部 返回列表