开启辅助访问 切换到窄版

HD一条街论坛

 找回密码
 立即注册
查看: 2178|回复: 57

[其它] [迅雷快传][倩女幽魂 2003版 全40集][MKV版/5G][国语 英文字幕][2003年/徐熙媛/陈晓东/宣萱/吴京/罗嘉良主演的香港古装爱情剧]

  [复制链接]
发表于 2013-12-8 20:34:00 | 显示全部楼层 |阅读模式
1XmDK.jpg
+ w1 B1 ]9 X; m0 {0 X$ e1 l" y: ^: R  j# J
导演: 陈十三
( m# l7 e# Y; k+ e0 ]1 u0 H( R主演: 徐熙媛 / 陈晓东 / 宣萱 / 吴京 / 罗嘉良 / 邓萃雯 / 吕颂贤 / 元华 / 麦家琪 / 聂远% {( ?) ]% q  U, w
类型: 爱情 / 武侠 / 古装$ F7 d; ]5 d) C
制片国家/地区: 香港
& Z# v  j- `# [; s6 q: r语言: 普通话/国语
" i6 n$ B$ r( o集数: 40
, h7 x. l2 E5 F9 W) i( o又名: 천녀유혼
5 w( u) j# E5 C1 G+ _  d9 V5 `7 |0 V& ]0 r4 |7 h' d2 E
倩女幽魂的剧情简介  ·  ·  ·  ·  ·  ·
0 i9 d, j6 @! r. D7 K  大唐元年,天下繁盛。然而一段有关“七世怨侣”的预言,却使众人惶惶不得终日。传说魔道将凭七世怨侣的力量而得天下,人间从此化作无间地狱。玄心正宗的宗主燕赤霞(元华饰)尽展平生所学和魔君六道(罗嘉良饰)大战,魔君六道被燕赤霞杀死,留下一子七夜(聂远饰)。二十年后,一介书生宁采臣(陈晓东饰)来到有妖孽作崇的南郭镇。在入镇以前,宁采臣就接连遇见了很多离奇之事。先是被装神弄鬼的狐妖聂小倩(徐熙媛饰)吓个半死,然后又遇到一个叫人摸不着头脑的神秘少女马红叶(宣萱饰)。入镇以后,更被一个自称燕赤霞首席弟子的诸葛流云(吴京饰)苦缠。因缘际会,在冥冥中的安排下,一场凄美的人鬼情悲情上演。
' z& Z% k6 \# j  由亚视著名鬼才编剧陈十三执导的古装奇幻电视剧《倩女幽魂》,根据我国经典名著聊斋的故事《聂小倩》改编。这部多地区合拍版剧集,两岸三地众星加盟,重新演绎一段至死不渝的真爱故事。' M0 @7 W0 P: L

* s3 H7 L" n' t' V; ^, JTitle: 倩女幽魂 / Qian Nv You Hun
& {( N0 l( E  [% }Also known as: Eternity: A Chinese Ghost Story# r7 G( E$ w, h5 X2 Z2 S8 ]
Episodes: 40! }  M4 d3 ^' n' Q- s- F# g8 i  u# L. b
Broadcast network: CTS
$ \, d  j' v5 S, g* kBroadcast year: 2003( J6 g7 B) N& D$ X$ s
Opening theme song: Qian Nv You Hun by Daniel Chan+ `; T2 X5 e! K7 A8 \1 m: p7 T
Ending theme song: What Can I Do by Daniel Chan
0 F; C! \+ Q; W( _: K$ m6 f$ [5 i$ k% T$ M2 F6 u9 T7 A
Subtitles: English
& L/ b  X7 Y3 X! |Language: Mandarin
  1. Format                           : mkv
    $ j8 }1 d0 \  e* T# \, f8 e- J
  2. Format/Info                      : Advanced Video Codec9 r$ y2 |+ z# ]7 A, L
  3. Format profile                   : [email protected]4 r8 _5 i! M4 [
  4. Format settings, CABAC           : Yes
    9 S8 `; f  }( J  ~* e
  5. Format settings, ReFrames        : 8 frames
    4 z/ W" ?; X) \! C+ B; `9 V
  6. Codec ID                         : V_MPEG4/ISO/AVC5 D2 W: |$ f+ g! n5 w+ C
  7. Duration                         : 49mn 42s: N6 U3 f9 b' ?0 m
  8. Bit rate                         : 178 Kbps3 z6 }# l8 ^; Y* }) F
  9. Width                            : 352 pixels
    9 `$ e- \* y- E4 [8 R
  10. Height                           : 288 pixels
    1 X9 m9 G& v$ N' @: w! \7 J' ]
  11. Display aspect ratio             : 1.222' M  {0 A% D' |+ m% x
  12. Frame rate mode                  : Variable! B# Z$ e' ?" t6 `7 w$ p# K3 \0 q+ I
  13. Frame rate                       : 25.000 fps2 U4 e  v$ i7 ]
  14. Standard                         : PAL
    ( ~6 o( V' n/ G
  15. Color space                      : YUV
    7 v( d8 _! W- x/ c& S& u% _
  16. Chroma subsampling               : 4:2:0' p7 f- G0 f; l# D
  17. Bit depth                        : 8 bits5 Q/ Z2 F- f. y3 e, h' [
  18. Scan type                        : Progressive' Q; X. a% }- S  I) z8 E
  19. Bits/(Pixel*Frame)               : 0.070' W3 S& v7 w# R/ O* o
  20. Stream size                      : 63.3 MiB (52%)
    ' {, v( s" w9 \9 r0 m
  21. Writing library                  : x264 core 122
    , A  ]4 {! F9 B" Q2 \
  22. Encoding settings                : cabac=1 / ref=8 / deblock=1:1:1 / analyse=0x3:0x133 / me=umh / subme=10 / psy=1 / psy_rd=0.00:0.00 / mixed_ref=1 / me_range=16 / chroma_me=1 / trellis=2 / 8x8dct=1 / cqm=0 / deadzone=21,11 / fast_pskip=1 / chroma_qp_offset=0 / threads=6 / sliced_threads=0 / nr=0 / decimate=1 / interlaced=0 / bluray_compat=0 / constrained_intra=0 / bframes=5 / b_pyramid=2 / b_adapt=2 / b_bias=0 / direct=1 / weightb=1 / open_gop=0 / weightp=2 / keyint=250 / keyint_min=25 / scenecut=40 / intra_refresh=0 / rc_lookahead=50 / rc=crf / mbtree=1 / crf=26.0 / qcomp=0.60 / qpmin=3 / qpmax=69 / qpstep=4 / ip_ratio=1.40 / aq=1:0.609 g2 c0 c' `- U  K! d
  23. Language                         : English  |: ?5 x4 l6 m* w
  24. Color primaries                  : BT.470-6 System B, BT.470-6 System G, BT.601-6 625, BT.1358 625, BT.1700 625 PAL, BT.1700 625 SECAM
    5 X. y3 U* |& B4 ~& G9 N3 B
  25. Transfer characteristics         : BT.709-5, BT.1361
    ( p& s0 S& @7 Y' j# r3 A4 {
  26. Matrix coefficients              : BT.601-6 525, BT.1358 525, BT.1700 NTSC, SMPTE 170M
    8 X: ^: \/ b+ I1 Z' c& C6 v

  27. + j7 I% Q7 u8 C  R& A; }
  28. Audio
    8 o4 K& f3 ]4 @9 [4 Q4 S
  29. ID                               : 2
    ! }! N3 n* t7 {
  30. Format                           : Vorbis( V+ Z5 U- C) `0 `1 {9 U7 @9 Y
  31. Format settings, Floor           : 1  _+ c/ }7 v9 n- S9 W+ s# V. H
  32. Codec ID                         : A_VORBIS
    ! H1 M) P% O5 y+ `+ Q7 w0 h
  33. Duration                         : 49mn 42s# D5 M3 w' ?: I% u1 w  k! L( }
  34. Bit rate                         : 160 Kbps
    5 @: s& e7 s' f2 S! L
  35. Channel(s)                       : 1 channel
    - O7 Q5 G8 X9 h5 ^8 m8 H! b2 V
  36. Sampling rate                    : 48.0 KHz# q4 N8 J; B+ G( C* ?* N
  37. Stream size                      : 56.9 MiB (46%)3 A! z; u/ b: U' F
  38. Writing library                  : aoTuV 20110424 (UTC 2011-04-24), h' S  B. |: v; C
  39. Language                         : un
复制代码

. e# E0 M  H' m+ u
* ]8 i& N" {( A: S【下载地址】
# w* |! U7 f: P5 F( }* D
游客,如果您要查看本帖隐藏内容请回复  捐助论坛可免回复查看隐藏内容详情请点击
最近访问 头像模式 列表模式
HD一条街,身边的一条街。
脑残箭请问i 该用户已被删除
发表于 2013-12-8 20:38:16 | 显示全部楼层
提示: 作者被禁止或删除 内容自动屏蔽
HD一条街,身边的一条街。
xbfn24 该用户已被删除
发表于 2013-12-8 20:41:50 来自手机 | 显示全部楼层
提示: 作者被禁止或删除 内容自动屏蔽
HD一条街,身边的一条街。
barret7824 该用户已被删除
发表于 2013-12-8 22:51:29 | 显示全部楼层
提示: 作者被禁止或删除 内容自动屏蔽
HD一条街,身边的一条街。
联威科技 该用户已被删除
发表于 2013-12-8 23:57:28 | 显示全部楼层
提示: 作者被禁止或删除 内容自动屏蔽
HD一条街,身边的一条街。
活着的死人 该用户已被删除
发表于 2013-12-9 03:16:10 来自手机 | 显示全部楼层
提示: 作者被禁止或删除 内容自动屏蔽
HD一条街,身边的一条街。
发表于 2013-12-9 08:12:18 | 显示全部楼层
喜欢陈晓东,谢谢楼主分享!
HD一条街,身边的一条街。
发表于 2013-12-9 09:44:04 | 显示全部楼层
感谢楼主分享!!!
HD一条街,身边的一条街。
jicemoon 该用户已被删除
发表于 2013-12-9 11:00:54 | 显示全部楼层
提示: 作者被禁止或删除 内容自动屏蔽
HD一条街,身边的一条街。
飞扬 该用户已被删除
发表于 2013-12-9 12:00:23 | 显示全部楼层
提示: 作者被禁止或删除 内容自动屏蔽
HD一条街,身边的一条街。
您需要登录后才可以回帖 登录 | 立即注册

本版积分规则

手机版|小黑屋|有问题发邮件到admin#(换成@)hd1tj.org|微博|免责申明|HD一条街

GMT+8, 2016-12-8 15:52

Powered by Discuz! X3.1

© 2001-2013 Comsenz Inc.

快速回复 返回顶部 返回列表