HD一条街论坛

 找回密码
 立即注册
搜索
查看: 123|回复: 8

[欧美] 纪录片:世界上最非凡的住宅 第二季[自带中文字幕]The.Worlds.Most.Extraordinary.Homes.S02.1080p.NF.WEBRip.DDP2.0.x264-NTb 18.45G

[复制链接]
发表于 2019-2-1 14:12:02 | 显示全部楼层 |阅读模式

- O0 F, E. B/ I- [) }                               
登录/注册后可看大图
+ a5 S# p% ~% _# Z) Z$ j

% x4 R  O: a& j( h2 D' _8 b' G; U◎译  名 世界上最非凡的住宅 第二季
5 K! J1 V/ U2 r/ D3 y4 }: s◎片  名 The World's Most Extraordinary Homes Season 2# `! U$ i. _1 N) {+ I8 ]
◎年  代 2018
1 o+ D: `8 J$ a# |4 H" f◎产  地 英国
, F7 R3 T& c% w4 x7 ~) e◎类  别 纪录片
5 @* G* Z/ R7 j/ @◎语  言 英语
  L, @+ G# [5 H$ Q  F( X◎上映日期 2018-02-28(UK)
$ _: w0 G$ ?' x3 N. O◎豆瓣评分 8.9/10 from 109 users+ H7 e( t6 V  r6 C3 Q! ~& N
◎豆瓣链接 https://movie.douban.com/subject/30159525/3 r: y8 f9 E( V0 x3 j+ B" ^
◎集  数 87 W' {2 Y5 y2 A$ ?! @
◎片  长 58分钟9 A/ `2 f6 A+ H' _! L
◎主  演 卡罗琳·昆汀 Caroline Quentin& ?6 j' B& E4 W3 s
      Piers Taylor) E; V( x. v1 S- @
  L* \- `2 f* g' v' O
* ?! }' n  P0 y" K/ }
◎标  签 纪录片 | BBC | 设计 | 英国 | 建筑 | Documentary | architecture | 2018
3 F0 ]4 b6 |4 ~" N0 ?# c, b; h- T' u
◎简  介  + J, t$ a2 @: e

4 O* ?1 {+ @2 C9 c6 u1 [  暂无相关剧情介绍
+ V( E% b* A$ n9 U* C  T
  1. Video
    9 M) G' X! W( n  T" i; c7 _0 V1 S
  2. ID : 1
    / I  f1 y0 ~) a4 f, \2 l  @
  3. Format : AVC
    4 R: C* o0 j. c3 L8 @' E. A) j/ l9 c
  4. Format/Info : Advanced Video Codec
    ! O8 |: n/ a& b) ~
  5. Format profile : [email protected]- a+ O0 S) v, J( j; y, }; [$ p
  6. Format settings : CABAC / 3 Ref Frames
    : W7 K4 @1 |' ?! k
  7. Format settings, CABAC : Yes$ J  Y. a# H3 O
  8. Format settings, ReFrames : 3 frames
    6 |) c$ T! K$ s& ~" |$ h7 ?2 x8 k
  9. Codec ID : V_MPEG4/ISO/AVC
    + i" l6 ^9 I2 E
  10. Duration : 46 min 36 s. F  r4 t1 f* A
  11. Bit rate mode : Variable1 g6 g  l' a  W; E  D0 Q
  12. Bit rate : 7 500 kb/s
    + j  O" q" d# o6 T+ K
  13. Maximum bit rate : 11.2 Mb/s) ]4 g2 x7 q2 q: Q9 |5 h
  14. Width : 1 920 pixels
    : N5 F. W1 H8 w! p3 m2 Q) O
  15. Height : 1 080 pixels
    5 L" v3 W  J- o
  16. Display aspect ratio : 16:9
    ) h- W% {. d5 Y7 `9 R. A! |
  17. Frame rate mode : Constant
    : L9 O, p: b9 S
  18. Frame rate : 25.000 FPS
    2 Y5 H  F6 q& m$ B+ p
  19. Color space : YUV0 M& O$ X- w  Y/ f3 t0 o: z
  20. Chroma subsampling : 4:2:0
    . Z( f8 P$ H' @% ^$ ~; T
  21. Bit depth : 8 bits
    7 X3 ^5 B  C9 q# k- Y
  22. Scan type : Progressive
    , Q$ p) Z$ F; e# h1 R
  23. Bits/(Pixel*Frame) : 0.145# F" W6 ^9 x! c) V* L* K
  24. Stream size : 2.42 GiB (98%)0 ^5 J/ R( p5 d$ g
  25. Writing library : x264 core 148 r2715 7e752284 |" t- E% h; @/ g* ]
  26. Encoding settings : cabac=1 / ref=3 / deblock=1:0:0 / analyse=0x1:0x111 / me=umh / subme=10 / psy=1 / psy_rd=1.00:0.00 / mixed_ref=1 / me_range=24 / chroma_me=1 / trellis=2 / 8x8dct=0 / cqm=0 / deadzone=21,11 / fast_pskip=1 / chroma_qp_offset=-2 / threads=8 / lookahead_threads=1 / sliced_threads=0 / nr=0 / decimate=1 / interlaced=0 / bluray_compat=0 / stitchable=1 / constrained_intra=0 / bframes=2 / b_pyramid=0 / b_adapt=2 / b_bias=0 / direct=3 / weightb=1 / open_gop=0 / weightp=2 / keyint=50 / keyint_min=26 / scenecut=0 / intra_refresh=0 / rc_lookahead=50 / rc=2pass / mbtree=1 / bitrate=7500 / ratetol=1.0 / qcomp=0.50 / qpmin=6 / qpmax=51 / qpstep=4 / cplxblur=20.0 / qblur=0.5 / vbv_maxrate=11250 / vbv_bufsize=15000 / nal_hrd=vbr / filler=0 / ip_ratio=1.40 / aq=1:1.008 }! A: @8 C+ i" W: s9 o8 {
  27. Default : Yes7 H$ U/ o2 s2 d: ?/ S6 Q; m
  28. Forced : No/ ~# M6 ?( k$ B  T- t

  29. 9 [$ g$ X5 c9 R+ f) u7 n
  30. Audio
    & R. }, O. ^) p0 G' n3 k2 @" H$ ]- f
  31. ID : 2
    1 ?3 C& ^" w% ^8 O  h$ y
  32. Format : E-AC-3
    1 _; x& I3 L: s2 |/ p1 R; h' Q
  33. Format/Info : Enhanced AC-3  {5 `2 y! m2 `3 d7 [
  34. Commercial name : Dolby Digital Plus
    + N1 Q8 k6 p6 O: P1 G& y
  35. Codec ID : A_EAC3$ R* r' ], |( A
  36. Duration : 46 min 36 s
    ' c/ _1 j) w  r7 {
  37. Bit rate mode : Constant" I, p7 t5 a/ u6 `# a/ @' |
  38. Bit rate : 128 kb/s
    ! s0 x+ i* |0 B
  39. Channel(s) : 2 channels
    ! W; i! w6 y! N# X' l* N% I
  40. Channel layout : L R/ S' Z' \5 h8 z$ a" G
  41. Sampling rate : 48.0 kHz
    ( B& H  `0 o9 s' d( R1 |8 Z$ N
  42. Frame rate : 31.250 FPS (1536 SPF)
    1 @! L: D4 W4 g/ O  _. w8 E
  43. Compression mode : Lossy
      T* L( y6 T; y4 b( g4 N! r1 b
  44. Stream size : 42.7 MiB (2%)- k6 K9 r7 U, U+ ]8 R  b; B
  45. Language : English) I8 D# t+ F; i' R3 v
  46. Service kind : Complete Main
    2 O6 d, K( X$ d: @
  47. Default : Yes# x# C' \5 I% m. s% G5 ^# `. s6 n
  48. Forced : No
    2 y/ Q$ |0 n& Z; \+ O$ b4 H9 z6 r

  49. 8 c1 n: c9 o- }0 [
  50. Text #1* k& K- w1 _. y' d7 L6 R) F
  51. ID : 3+ R& a4 k, C& z8 K
  52. Format : UTF-8
    & F% R* w  t9 u! r) @; O% z
  53. Codec ID : S_TEXT/UTF8
    0 M  y/ l' ^7 Q/ f3 V. v0 A
  54. Codec ID/Info : UTF-8 Plain Text
    7 c" L+ h: b! m& z
  55. Duration : 33 min 57 s
    & Z3 s# S; V0 b3 B( A5 E
  56. Bit rate : 10 b/s2 N) `1 \- _9 ^
  57. Count of elements : 634 R; T8 c$ J  _9 j% `0 t+ i
  58. Stream size : 2.52 KiB (0%)- x  M0 T4 N( S) y- y5 F$ Z/ I
  59. Title : Forced. ]' I  s2 D* Z
  60. Language : English
    $ m, W5 H& I9 O# l; ]% b, w3 n7 `  ^
  61. Default : Yes7 D4 o; o" A- o0 `) ]+ B0 U
  62. Forced : Yes
    $ i6 f  G: ^( Q3 a1 _4 g; X
  63. 4 I% [& `( ]# e5 ~9 }# y% g6 d4 g
  64. Text #2
    . l& l& z: W  C
  65. ID : 4& I/ a* G0 w7 ?+ \$ _: L
  66. Format : UTF-8/ }7 ]: |  @8 W, t4 S. ~. ]0 g
  67. Codec ID : S_TEXT/UTF8
    ! l1 ]5 }+ v/ f: a. T, Y( i
  68. Codec ID/Info : UTF-8 Plain Text; P: r) d0 U4 `' V. E* m
  69. Duration : 45 min 38 s5 i' }7 w1 n6 C0 `0 ]# Q4 \
  70. Bit rate : 109 b/s+ z. |8 U) A5 S8 j$ x3 n
  71. Count of elements : 7419 d+ I) S% j. ]1 D3 L
  72. Stream size : 36.7 KiB (0%)
    : M# I" X; T. B" A) ^+ i% `4 Z
  73. Title : SDH( `& T9 Y: C3 y, Q6 k
  74. Language : English
    + P  ]. _  W4 V% b; ~
  75. Default : No; P% `4 E2 `" s! d8 _- b% z! w" {# B
  76. Forced : No
    : H: Y/ n3 Y5 F: i; Q2 D7 }

  77. 9 Y) }& I" S7 e& M+ |6 C- \* [
  78. Text #3
    - Z+ ]. V8 f$ m. }# d9 R" `& r) m
  79. ID : 5
    * {5 R  T3 z% L2 h4 w/ o
  80. Format : UTF-8) O& _% K+ d5 ?8 E
  81. Codec ID : S_TEXT/UTF86 ?  I6 {* r! m# R7 Y1 @. l
  82. Codec ID/Info : UTF-8 Plain Text7 H' y+ R- o5 g4 v( J* v( J) t' t8 E6 B; q
  83. Duration : 45 min 35 s' i+ |# [& j" b* T- c/ a" D
  84. Bit rate : 147 b/s; {% }. a7 R. q4 ?$ I& h4 F
  85. Count of elements : 741
    5 b  W( N6 ~# ?
  86. Stream size : 49.3 KiB (0%)0 U$ F" Q! [! v6 @; ^
  87. Language : Arabic2 x3 L$ n2 e5 l4 \% Z9 v
  88. Default : No: ]2 h0 ^5 h1 p7 H1 W- w' g) Q
  89. Forced : No1 E- b% |- o5 b5 M$ @

  90. 3 s. O" Q$ z0 @1 U  |+ y8 F
  91. Text #46 P0 U8 J2 |  g
  92. ID : 6/ i, G# F  j# {% N: N1 p
  93. Format : UTF-85 e7 ~, p# v) T0 R9 X
  94. Codec ID : S_TEXT/UTF8' W1 Q& e0 k. k1 t/ j+ o% C
  95. Codec ID/Info : UTF-8 Plain Text; M+ j. R: ~9 ]5 L
  96. Duration : 45 min 36 s% R- P+ p" a" S/ _5 R
  97. Bit rate : 96 b/s
      F- d; B' ?! Q- _$ Q3 X
  98. Count of elements : 6784 b8 \8 e4 ^1 Z  C
  99. Stream size : 32.2 KiB (0%)) r. l" n9 z' A
  100. Language : Danish
    * |( c& ?$ Q- {8 V! ~4 O
  101. Default : No  T9 T0 X* n( t; q- ]; u- _3 J8 d1 `
  102. Forced : No: U' ]0 h( n9 e7 a8 ?: R1 x
  103. % |, z5 U, e  G! L8 M/ f' B/ p- b
  104. Text #5
    . q( \& ?, z9 g0 L( k
  105. ID : 7
    0 O, b0 K0 o' W! B
  106. Format : UTF-8
    $ _8 O5 @) Y7 l
  107. Codec ID : S_TEXT/UTF8+ m- u0 \# d7 ~# V+ x$ l' d; Q
  108. Codec ID/Info : UTF-8 Plain Text( C6 z  k" e' k) U$ N
  109. Duration : 45 min 39 s
    & p& ?) p, \9 P) ?/ L% D
  110. Bit rate : 102 b/s# `  p3 \% N8 S0 d: f
  111. Count of elements : 739) ]. ?% d4 ~7 V4 t% M5 u+ b
  112. Stream size : 34.4 KiB (0%)
    ' P1 x6 v" R' w7 E, T
  113. Language : German
      Q/ F, d- e+ E+ M
  114. Default : No, m( z# ?8 s7 j2 S8 H( ?( v  _2 t
  115. Forced : No1 w3 e) Z9 C$ l% ?" D7 t
  116. & }1 x6 f7 H5 M1 i+ ^
  117. Text #6
    ' ~4 f) a0 j; ^, S* f
  118. ID : 8& h" R  ?5 ]% {) d, T: T
  119. Format : UTF-8
    ' x9 a1 x* k# |" T: c% v9 Q
  120. Codec ID : S_TEXT/UTF8
    * J% l$ U4 Y0 V. q+ Z* x: l
  121. Codec ID/Info : UTF-8 Plain Text  j% y# [% Z; v" x# e6 A% T; d
  122. Duration : 45 min 39 s9 T4 g: c/ H  e% C$ j1 |
  123. Bit rate : 163 b/s
    7 O8 x6 G# ?! Y, R* @
  124. Count of elements : 7151 D0 D* @9 L$ u2 a! I
  125. Stream size : 54.6 KiB (0%)
    : q) [" Z) W5 ^+ o8 p
  126. Language : Greek
    2 J8 i4 R% S# y+ O6 r" I% A+ n/ d
  127. Default : No* b7 Y* t5 e5 N5 z  I" L/ Q" L
  128. Forced : No
    / K+ \2 G- g5 ?- m: Z

  129. 4 \. l7 o; H6 m' o7 G9 g! U/ t% g2 L
  130. Text #7! A& u0 U5 a- J# O0 |$ Y5 P$ P( K
  131. ID : 9
    ! L# q% A0 Z4 r0 f$ K$ a4 S2 B
  132. Format : UTF-8
    6 s2 g4 C; o8 ]) o# _
  133. Codec ID : S_TEXT/UTF8( g) S1 ~# j# ~% ]$ s/ \# w
  134. Codec ID/Info : UTF-8 Plain Text4 [: E! ^/ y+ ^) Z! r
  135. Duration : 45 min 35 s* Z- [0 L8 n' S( Z/ s
  136. Bit rate : 100 b/s7 G+ {" |. w- C4 C2 X" i; g
  137. Count of elements : 740
    - J% k" H1 B7 R1 N' b1 r5 q
  138. Stream size : 33.4 KiB (0%)% l4 Q* W- L3 W! X) t
  139. Language : Spanish
    2 j: n$ K# }/ g! v5 I. \
  140. Default : No
    ; c: W9 S# X7 B* a  G+ g
  141. Forced : No
    ' q/ z: Q3 B, d7 j; K4 \
  142. $ {, E, L! D$ ?! E4 ^
  143. Text #8& p/ K: Q4 C* W
  144. ID : 10
    ) f- a. ]& Y" N% x# n
  145. Format : UTF-8
    * G; |. S( n6 ]/ c9 }' y' d0 d
  146. Codec ID : S_TEXT/UTF87 Y# s2 H3 s& N+ E& R5 i% G& R
  147. Codec ID/Info : UTF-8 Plain Text8 b% e, n/ H8 V0 E9 p- c$ p
  148. Duration : 45 min 35 s* U0 J- h2 e) @* L2 }9 U+ Z
  149. Bit rate : 107 b/s5 a7 Y& t( M5 ]! c) j9 M4 F' N& ~
  150. Count of elements : 742
    " Y% D) V2 ~$ G' N' {: m0 [4 v2 i8 e
  151. Stream size : 35.9 KiB (0%)
    9 i1 X: M2 C- `5 U. U9 m  M% |
  152. Title : European
    2 n* q4 [! l8 N8 m
  153. Language : Spanish
    ! s1 J9 p0 y4 S) }# c
  154. Default : No
    5 u# j/ v& P) }
  155. Forced : No' w3 F+ X: b& ]- N1 v. j
  156. ( ?3 G( H2 D( U
  157. Text #9
    " H2 W9 c, j! e8 f
  158. ID : 114 r8 u/ P+ v' J1 E* z3 `  \! W
  159. Format : UTF-8
    ( j# i" X7 z; k1 {  N6 H/ U. j1 P
  160. Codec ID : S_TEXT/UTF8
    6 |9 t* M# [4 w; a8 U; U7 Y  j
  161. Codec ID/Info : UTF-8 Plain Text
    ' ~; ~* c3 R3 M3 e5 }0 e
  162. Duration : 45 min 35 s# b+ k: m/ V6 Z: l
  163. Bit rate : 87 b/s4 z, g3 T$ R: X, [/ C
  164. Count of elements : 725
    " s3 m- e5 E& @+ Y3 S( \
  165. Stream size : 29.1 KiB (0%)
    7 ]0 K( x  Y% B& H8 Q
  166. Language : Finnish2 ~3 V6 \% M& m
  167. Default : No
    & W% Y0 q$ r' e: X! m( l2 I
  168. Forced : No9 S$ @3 H4 k$ t" F' _
  169. , X6 q3 E! ]3 e2 q$ h
  170. Text #10
    / S7 A6 M1 F2 N5 F
  171. ID : 12& S& [' I- V, x& r4 M1 T
  172. Format : UTF-8
    + J0 f6 n4 t* Z
  173. Codec ID : S_TEXT/UTF8+ T1 {/ k" L( i0 B* z5 ^; n
  174. Codec ID/Info : UTF-8 Plain Text6 F+ x" a( W5 L8 Q
  175. Duration : 45 min 39 s  x( @9 A4 t& I
  176. Bit rate : 103 b/s% X- D1 Z8 J! M, ~
  177. Count of elements : 7377 V7 M1 H7 a0 E  k0 b( b
  178. Stream size : 34.5 KiB (0%)
    " o! v" {. {- A) r' Y
  179. Language : French
    * i0 l2 s( u4 o& D& j+ V6 v6 R
  180. Default : No5 G3 ]$ ?# P9 ?7 C
  181. Forced : No, I5 Z% Q* ?: ]- b8 _

  182. ) z1 h# `+ d9 R3 A0 F: P, ]- y
  183. Text #11+ j7 Q- T8 Y( f% _
  184. ID : 13
    3 h' m/ r5 r8 e5 e1 C" E' @5 }
  185. Format : UTF-8
    : R1 B1 y& E$ F8 B+ S& p% N  k# w
  186. Codec ID : S_TEXT/UTF8
    7 l2 @/ w' i2 W  _) p. M
  187. Codec ID/Info : UTF-8 Plain Text) x& a% `+ c% O  h# L4 T. R( W
  188. Duration : 45 min 38 s
    1 }4 m# |# l' ^; t: {% M: Q# I
  189. Bit rate : 133 b/s
    9 `6 H. `5 W/ z
  190. Count of elements : 709
    3 c8 y6 T0 t% ?3 h0 @" |
  191. Stream size : 44.6 KiB (0%); r- ~* {4 q, @2 K' g4 h
  192. Language : Hebrew
    3 y7 S1 |# y& m& f2 ^/ Z4 T% R
  193. Default : No' W+ s& g: N6 X; {( D, I
  194. Forced : No
    0 |  }8 R* ~6 a" l1 ?; e
  195. 6 m# g# h5 o* o. [0 y+ [7 I
  196. Text #12
    2 u6 T3 p' s3 `, w/ B( L, z- d
  197. ID : 14* Q" T8 {) D( b4 ^& P2 G
  198. Format : UTF-8
    8 u+ T) Z; D6 `  q
  199. Codec ID : S_TEXT/UTF81 e: ^; y5 a0 j2 q/ V% L
  200. Codec ID/Info : UTF-8 Plain Text
    7 K0 H6 p8 a. Q2 A& W; Y+ J
  201. Duration : 45 min 39 s
    # B9 _0 [$ H8 ]
  202. Bit rate : 93 b/s7 H2 B& ]& {/ V$ G" q0 e0 L6 r
  203. Count of elements : 668# S7 _) M" n: Q8 T  c( k* {6 m. D
  204. Stream size : 31.2 KiB (0%)
    ; d: T. w4 U1 M. ^- c
  205. Language : Indonesian/ [! y% o/ v5 p
  206. Default : No
    / ]! e7 h& s: l% A/ j4 j0 t. g
  207. Forced : No# u* ]. V# [; p$ I5 E

  208. 4 e  M5 H$ |! U$ H- J
  209. Text #13
    , L5 M# m+ {! i7 ^3 C/ R
  210. ID : 151 C4 B& Y5 v' K# C# E- X- @
  211. Format : UTF-89 i5 X* o5 n& Z2 ^9 y5 q, _
  212. Codec ID : S_TEXT/UTF8
      g6 ], S2 L* k; a4 w' |
  213. Codec ID/Info : UTF-8 Plain Text
    * G, T5 S6 o7 d4 ~$ Z  V0 o% d
  214. Duration : 45 min 35 s' l+ h! Q! ?, [( b/ G
  215. Bit rate : 97 b/s" y% D2 n* c4 X2 d5 z
  216. Count of elements : 729
    ; n7 ?7 O8 H( U  b2 }3 B% }
  217. Stream size : 32.5 KiB (0%)% z1 {0 o- s. ^/ a
  218. Language : Italian
    , A0 O& `4 \% b; ]# T! @
  219. Default : No$ M' W& v7 A2 D5 Q& C. q
  220. Forced : No
    ( Q1 M' j0 I( r

  221. # }9 w& E6 p1 |
  222. Text #14; H. B# f3 D# N! e* Y' W8 E4 ]. |
  223. ID : 16( }2 q6 O. d/ f
  224. Format : UTF-8/ \( L4 }) B  f# e7 a
  225. Codec ID : S_TEXT/UTF8
    7 S- G1 F% j6 U( A
  226. Codec ID/Info : UTF-8 Plain Text
    " R: M# C; a  z
  227. Duration : 45 min 38 s  ?9 s$ f8 \  z: c: C
  228. Bit rate : 73 b/s
    # x% `+ z5 ~) C0 j
  229. Count of elements : 564& l! r1 }* ^7 Z+ [0 w
  230. Stream size : 24.6 KiB (0%)
    , s) Y& Y- O/ X" F" c
  231. Language : Japanese: y5 K+ R5 B, v9 V+ W
  232. Default : No( [' A* t$ }' a  c
  233. Forced : No
    / T, l2 k" I( O5 O  O

  234. ' K  v0 j: T  W9 ^* X  I
  235. Text #15
    9 o0 S: t% M* L* [: ~5 {
  236. ID : 172 {; Q1 }$ A3 ~: U' v' t& i+ [
  237. Format : UTF-82 k4 P: K& G& E5 X5 r9 n
  238. Codec ID : S_TEXT/UTF84 Y4 h, L6 [& \9 y
  239. Codec ID/Info : UTF-8 Plain Text
    + e: C7 P- a9 Y: K7 C* K. c
  240. Duration : 45 min 39 s8 O# J+ x, d/ t
  241. Bit rate : 90 b/s! n$ F9 R2 _" L9 z2 r
  242. Count of elements : 755
    " e1 ]7 G5 t5 K5 w2 R; Z
  243. Stream size : 30.4 KiB (0%)2 T' C, R' R0 S- Z. x8 v+ L1 y; v
  244. Language : Korean
    - @* o% Y" D9 O4 V0 S& b
  245. Default : No0 ^# y# ~* L1 {% }8 e3 ]4 A
  246. Forced : No
    0 ~( {" s8 C, k5 q

  247. 0 ^, x+ ^: [+ x: T
  248. Text #16
    $ f% L) P# ^0 d( p
  249. ID : 182 U7 y1 K, M( A% R! j- i# J: A# l
  250. Format : UTF-8
    : u) n5 d* b4 L
  251. Codec ID : S_TEXT/UTF89 ?& u0 @2 h) n7 m# X% F
  252. Codec ID/Info : UTF-8 Plain Text# U0 m; v0 Y3 u0 w. j3 P9 l+ O: J
  253. Duration : 45 min 35 s$ I$ ~* Q8 B3 G" K' M  x
  254. Bit rate : 96 b/s$ `0 g! n  R3 ~) F
  255. Count of elements : 734
    : o" K6 l5 C4 L; c" J  H
  256. Stream size : 32.3 KiB (0%)
    ' T# T# w5 {) R4 a+ A% T3 `1 J/ H
  257. Language : Norwegian Bokmal
    " Y3 L' O$ m9 _' Y; |
  258. Default : No4 l% k2 Q1 t0 a- ^4 t6 E& ~
  259. Forced : No
    9 \4 G8 U! `; ^1 d9 w* f: E5 Q

  260. / X- K$ X$ h0 I- N
  261. Text #17; N. M& b4 [% f; d
  262. ID : 19
    3 r( X4 [! u; j# x& O; Q3 @9 ]' w
  263. Format : UTF-8
    - @- A' M: i' }* P
  264. Codec ID : S_TEXT/UTF89 T& D0 U& R1 k+ y8 U
  265. Codec ID/Info : UTF-8 Plain Text
    ) y' |1 l. R5 Y7 a$ V6 ~" }
  266. Duration : 45 min 35 s, s0 C0 k* u$ T
  267. Bit rate : 93 b/s
    & K( g1 L# I: t' U' a
  268. Count of elements : 735( N: v% @0 g1 g* @- p% L2 y7 _
  269. Stream size : 31.1 KiB (0%)% i8 A* i) z( m: F
  270. Language : Dutch
      C+ I* r" Q8 Q* x) Y
  271. Default : No
    + m/ r8 W, @/ u
  272. Forced : No/ b5 F3 {+ ^/ Z
  273. 6 d  _" C2 ]) J' _2 w) J
  274. Text #187 s! \, }5 c; n0 X8 i6 Q
  275. ID : 20
    ' b; ?8 `+ q" f4 i! m, S; {( ]% d
  276. Format : UTF-8( @- H* e! f# O+ u! b
  277. Codec ID : S_TEXT/UTF8
    8 d' J# @) q# Z" t
  278. Codec ID/Info : UTF-8 Plain Text
    ( a3 E' ^+ C6 s& ^" b7 y4 E
  279. Duration : 45 min 39 s$ K4 X$ V* C( }4 m; R3 j
  280. Bit rate : 95 b/s
    ! d5 Q; ^  I4 i, |. n9 {2 }2 \
  281. Count of elements : 699' ?9 p# G6 T" M5 y
  282. Stream size : 31.9 KiB (0%): l( D* K' \5 k; @  d; o
  283. Language : Polish
    0 G- E& P! ?( X8 G+ Z7 J
  284. Default : No
    ; e6 J6 ?2 e6 N
  285. Forced : No
    % \# V# B' p$ p4 x% Y4 J
  286. # V# }  |8 H: U, M
  287. Text #19+ k$ n. r: t+ ?+ n! s; J. |
  288. ID : 21
    6 l* P6 D& K1 E$ X
  289. Format : UTF-8
    2 r3 }( R: b5 S: F
  290. Codec ID : S_TEXT/UTF8
    . g0 C" C  I$ E* i- ]
  291. Codec ID/Info : UTF-8 Plain Text- [0 q/ P& L. I% N" i* q
  292. Duration : 45 min 35 s
    3 D8 k* X- z3 X
  293. Bit rate : 94 b/s
    2 z, c4 f! E& |
  294. Count of elements : 701
    3 D; y4 _( ^0 ^+ J& Y4 o" j
  295. Stream size : 31.7 KiB (0%)
    & c' I: ]" a3 M; z7 P  Y9 W3 B
  296. Language : Portuguese
    ) S, p0 P- i6 ?
  297. Default : No' m) V- x/ i9 M& Q: |
  298. Forced : No" @; g  B4 P4 S8 F" `

  299. % }* B* t. A8 i. Q% `, i! D: Y
  300. Text #20
    4 Q: |* F& l, r/ L0 @! U
  301. ID : 22
    $ ?6 B# t, b5 C, O' r7 B
  302. Format : UTF-81 {  A/ j2 b( Z2 u, k  m8 m
  303. Codec ID : S_TEXT/UTF8
    # X/ @4 M6 O4 s( \3 l' l
  304. Codec ID/Info : UTF-8 Plain Text
    & r6 M4 j9 S; d
  305. Duration : 45 min 35 s( B4 E, F# o% n+ l+ U$ M
  306. Bit rate : 99 b/s, @7 b4 X) p2 I( I% Z
  307. Count of elements : 742
    ( O4 N* x  M8 ]6 M+ g: U* J
  308. Stream size : 33.1 KiB (0%)4 ^7 m* \  E$ j
  309. Title : Brazilian
    1 X/ G/ y; d; ?; T1 G# D. a1 B
  310. Language : Portuguese
    ) V3 R6 @# p+ o& ?% ?! y$ k
  311. Default : No
    ; Y+ \9 F6 a$ e' t& Z, {4 m
  312. Forced : No& }$ |' h# F; C( _- i

  313. 6 |) i8 A& y4 B$ ~; p) S/ D
  314. Text #21
    4 e" P% ?0 \+ Q) a
  315. ID : 23
    . K" A5 F0 V, t+ I( a* q
  316. Format : UTF-8
    1 U2 L, H. `. v6 C6 t% ?
  317. Codec ID : S_TEXT/UTF8
    . d* `$ O. q* p( ]+ `
  318. Codec ID/Info : UTF-8 Plain Text% d5 t  B% c' s
  319. Duration : 45 min 39 s; ^! p9 b) J' B- _8 j# o8 j
  320. Bit rate : 109 b/s- Z& B! s/ x3 {& }2 p
  321. Count of elements : 7315 C5 X& m  ]& {( F
  322. Stream size : 36.6 KiB (0%)! n+ s, G, C1 p) B6 w# f% f
  323. Language : Romanian
    7 `" f% ?, E' o$ }
  324. Default : No
    2 ]6 }- _& X* u7 }7 d( {
  325. Forced : No" B0 Q8 D- U  Z" [7 O0 _% `4 d
  326. ; g! u6 u- E& H8 n# r% e( r1 v* E/ B' u
  327. Text #22
    . G0 J1 t* Q% q; s
  328. ID : 24
    " r1 |' `' G, ?7 F2 |! f
  329. Format : UTF-8
    2 U+ |- j: B3 k8 s" Z+ H/ z4 d* w1 g
  330. Codec ID : S_TEXT/UTF8, |: i- T5 c9 K) D* K
  331. Codec ID/Info : UTF-8 Plain Text
    9 w2 l0 L" R) l" R& u  X% u: |+ @
  332. Duration : 45 min 39 s
    ) f& [1 j% z  y# N# ~
  333. Bit rate : 95 b/s
    4 L6 z8 B2 @$ f4 O. i1 y
  334. Count of elements : 663) \+ l+ t  y/ E4 n, g+ L7 L
  335. Stream size : 32.1 KiB (0%), L1 t& _  W8 }8 S: }# b5 ^. S# T
  336. Language : Swedish8 _5 v  c+ W4 [! M: s/ s
  337. Default : No, n1 ]0 x  r6 m3 l% I
  338. Forced : No
    6 c1 t' P* z8 Y) j5 E3 j

  339. , \% ]5 q, n9 I% Q! T! t! a
  340. Text #230 U( a( B; C0 N& D
  341. ID : 25* j6 d0 C% c% t; N
  342. Format : UTF-84 i; C& f$ G8 @# y
  343. Codec ID : S_TEXT/UTF82 X$ J% T- L. T0 Y/ C- `' D" f+ s
  344. Codec ID/Info : UTF-8 Plain Text
    : x+ F* q8 c6 |) D! I; J
  345. Duration : 45 min 35 s
    * C3 l: o2 ^* n/ e% a
  346. Bit rate : 234 b/s
    ' ^* ~. h8 }: d
  347. Count of elements : 738
    + A: I5 D! p( l, N- r0 h7 o
  348. Stream size : 78.3 KiB (0%)
    3 G* |0 A* v( j$ o
  349. Language : Thai6 ^) L" [* s, T4 {' |
  350. Default : No
    + K; F, `6 @. W" m7 s* r* g1 ]9 M
  351. Forced : No
    ! ^9 F- t; p% j+ c

  352. 9 w. o4 T" G$ U# e( b
  353. Text #245 z' \# E' R8 V- N
  354. ID : 26
    ' t" u; R; E+ [# r  ~5 j: z
  355. Format : UTF-8. y" l$ u" Z( p& T5 v! f
  356. Codec ID : S_TEXT/UTF8
    " B% Y# O9 R; N% ^" O: b  r
  357. Codec ID/Info : UTF-8 Plain Text: D, a0 W! U2 k, W. }2 y  ~6 M1 C
  358. Duration : 45 min 39 s! O" c! x) @3 e) T/ O* L" `9 \
  359. Bit rate : 108 b/s, m  z2 \! m: [
  360. Count of elements : 742
    1 u, a) X( |$ k; V  a- k  o: f/ x
  361. Stream size : 36.3 KiB (0%)
    # b. M6 Z. Y' N# G0 @" ^5 A
  362. Language : Turkish+ W$ W* B$ F1 R1 s) W8 ?
  363. Default : No
    0 {5 X* z9 x* I7 n' i- \1 c8 V3 f
  364. Forced : No0 g" l/ k$ ?3 E

  365. 6 S2 U# Z) ?& q- u  y
  366. Text #25' O2 Q0 y% Z( D
  367. ID : 27  I7 U/ Z1 ]! h; }
  368. Format : UTF-8
    % V: c3 c7 t, y; j1 i0 |  O
  369. Codec ID : S_TEXT/UTF8
    4 n8 i' e& r, {+ P
  370. Codec ID/Info : UTF-8 Plain Text% A* L9 z9 \* l' s
  371. Duration : 45 min 39 s
    ; j' K/ g7 m# u* ~5 [& I: C$ a; _
  372. Bit rate : 77 b/s
    $ z5 I# g6 F5 N8 T' ]& m! J' V$ m
  373. Count of elements : 739
    * v6 K; E! r  x. C) R  P8 k
  374. Stream size : 26.0 KiB (0%)
    ( o0 J: X) H1 K) b; p2 C/ k0 D# Z
  375. Title : Simplified8 }8 a8 |6 a. |% D: Y8 t* W+ N, x
  376. Language : Chinese/ U6 B+ m" S; n
  377. Default : No
    ' U1 u9 l1 p4 ^8 S  F2 b: B
  378. Forced : No' g# h0 m, t1 z# |' `
  379. 6 Q- d5 Z4 G- K- m9 v5 c) V- A
  380. Text #26
    ( _& L4 B9 j4 \" b  h
  381. ID : 28
    * J; S3 c* d; B7 V$ r! D, d1 ]
  382. Format : UTF-86 c% f# B0 E3 I. S6 m0 q! t# S
  383. Codec ID : S_TEXT/UTF84 |' N( I5 k! F- r
  384. Codec ID/Info : UTF-8 Plain Text5 ]" E7 x( {) ^  K% ?# V1 i
  385. Duration : 45 min 35 s
    5 ^& }2 \7 T7 q+ \3 R
  386. Bit rate : 82 b/s( P: F$ {2 l$ _. i- D" E
  387. Count of elements : 744
    / f9 t3 y- x$ c2 W
  388. Stream size : 27.4 KiB (0%)! |7 @7 h0 G, m4 q) R2 n; I
  389. Title : Traditional
    + p& \  ?3 z; u; \  x3 ]1 g
  390. Language : Chinese$ E5 Y/ @2 `( w2 Z- F( y; ^
  391. Default : No
    / F6 A, t" B. a  i
  392. Forced : No
    & L: b$ i* ~* a& C
  393. 1 d8 r0 @# `+ i3 F6 `$ A
  394. Menu
    5 b3 J8 W7 j9 p: A: Z* X9 `' N, X3 [
  395. 00:00:00.000 : en:Intro start
    5 }  c; Q$ {% x5 a, X6 D
  396. 00:02:03.380 : en:Intro end
复制代码

9 W4 m% p4 a# ^" I2 u) m) ^0 O. L. U0 E2 f% t# r2 W/ H

) W* h7 V4 J- _' X  r4 j% B7 Y5 |, N& u' G# ^

; e) v/ s/ ^5 `9 H( V7 X; E, T( J4 N
游客,如果您要查看本帖隐藏内容请回复  捐助论坛可免回复查看隐藏内容 详情请点击
发表于 2019-2-1 18:18:38 | 显示全部楼层
喜欢看这类型节目
发表于 2019-2-1 20:10:24 | 显示全部楼层
感谢分享的高清纪录片,开开眼界
发表于 2019-2-2 15:29:53 | 显示全部楼层
感谢楼主分享,很吸引人!
发表于 2019-2-3 00:34:58 | 显示全部楼层
感谢分享精彩纪录片!
发表于 2019-2-3 21:28:24 | 显示全部楼层
没事又上来看看有什么好片子
发表于 2019-2-5 23:29:46 | 显示全部楼层
来收个第二季的,好看啊
发表于 2019-2-6 00:03:32 | 显示全部楼层
看看非凡住宅什么样,谢谢分享。
发表于 2019-2-12 12:55:27 | 显示全部楼层
感觉看了应该有启发
您需要登录后才可以回帖 登录 | 立即注册

本版积分规则

封号公示|手机版|Archiver|有问题发邮件到admin#(换成@)hd1tj.org|微博|免责申明|HD一条街

GMT+8, 2019-2-23 04:58

快速回复 返回顶部 返回列表