HD一条街论坛

 找回密码
 立即注册
搜索
查看: 98|回复: 5

[欧美] 纪录片:世界上最非凡的住宅 第一季 The.Worlds.Most.Extraordinary.Homes.S01.1080p.NF.WEBRip.DDP2.0.x264-EDHD 12G

[复制链接]
发表于 2019-2-1 14:10:20 | 显示全部楼层 |阅读模式
- x7 u% D/ I$ C9 z# v# l0 y  V
                               
登录/注册后可看大图
5 B2 Q7 f+ |" C7 ^2 v4 ^

. K; X% P2 c1 @6 f* l5 y◎译  名 世界上最非凡的住宅 第一季
( O$ h( ^1 X' }& Q9 T* `( F# v◎片  名 The World's Most Extraordinary Homes Season 1+ j% N4 v. a$ N* n' p8 \8 y) W
◎年  代 2017
! h. a- d* @' z) Z# ^◎产  地 英国
! M- o! \9 g: r1 a8 ^: q( o◎类  别 纪录片; f, u8 x# G( i
◎语  言 英语# S9 ^) ?) r( `8 z5 N
◎上映日期 2017-01-06
, w& x& q7 D% |% y; f◎IMDb评分 7.5/10 from 1435 users: n  }/ Y+ c7 Y) J3 D" K: X- A
◎IMDb链接 http://www.imdb.com/title/tt78041324 {+ T# V7 Q3 g! q1 m- y
◎豆瓣评分 8.7/10 from 311 users
/ F, q% _0 b" w◎豆瓣链接 https://movie.douban.com/subject/26947856/! j0 D- z! H, Q  S- u
◎集  数 4; \( c* Z7 n& A, w
◎片  长 59分钟8 a  A3 N7 t' o- l9 r' N3 t
◎导  演 Ed St Giles( a, o4 W( K+ S& C5 u  e/ m) w3 A7 Q% o
◎主  演 Piers Taylor
, o* x6 X& w- \' X  [& v' h      Caroline Quentin
' U6 w% I  P. q( p8 Q" B' F7 f  [, V: o6 g! ~& D1 z$ W8 S
: t+ {5 T; X" X# z
◎标  签 纪录片 | 建筑 | BBC | 住宅设计 | 设计 | 英国 | 纪录 | 2017
9 P( \: ]5 \0 |. g' |0 w. |0 X2 s7 {$ {1 `3 x% @7 V" S# ?
◎简  介  
0 `, V1 x& C. C* A$ {+ G# ~' \7 r
  Award-winning architect Piers Taylor and actress and property enthusiast Caroline Quentin explore extraordinary homes built in mountain, forest, coast and underground locations around the world.
' X' n+ U! j4 W/ E4 ~: }3 ?
  1. Video4 @# f: n% Z- F9 E7 Z2 d- P  j
  2. ID : 1
    8 Z7 i# |) T9 h( J! g6 W, y+ y
  3. Format : AVC
    - q1 L, D( M6 s+ e+ F
  4. Format/Info : Advanced Video Codec
    0 T4 ^! u5 S/ @0 p- z# w
  5. Format profile : [email protected]- {, p* F1 ~- a; y# T
  6. Format settings : CABAC / 3 Ref Frames
    3 V; x6 q! b4 ?8 ^) S  O8 E
  7. Format settings, CABAC : Yes
    9 o7 k* x9 u, b8 K' V2 N4 b. @
  8. Format settings, ReFrames : 3 frames
    5 l- Q/ u3 W  a/ Y! F( B- R
  9. Codec ID : V_MPEG4/ISO/AVC  N$ K( t" ^& p5 r3 o4 G
  10. Duration : 58 min 50 s+ r5 X9 v3 ~# ^1 l+ w$ Z' {
  11. Bit rate mode : Variable; D/ U) Z* V5 I0 B' l
  12. Bit rate : 7 500 kb/s
    ) U( p6 l0 B, l2 j' _) V9 [2 ^
  13. Maximum bit rate : 11.2 Mb/s
      L; a! v3 h# R3 g
  14. Width : 1 920 pixels* o4 l8 u6 y  l& f7 [% ?
  15. Height : 1 080 pixels8 H1 ~* Z3 [) c$ ?4 U4 W
  16. Display aspect ratio : 16:9' l5 P  f+ }) o/ }) y
  17. Frame rate mode : Constant
    : B  |7 U" ?0 i1 X/ h; Q' J8 g
  18. Frame rate : 25.000 FPS/ P4 j6 C( L" |) i$ k
  19. Color space : YUV
    ( J( u0 u/ {# B2 K8 ?' w# ?: z
  20. Chroma subsampling : 4:2:0) J1 V- }. X" `8 x7 Q' x
  21. Bit depth : 8 bits% C1 t- S9 z$ a7 z
  22. Scan type : Progressive
    - W1 K. i* h! k0 H2 Z* O: D! {
  23. Bits/(Pixel*Frame) : 0.145
    * T# z5 m+ L& B( N: z, I# C
  24. Stream size : 3.00 GiB (96%)
      E: o, r# W7 o' E! A& _0 a
  25. Writing library : x264 core 148 r2714 2daf636# V8 Q6 g6 ~) f% j' V
  26. Encoding settings : cabac=1 / ref=3 / deblock=1:0:0 / analyse=0x1:0x111 / me=umh / subme=10 / psy=1 / psy_rd=1.00:0.00 / mixed_ref=1 / me_range=24 / chroma_me=1 / trellis=2 / 8x8dct=0 / cqm=0 / deadzone=21,11 / fast_pskip=1 / chroma_qp_offset=-2 / threads=8 / lookahead_threads=1 / sliced_threads=0 / nr=0 / decimate=1 / interlaced=0 / bluray_compat=0 / stitchable=1 / constrained_intra=0 / bframes=2 / b_pyramid=0 / b_adapt=2 / b_bias=0 / direct=3 / weightb=1 / open_gop=0 / weightp=2 / keyint=50 / keyint_min=26 / scenecut=0 / intra_refresh=0 / rc_lookahead=50 / rc=2pass / mbtree=1 / bitrate=7500 / ratetol=1.0 / qcomp=0.50 / qpmin=6 / qpmax=51 / qpstep=4 / cplxblur=20.0 / qblur=0.5 / vbv_maxrate=11250 / vbv_bufsize=15000 / nal_hrd=vbr / filler=0 / ip_ratio=1.40 / aq=1:1.00; _% ?: a4 k, o9 u
  27. Default : Yes
    + n5 d* Q, E) }7 c1 D
  28. Forced : No0 @& i) S  N/ c) D. D: N7 i
  29. 3 m9 v5 _* r: f
  30. Audio9 j# E4 I  z  m
  31. ID : 2
    / r  M4 c9 h) m+ i8 t# f: G8 x
  32. Format : E-AC-34 H( f/ w+ H3 f! j" P
  33. Format/Info : Enhanced AC-31 l! f9 C' D( X: g- D
  34. Commercial name : Dolby Digital Plus9 x8 S, _5 O% V2 B& q/ i& R( d
  35. Codec ID : A_EAC3; T; d# x, v' Z' W+ W
  36. Duration : 58 min 50 s
    3 ^' @% B& z8 B
  37. Bit rate mode : Constant4 L4 a7 r1 B4 X( k
  38. Bit rate : 128 kb/s* M- d0 Q* T/ n9 L3 l7 k7 Q
  39. Channel(s) : 2 channels
    9 E5 S+ X7 S; G! I9 O
  40. Channel layout : L R! Y0 {  C1 j7 d0 j4 h
  41. Sampling rate : 48.0 kHz' F' C7 G' x; t( b  d& F; Y" X
  42. Frame rate : 31.250 FPS (1536 SPF)
    ' H2 B, a) O/ S* {7 m9 v3 j
  43. Compression mode : Lossy$ T; c7 t9 F1 s6 i
  44. Stream size : 53.9 MiB (2%)- B8 k$ @) y& ^# q% ~# m* R
  45. Service kind : Complete Main* L$ j$ E# ~$ U' l
  46. Default : Yes; T: f. p# ]/ p: w' ~+ K
  47. Forced : No
    1 W, C4 p7 z: n7 G! A
  48. # m. N: t$ A+ O" K# Y2 z8 E3 s9 {
  49. Text #18 w2 g9 B; b5 p, K
  50. ID : 3
    7 ?1 @" |* f* {6 M; C
  51. Format : UTF-88 z7 N8 |  C" o
  52. Codec ID : S_TEXT/UTF89 R4 l- J4 R. G+ X/ ], |
  53. Codec ID/Info : UTF-8 Plain Text
    ( ?5 t/ w( d) y) I# S. D4 ~9 c. N
  54. Title : English& e' [) ~$ H/ g, f+ H8 C6 c8 X5 @- i
  55. Language : English8 u+ o  R( e' \) s2 n, X
  56. Default : No
    . ?8 a" K( t; i: |  ?/ h
  57. Forced : No
    , H% |) G* K* h  R4 g3 B. K' N* c6 c
  58. 0 P2 f* s5 [. P" C* n
  59. Text #2
    ! l! H3 J9 Y; E% r
  60. ID : 4+ m1 q2 V- {4 P1 [" b9 g5 a
  61. Format : UTF-85 a4 T  ?  k! U" P: k. G
  62. Codec ID : S_TEXT/UTF8( g5 e6 Q: X) c1 G
  63. Codec ID/Info : UTF-8 Plain Text8 s6 }" O6 T3 S' B6 X. C5 h, U
  64. Title : Swedish
    / _0 z' o2 D7 |" H+ T+ E: H
  65. Language : Swedish' W+ }0 f0 e) U4 I3 s4 B* a# B
  66. Default : No
    6 ^! D; f- z5 u  r9 h
  67. Forced : No; K4 m% t/ c4 ^- ^) m9 C
  68. / o3 }9 G4 U  D* g' P
  69. Text #3
    $ f; u3 P3 [5 e7 \! p9 M
  70. ID : 5
    & D% O7 ^- {: q
  71. Format : UTF-8
    ( E8 T- |% F2 K
  72. Codec ID : S_TEXT/UTF8( T- h; k9 T0 j$ R' L
  73. Codec ID/Info : UTF-8 Plain Text3 r9 E4 w0 }! s
  74. Title : Norwegian& o$ |* O* \  J2 y  H$ [0 g' \
  75. Language : Norwegian1 I& V* v0 O  E+ c$ p( Y' u
  76. Default : No$ E2 D9 o* N0 Z& F' x: Y2 D% n
  77. Forced : No
    " M# q3 n9 C# K+ y, P. q" c
  78.   Y- v7 o9 G9 K, \9 u
  79. Text #47 b& Y+ M7 ~$ x1 r4 ^" A
  80. ID : 6' `3 u! i0 \0 F7 R) a) V! E* G3 Q
  81. Format : UTF-88 _! L  x0 y) D7 R+ I. n! }
  82. Codec ID : S_TEXT/UTF8$ ~# C) P# Z  f0 P
  83. Codec ID/Info : UTF-8 Plain Text1 E/ b! O! p* ~
  84. Title : Danish$ P" O1 ^$ j7 w+ @( A* J
  85. Language : Danish- ?- {* ?& D7 O4 A
  86. Default : No
    , [; H8 Z9 e  w
  87. Forced : No
    1 o' w# @9 ]8 {4 N9 R
  88. 9 D+ Y2 j8 E& l
  89. Text #5
    " Y( i# x8 l0 n% @+ y1 \5 u0 X
  90. ID : 7
    9 h+ E, j; N2 E
  91. Format : UTF-8) `0 M" f- m8 E' ^$ S  c+ ?. y
  92. Codec ID : S_TEXT/UTF8
    / S! O9 h2 j+ C  D" L* t& ^+ l, e
  93. Codec ID/Info : UTF-8 Plain Text! y- ~. K3 Z- C# I) I7 L
  94. Title : Finnish! n, ]% Y5 H9 Z
  95. Language : Finnish3 P/ _; b2 Y) K& W  ~+ n4 K0 B
  96. Default : No9 S! Q0 R6 z4 x$ V  I$ M/ o* I* K
  97. Forced : No
复制代码
/ q3 _0 \* `' l9 E6 Z

. r! d; I6 {- ^' Y: j1 ?8 D
' e9 n7 _$ o% f6 z4 \; x6 }
- h: y* E6 B7 D' C0 m& |6 k+ |2 t6 ^. j8 U' }  k% m9 y) ~, X

1 }# R0 |4 O1 e9 R( G) d* R4 H7 a$ d
游客,如果您要查看本帖隐藏内容请回复  捐助论坛可免回复查看隐藏内容 详情请点击
发表于 2019-2-1 16:12:35 | 显示全部楼层
纪录片很喜欢看的,谢谢分享
发表于 2019-2-1 20:12:38 | 显示全部楼层
感谢分享,体会一下非凡住宅的稀奇处
发表于 2019-2-3 21:29:25 | 显示全部楼层
不错的片子,谢谢分享
发表于 2019-2-5 23:28:31 | 显示全部楼层
来看看这个纪录片,感谢分享
发表于 2019-2-6 00:05:20 | 显示全部楼层
看看住宅纪录片,谢谢。
您需要登录后才可以回帖 登录 | 立即注册

本版积分规则

封号公示|手机版|Archiver|有问题发邮件到admin#(换成@)hd1tj.org|微博|免责申明|HD一条街

GMT+8, 2019-2-23 04:22

快速回复 返回顶部 返回列表