HD一条街论坛

 找回密码
 立即注册
搜索
查看: 76|回复: 11

[欧美] 深入火星:SpaceX MARS.Inside.SpaceX.2018.1080p.AMZN.WEBRip.DDP5.1.x264-QOQ 2.48G

[复制链接]
发表于 2019-1-6 12:57:53 | 显示全部楼层 |阅读模式
, g" w( f: Q" V1 ?, P4 W" p
                               
登录/注册后可看大图
, b9 y4 Y* k5 `+ P* j1 i- P
: c+ X7 n( V) U2 R, {# P- Y  u
◎译  名 - Q5 z# n5 n8 h1 U  |/ \
◎片  名 MARS: Inside SpaceX: G  l+ A8 |6 F" i! i. J% G: m1 Y
◎年  代 2018% x# u* Q& `9 i0 c9 [
◎产  地 美国; w1 _) q! u  T
◎类  别 纪录片
( A# `7 }. k$ v) v◎IMDb评分 7.9/10 from 49 users
  L2 f  H. t/ i9 }◎IMDb链接 http://www.imdb.com/title/tt9269852; ^% Q" e* Q! O8 U2 ^2 L& \; ~
◎豆瓣评分 0/10 from 0 users
0 t; P$ `: q* q. V: Z3 B: ~◎豆瓣链接 https://movie.douban.com/subject/30422271/
, n4 w2 H8 p; U, g9 B) a◎导  演 Julia Reagan- h6 I7 C8 ]4 p4 `7 v- \7 J/ D1 d

  F2 ~  H  q% A' T- {) x  i◎简  介  $ J: {7 ?0 y( I$ ^# Y

8 M8 n  ^8 a+ p1 \  MARS: Inside SpaceX will go inside SpaceX's plan to get humanity to Mars, providing an unprecedented glimpse into one of the world's most revolutionary companies. Filmed over the course of three years - this journey will take us behind the scenes with Elon Musk and his engineers - as they persevere amidst both disheartening setbacks and huge triumphs to advance the space industry faster than we ever thought [email protected]一条街9 N2 `/ n" Q. G1 q) E+ ~. ]2 {# i8 m. U4 Y
  1. Video
    & M% \- R5 p2 V( U+ @, v
  2. ID : 15 @, f, B, M' {: p) A
  3. Format : AVC
    9 e( Z3 I' r) U) s$ L& A; _
  4. Format/Info : Advanced Video Codec# D# F# H: s4 G
  5. Format profile : [email protected]) F3 c" ~# t3 f; ~8 z
  6. Format settings : CABAC / 4 Ref Frames
    2 V  o5 g. X8 r: x9 f. u6 T& ^. ^4 E
  7. Format settings, CABAC : Yes$ z6 h% V( u7 Y) y. |1 R* a5 n2 v
  8. Format settings, ReFrames : 4 frames
    # w8 G. I1 X, K2 m0 F' @
  9. Codec ID : V_MPEG4/ISO/AVC& e8 Y( g: C5 e
  10. Duration : 46 min 23 s
    $ y* v7 _4 d7 \' g) `, ]7 ~
  11. Bit rate : 6 996 kb/s
    $ F" P# P) L$ r1 Y. L) V0 w1 S
  12. Width : 1 920 pixels
    " z$ z+ e, h/ B4 h
  13. Height : 1 080 pixels
    0 `# l9 F6 B( `3 }! u. N  v+ j- t. h
  14. Display aspect ratio : 16:9
    # j6 l6 i. Z+ N* ?( c. t
  15. Frame rate mode : Constant0 V$ z4 W7 [6 x8 w; j
  16. Frame rate : 23.976 (24000/1001) FPS5 d7 X. w5 a* g: E6 z
  17. Color space : YUV
    # ?0 K3 ^9 B. q" W
  18. Chroma subsampling : 4:2:0$ S) H8 h* g* p( e' ~; ^
  19. Bit depth : 8 bits: I% m$ i% M: s  Y. y: r
  20. Scan type : Progressive# h9 C3 x6 u- ?
  21. Bits/(Pixel*Frame) : 0.141
    # v" q9 ?$ T3 R0 b. \
  22. Stream size : 2.27 GiB (92%)
    : S8 L  B2 X: t' ~
  23. Default : Yes
    # {% f; n5 e; p% @" U
  24. Forced : No
    0 {9 Q2 Y+ |8 b/ D# m
  25. Color range : Limited
      O# Q6 k2 e9 J- n7 A: }8 E
  26. Color primaries : BT.709: f7 w6 T7 ^* e9 ?) x* \
  27. Transfer characteristics : BT.709# r% v" y, f3 Z  Z: C) C" ?
  28. Matrix coefficients : BT.709
    : i; |. C8 \8 [2 @. S% z

  29. , V( p# u3 \/ {$ A) O/ ]1 H0 _
  30. Audio
    4 q" I5 N" b6 a7 p% Z% a! v1 j
  31. ID : 2# K( v# e" R# X7 y9 k
  32. Format : E-AC-30 A, D. X% R0 a5 |. [; o
  33. Format/Info : Enhanced AC-3
    , ~- \# }& |0 C5 ?4 ?, g- ~
  34. Commercial name : Dolby Digital Plus
    * ?7 d; b/ |# K  `  }
  35. Codec ID : A_EAC39 O0 c* {4 i' R3 C2 V
  36. Duration : 46 min 23 s) h' u" J/ F' y
  37. Bit rate mode : Constant
    9 w# l4 W8 x8 W' L" T
  38. Bit rate : 640 kb/s
      _7 _1 j# `$ z
  39. Channel(s) : 6 channels
    7 O& y1 h- s" _& s' ?7 b; i
  40. Channel layout : L R C LFE Ls Rs9 t- m1 V  q/ L$ V9 B3 M" G5 q
  41. Sampling rate : 48.0 kHz
    " v. _+ e4 a2 }8 f  C" e
  42. Frame rate : 31.250 FPS (1536 SPF)
    # q# }  B# V  c* y1 f- |0 u
  43. Compression mode : Lossy2 Z4 ]( ]5 I" D0 |# F+ Q
  44. Stream size : 212 MiB (8%)+ d  E% m" L' N9 A! _, `. n
  45. Language : English
    / V4 A$ f0 j( P' h
  46. Service kind : Complete Main  b6 M+ N$ C. v6 ~3 ?7 W# p$ I
  47. Default : Yes$ C4 T- J1 q( e' ~/ E( _, V0 m
  48. Forced : No
    9 X2 K  u5 \; X7 i8 H
  49. * C3 T7 m, W: u3 @9 X$ X* ^& _
  50. Text& u9 _, w5 T' S. w
  51. ID : 3& G4 Y* [: B! T! k: \% G
  52. Format : UTF-8
    * \) I1 ^1 g& T% p3 I7 N8 n
  53. Codec ID : S_TEXT/UTF8$ n2 J# D0 @' y$ C
  54. Codec ID/Info : UTF-8 Plain Text- ~" u/ Q, R+ D
  55. Duration : 46 min 14 s1 Z% O$ ]% s+ d" l/ @
  56. Bit rate : 97 b/s
    , N% n4 f. k& P( v) {6 r
  57. Count of elements : 627+ F9 [+ h% Z; j4 o  D* K, W
  58. Stream size : 33.0 KiB (0%)0 T; T. g( k. k( A
  59. Title : English (SDH)
    % w5 R$ b. ]- b' G! K
  60. Language : English: B5 \7 N/ U! n) C+ ?0 ^+ [; s
  61. Default : No5 a8 ?! y+ l7 o2 B
  62. Forced : No
复制代码
% Q% X( H6 s, x( B6 p

. P" p% }5 M# z3 W  A( G/ {2 s$ Y# s% O+ A$ L
" N  f& }0 u8 k+ _$ S$ ]

' E+ E) Y# t1 `6 c" w6 i7 k- Q
游客,如果您要查看本帖隐藏内容请回复  捐助论坛可免回复查看隐藏内容 详情请点击
发表于 2019-1-6 13:38:59 | 显示全部楼层
这个纪录片得看看,外太空啊
发表于 2019-1-6 15:37:10 | 显示全部楼层
不错的纪录片 点赞
发表于 2019-1-8 00:26:32 | 显示全部楼层
先收下谢楼主
发表于 7 天前 | 显示全部楼层
感谢楼主分享
发表于 6 天前 | 显示全部楼层
这个应该是值得一看的纪录片
发表于 4 天前 | 显示全部楼层
飞向火星,最有可能有生命的星星
发表于 4 天前 | 显示全部楼层
多謝分享咁多精彩嘅嘢睇
发表于 4 天前 | 显示全部楼层
对火星类题材的纪录片一直都喜欢收藏,感谢分享
发表于 前天 00:18 | 显示全部楼层
没有中文字幕吗?
您需要登录后才可以回帖 登录 | 立即注册

本版积分规则

封号公示|手机版|Archiver|有问题发邮件到admin#(换成@)hd1tj.org|微博|免责申明|HD一条街

GMT+8, 2019-1-16 20:44

快速回复 返回顶部 返回列表