HD一条街论坛

 找回密码
 立即注册
搜索
查看: 33|回复: 8

[1080p] 唐山大兄[国粤双语]The.Big.Boss.1971.REMASTERED.CHINESE.1080p.BluRay.x264.DTS-FGT 9.11G

[复制链接]
发表于 2019-1-4 11:06:15 | 显示全部楼层 |阅读模式
1 e9 y% }6 i/ }5 ?/ B
                               
登录/注册后可看大图
7 S: n2 b; i) o# t' S

8 Q* c; n, ~- ^8 E◎译  名 Fists of Glory / The Big Boss1 V, ^" I3 `+ `
◎片  名 唐山大兄5 M  b. Y9 ]" q& Y3 P9 b
◎年  代 1971* c' Q" b5 B* F! Q
◎产  地 香港
5 y+ |' [% A0 r7 l◎类  别 动作
9 N/ K" Q* P+ }) f0 f◎语  言 汉语普通话 / 粤语
' e5 p. ]8 P4 u9 o◎上映日期 1971-10-03& a6 U& x  v4 {* y& `9 D
◎IMDb评分 7.1/10 from 21514 users
0 k$ G9 k! U# @' u1 D◎IMDb链接 http://www.imdb.com/title/tt0067824% F# p8 f5 ~: ~, Y+ |
◎豆瓣评分 7.7/10 from 12053 users
+ E4 m1 {0 E0 y$ V: v. J◎豆瓣链接 https://movie.douban.com/subject/1307577/
8 e3 w+ W, \9 ~' S  K, a◎片  长 100分钟
1 M# [7 T7 q9 G  `* b◎导  演 罗维 Wei Lo / 吴家骧 Chia-hsiang Wu$ M% H( f. V7 E  F& c
◎编  剧 李小龙 / 罗维& q0 L) b( I3 ?; I  T. n
◎主  演 李小龙 Bruce Lee4 F' {! o  w/ [6 J1 u& O
      田俊) H# M6 o% ~; A) ?. e4 C
      衣依& h: {% [  D2 h: d
      苗可秀 Nora Miao
6 l, o4 [" X& |& D4 m      林正英 Ching-Ying Lam
8 }% z$ s2 ^) ^% d+ F9 V
: P7 [/ Z/ w" ?+ ~/ Q( o, }* j" ~6 y! C. D" L# T. v
◎标  签 李小龙 | 动作 | 香港 | 功夫 | 香港电影 | 1971 | 罗维 | 武打0 u( `' \% j* S, _+ Q! n

. W( u, r, @( e1 z) C+ N8 B◎简  介  7 h" }; X+ w3 E0 d
5 ^& F* \2 M( }; a: R, e
  因家乡年景不好,青年郑潮安(李小龙 饰)跟随三叔远赴泰国,郑在当地华工许剑(田俊 饰)的帮助下,得到了一份冰厂的工作。许剑为人仗义好打抱不平,时常卷入争斗,郑潮安虽也学得一身功夫,但碍于母亲的劝诫不能出手。华工们工作的这家冰厂为牟取利益,在冰中藏匿毒品贩运,不久,两名华工因为偶然拾到了冰中的毒品,被厂长和老板杀害,许剑向老板要人,反被对方派众打手于家中残忍杀害。工友们寻找失踪的华工和许剑无获,于是罢工抗议,厂长和监工们痛打工人,郑潮安仗义出手,厂长畏惧升其为领导,众工人称呼郑为“唐山大兄”。老板方面见笼络郑潮安不成,杀害了所有华工,郑潮安冲到老板家中,欲令其血债血偿……0 Z' H6 G% ]' S4 |) D
  1. Video
    # x& W8 u& O- ?4 \8 g
  2. ID : 1: X5 y" Y5 A/ k. s
  3. Format : AVC8 o  y1 g9 ^; [; a' [
  4. Format/Info : Advanced Video Codec' t) B% l) X: h! Z
  5. Format profile : [email protected]
      ?6 h, X7 x/ ]: V7 s3 W. I
  6. Format settings : CABAC / 4 Ref Frames
    - O% i2 O, k0 x
  7. Format settings, CABAC : Yes/ |1 i, U! s5 K
  8. Format settings, ReFrames : 4 frames
    4 f7 M* L$ v# _2 b2 T8 j! R
  9. Codec ID : V_MPEG4/ISO/AVC+ M7 W. r( K9 o0 a8 n- F" L8 V+ Z% i
  10. Duration : 1 h 40 min( j- o6 e5 {6 ^. k8 |/ E0 p8 k
  11. Bit rate : 11.5 Mb/s
    ; N$ ^3 t* i8 N& _4 l
  12. Width : 1 920 pixels
    4 G. G  [: D8 z. b/ e5 G3 v
  13. Height : 820 pixels; K% I5 R7 |/ b: _" w' v0 Y' Q4 O& d
  14. Display aspect ratio : 2.35:1$ b9 m* J! b# b+ o
  15. Frame rate mode : Constant3 _" R/ i8 l' B! z3 f. T! ~  j
  16. Frame rate : 23.976 (24000/1001) FPS
    , I7 c7 [0 |9 v4 @) g( |  O
  17. Color space : YUV
    8 D. q: _- `2 O; R- k' F
  18. Chroma subsampling : 4:2:0: d  q9 ?' W& b9 V
  19. Bit depth : 8 bits
    , e  r- R3 E( D3 F: H
  20. Scan type : Progressive- K) R( }+ S5 x9 z
  21. Bits/(Pixel*Frame) : 0.3050 e8 y4 s3 _( `; ?( y, Q
  22. Stream size : 8.05 GiB (88%)" Y1 d/ ?: |: c0 U& p9 G+ m5 `
  23. Writing library : x264 core 148 r2795M aaa9aa85 `; W: Q9 F. I; X0 ~
  24. Encoding settings : cabac=1 / ref=4 / deblock=1:-2:-2 / analyse=0x3:0x113 / me=umh / subme=9 / psy=1 / psy_rd=1.00:0.15 / mixed_ref=1 / me_range=16 / chroma_me=1 / trellis=2 / 8x8dct=1 / cqm=0 / deadzone=21,11 / fast_pskip=1 / chroma_qp_offset=-3 / threads=72 / lookahead_threads=3 / sliced_threads=0 / nr=0 / decimate=1 / interlaced=0 / bluray_compat=0 / constrained_intra=0 / bframes=3 / b_pyramid=2 / b_adapt=1 / b_bias=0 / direct=3 / weightb=1 / open_gop=0 / weightp=2 / keyint=250 / keyint_min=25 / scenecut=40 / intra_refresh=0 / rc_lookahead=50 / rc=2pass / mbtree=1 / bitrate=11500 / ratetol=1.0 / qcomp=0.60 / qpmin=0 / qpmax=69 / qpstep=4 / cplxblur=20.0 / qblur=0.5 / vbv_maxrate=31250 / vbv_bufsize=31250 / nal_hrd=none / filler=0 / ip_ratio=1.40 / aq=1:1.00( @* I' e- ~  k6 I2 @# O2 e
  25. Language : English4 ?/ F' f7 H2 |1 B0 o% `% M7 [
  26. Default : Yes
    2 w; w" ^; y; Z. ?' Z: b+ B% P
  27. Forced : No  ^* h, q% G" G& O' c

  28. 8 p3 E$ G8 Q1 O- U9 l: h
  29. Audio
    3 q! Y, {+ V  W6 T( h. `1 m! M, c
  30. ID : 2# H9 h' {: }6 E
  31. Format : DTS; t3 A$ l' r( _4 z1 W
  32. Format/Info : Digital Theater Systems
    % i* Q; F# ?5 g/ a4 R. Q
  33. Codec ID : A_DTS
    ( o# p# W1 q6 |
  34. Duration : 1 h 40 min
    ) ]- X' f) y1 L* N, |- f
  35. Bit rate mode : Constant# e8 N. x. _2 g3 e2 a
  36. Bit rate : 1 509 kb/s
    * u6 I! G" C* |) ~! P1 e
  37. Channel(s) : 6 channels
    ' f. s/ s2 N) Y# O
  38. Channel layout : C L R Ls Rs LFE
    ! B$ w* f6 q9 l! ^1 l. s$ V! T7 W
  39. Sampling rate : 48.0 kHz  J; ?  T4 h+ K$ D3 d  C$ k) c
  40. Frame rate : 93.750 FPS (512 SPF). A$ }% V& R/ |, _
  41. Bit depth : 24 bits
    # I' A  a. t& ?
  42. Compression mode : Lossy
    5 ?- l/ M# y+ r
  43. Stream size : 1.06 GiB (12%)
    1 g) q" p/ a7 D3 g! R7 @5 k' k
  44. Title : The.Big.Boss.1971.REMASTERED.CHINESE.1080p.BluRay.REMUX.AVC.DTS-MA.5.1-FGT
    ; T0 M- `) @6 p6 j2 y
  45. Language : Chinese5 Q5 V" m% H0 z
  46. Default : No' G3 D. w4 m" E: ~8 A" z& U
  47. Forced : No
    4 m9 q/ T; l) f; s7 B
  48. - c, g6 G, s7 l& X# @  W" O+ @* N6 G
  49. Text
    : }5 S  {+ k; K( N* i% b
  50. ID : 3
    9 l) \! L+ T3 Z$ C  F  j9 k) e4 a3 ?
  51. Format : UTF-8. F2 Z" T* n+ }+ S. D
  52. Codec ID : S_TEXT/UTF82 z% s4 K: ^7 Q, s6 P: p! b
  53. Codec ID/Info : UTF-8 Plain Text8 i* S" h6 e* Q$ i$ G9 I; g7 Z1 e1 {
  54. Duration : 1 h 37 min6 R- U' V* f. H  ]
  55. Bit rate : 22 b/s
    3 N5 m9 I; C# U: R3 O
  56. Count of elements : 741- K! }- H& ^2 @/ n5 R5 b
  57. Stream size : 16.2 KiB (0%)
    0 @3 V- i! j2 ?) U
  58. Language : English& M! D0 f$ o' B  b* `, f% @
  59. Default : Yes
    " y" A0 r0 }( x% d4 E. s
  60. Forced : Yes
    7 x9 M2 V# g+ I! d7 u3 [, s
  61. ' `) ?" c2 Y& g* z
  62. Menu
    4 k& f& S( ]+ m6 p0 e: W0 F
  63. 00:00:00.000 : en:Chapter 01
    % F% P4 d5 f) a8 N
  64. 00:09:36.284 : en:Chapter 02
    0 {3 H$ c. Z1 R( @) f6 T' {
  65. 00:17:45.564 : en:Chapter 03, t2 ?% _: v1 y- y* J
  66. 00:22:06.783 : en:Chapter 04
    . x: ?6 Z! x4 Z0 D% Z% _
  67. 00:29:32.771 : en:Chapter 05! W2 B% l, B8 u+ r/ ~  `
  68. 00:40:01.649 : en:Chapter 06
    6 y+ g5 B5 {$ n) v# R6 d" q+ ?
  69. 00:48:16.143 : en:Chapter 07. Z( k$ X6 i. u
  70. 00:55:31.786 : en:Chapter 08
    7 l8 W; n- B4 d+ c9 v4 A' C
  71. 01:06:05.753 : en:Chapter 09
    ( Z$ c4 a1 S8 ]+ y5 P# u! |' C
  72. 01:12:57.790 : en:Chapter 10; G9 P/ S) c  T: U1 f7 \4 f
  73. 01:18:40.507 : en:Chapter 11
    2 j6 r, f1 n6 k' d' u8 }, p2 S
  74. 01:30:15.660 : en:Chapter 12
复制代码

4 {. m# |  z# I
: a5 {: _2 r& W; V* w- }' z) j; a2 c( n$ L# M1 [9 F9 y1 T

- N8 X' e; _# D4 z3 k' G
3 f1 L4 h; d6 _& M* e) n" c! k4 [
  [) Z0 _, f2 t( Y! h! r8 I/ O
游客,如果您要查看本帖隐藏内容请回复  捐助论坛可免回复查看隐藏内容 详情请点击
发表于 2019-1-4 13:52:24 | 显示全部楼层
感谢楼主分享
发表于 2019-1-4 15:02:47 | 显示全部楼层
李小龙经典巨作
发表于 2019-1-4 19:23:07 | 显示全部楼层
谢谢楼主分享
发表于 2019-1-5 01:00:54 | 显示全部楼层
谢谢版主分享资源!
发表于 2019-1-5 10:01:24 | 显示全部楼层
再次回味,当年一代动作巨星李小龙作品
发表于 2019-1-5 10:07:17 | 显示全部楼层
谢谢楼主提供资源
发表于 2019-1-5 10:30:30 | 显示全部楼层
李小龙经典作品,谢谢分享!
发表于 11 小时前 | 显示全部楼层
龍哥的經典之作,下載來看看
您需要登录后才可以回帖 登录 | 立即注册

本版积分规则

封号公示|手机版|Archiver|有问题发邮件到admin#(换成@)hd1tj.org|微博|免责申明|HD一条街

GMT+8, 2019-1-16 21:10

快速回复 返回顶部 返回列表