HD一条街论坛

 找回密码
 立即注册
搜索
查看: 78|回复: 7

[欧美] 纪录片:丧命山 第一季 Murder.Mountain.S01.1080p.NF.WEBRip.DDP2.0.x264-STRiFE 13.64G

[复制链接]
发表于 2018-12-29 15:06:30 | 显示全部楼层 |阅读模式
2 X% q  M2 o  H8 M8 K6 I8 y
                               
登录/注册后可看大图

3 Z1 h( K: {- D* \  }
0 C  g- B; O8 [+ D  |1 c. L3 ~* a1 Y0 d◎译  名 丧命山 第一季
; h( h' S  E( u1 y; G◎片  名 Murder Mountain: Welcome to Humboldt County Season 1% ^: e- d9 M+ s
◎年  代 2018# e) R2 \% K, \4 _. Y% z
◎产  地 美国* X, }, h! F, I9 O+ |1 o3 x/ v
◎类  别 纪录片7 v8 F9 I4 d1 q% ?4 o8 j
◎语  言 英语( y7 Q* G$ ]& J& u% x" i
◎上映日期 2018-09-23(美国)/ Q; c" q4 E1 ]$ T
◎IMDb评分 7.9/10 from 34 users
; V6 J% @; a; t% z+ h, y◎IMDb链接 http://www.imdb.com/title/tt9078908+ c. B% g: Q- O2 ]$ n3 T
◎豆瓣评分 0/10 from 0 users0 f( N, K& K' A  d/ ?9 V: x
◎豆瓣链接 https://movie.douban.com/subject/30386890/
( m! |+ [- k4 N◎集  数 4. q9 g3 S# J" _/ Y8 G9 ~$ o$ a

2 c7 G9 {* n- r- D! q$ x◎简  介  
2 V5 J, u$ c) v. d6 ^$ m# I9 f) q6 k- h+ R; W4 K. _3 E
  一名男子在加利福尼亚州洪堡县失踪,暴露出一种危险且站不住脚的暴力,毒品和警察冷漠的网络。
  1. Video
    % u, E" {" C. H' j0 A/ D/ r8 a
  2. ID : 1
    2 i. K& V' ?9 H& t. O1 Z6 m; S
  3. Format : AVC- U4 }, ]' E" A; \
  4. Format/Info : Advanced Video Codec) D* L2 x1 U' W9 P/ Y
  5. Format profile : [email protected]
    0 u* p$ i9 G# o" |8 `
  6. Format settings : CABAC / 3 Ref Frames, U# U6 J/ x  h7 n1 J! R
  7. Format settings, CABAC : Yes
    0 x9 h! z9 a% q4 o4 `8 k+ f
  8. Format settings, ReFrames : 3 frames- U( [- I. ~- X* c! o
  9. Codec ID : V_MPEG4/ISO/AVC
    $ R8 w- j% N  q0 D& J$ o
  10. Duration : 43 min 32 s/ t* ~% H- s$ p6 d0 m; o- T/ ?
  11. Bit rate mode : Variable" I1 A' g% `- Z
  12. Bit rate : 7 500 kb/s4 z+ X4 u4 x/ x' n" {
  13. Maximum bit rate : 11.2 Mb/s. K, u* U! n7 ~* H$ F. }, t& G6 a
  14. Width : 1 920 pixels
    / w" C0 Y  N6 t9 T2 r1 c8 w9 J+ O
  15. Height : 1 080 pixels0 c+ n0 r% L4 {2 m7 i
  16. Display aspect ratio : 16:9  N( Y3 P; J9 b1 c
  17. Frame rate mode : Constant
    + z. d" a) n2 Q- R% h( i
  18. Frame rate : 23.976 (24000/1001) FPS" T4 U1 l% ~( h6 ?  M
  19. Color space : YUV
    # R6 ]* K8 |4 X  x: l- e  v9 ]; M
  20. Chroma subsampling : 4:2:0
    1 o4 g8 _% k5 w) X: t
  21. Bit depth : 8 bits; `' Q, }1 x$ X) L
  22. Scan type : Progressive1 D. `/ V1 [' b5 z
  23. Bits/(Pixel*Frame) : 0.151+ x9 Q; i# K! _/ m4 A  j' V6 G
  24. Stream size : 2.26 GiB (98%)
    ' ~/ m8 P& m2 L  J) ~: H
  25. Writing library : x264 core 148 r2715 7e75228
    . H! y, c0 X& c
  26. Encoding settings : cabac=1 / ref=3 / deblock=1:0:0 / analyse=0x1:0x111 / me=umh / subme=10 / psy=1 / psy_rd=1.00:0.00 / mixed_ref=1 / me_range=24 / chroma_me=1 / trellis=2 / 8x8dct=0 / cqm=0 / deadzone=21,11 / fast_pskip=1 / chroma_qp_offset=-2 / threads=6 / lookahead_threads=1 / sliced_threads=0 / nr=0 / decimate=1 / interlaced=0 / bluray_compat=0 / stitchable=1 / constrained_intra=0 / bframes=2 / b_pyramid=0 / b_adapt=2 / b_bias=0 / direct=3 / weightb=1 / open_gop=0 / weightp=2 / keyint=48 / keyint_min=25 / scenecut=0 / intra_refresh=0 / rc_lookahead=48 / rc=2pass / mbtree=1 / bitrate=7500 / ratetol=1.0 / qcomp=0.50 / qpmin=6 / qpmax=51 / qpstep=4 / cplxblur=20.0 / qblur=0.5 / vbv_maxrate=11250 / vbv_bufsize=15000 / nal_hrd=vbr / filler=0 / ip_ratio=1.40 / aq=1:1.00
    ( G: Q: r+ c$ |, p3 s
  27. Default : Yes4 H9 m" D/ a& K
  28. Forced : No6 o- T5 A; k+ W. I1 Q

  29. " ?! M  X, v+ \+ I
  30. Audio: ^" Q! O+ z0 i( @: o2 B
  31. ID : 2
    # w0 f3 n/ C$ ?# i  }
  32. Format : E-AC-3; B. }- _7 _* k# t, E' Q) k3 j& X, j
  33. Format/Info : Enhanced AC-3
    9 ?; `  l0 G1 I7 u. [( q
  34. Commercial name : Dolby Digital Plus- {  L+ \9 \! g  z$ [
  35. Codec ID : A_EAC3. L! Z& I/ c7 y9 a# |) [# S+ n
  36. Duration : 43 min 32 s
    ) G9 z- K2 Y7 y: K" j, d
  37. Bit rate mode : Constant3 Z3 E% j2 b4 ^- G; f8 Q! {
  38. Bit rate : 128 kb/s
    5 i, Z5 q2 r! U
  39. Channel(s) : 2 channels
    ; X( a1 G/ r- u+ _; e
  40. Channel layout : L R; |) h: b) X9 D7 r7 i/ j$ M
  41. Sampling rate : 48.0 kHz4 V9 k' P2 k" Z! n, I: q+ C5 f
  42. Frame rate : 31.250 FPS (1536 SPF)
    $ Q" u: \/ o. c; [: V# `
  43. Compression mode : Lossy" _$ ?% L7 {; N+ P
  44. Stream size : 39.9 MiB (2%)
    6 m5 s0 ~6 c$ F% W$ s& q" ~7 R3 l
  45. Language : English0 e6 D$ i5 Z% z) K. ^
  46. Service kind : Complete Main
    . D# }( e1 V( i$ U- K( X  F
  47. Default : Yes/ C6 n9 C3 R$ L" m4 E( ]  z
  48. Forced : No5 k8 m, k. _. h2 X9 U. ^

  49. . s" n) V7 P$ Z& o6 b$ V* e
  50. Text #1
    ! E% B$ v  F% n( N
  51. ID : 3
      ?' _7 v% g; ~8 d; s
  52. Format : UTF-8
    + K! r9 \" |# J" j
  53. Codec ID : S_TEXT/UTF8
    ) W( i: D3 l3 w& \) s; L5 n
  54. Codec ID/Info : UTF-8 Plain Text
    4 g, d# c9 X9 u% z- ?
  55. Duration : 34 s 75 ms  I" p! h! t* E1 W3 x3 N$ t) F
  56. Bit rate : 94 b/s/ q8 T# Z9 y3 @0 V2 x& A
  57. Count of elements : 8
    1 _; G7 `- q0 x+ c- M
  58. Stream size : 401 Bytes (0%)
    & Z' v* i5 h( z' R6 ^. l; ^. r3 g
  59. Title : Forced
    ( ]" |, |! \! [# M2 f3 r( Q
  60. Language : English% o9 |) H  u& }) U
  61. Default : Yes2 S5 Q+ s1 N, u9 q
  62. Forced : Yes7 Q# H1 x6 d- Q& ^3 a' g& C* I
  63. ! Y8 \% _8 c/ _' [$ e& Z: u' Z2 Y$ X- S
  64. Text #2
    ' k: l8 }: g5 q& M/ C2 R; C) k) p
  65. ID : 49 o, H9 X4 ?  q, T
  66. Format : UTF-8( m# _- Z7 L" `
  67. Codec ID : S_TEXT/UTF8" S0 J/ N- J% B$ M( g2 K) w3 ]6 d& M
  68. Codec ID/Info : UTF-8 Plain Text6 y0 F% q) F) I% A1 s( ~- k
  69. Duration : 42 min 27 s
    ( Q& f: \. y+ o8 X% G9 A
  70. Bit rate : 81 b/s2 z' ^( @9 S4 H3 k- {* j
  71. Count of elements : 582$ D3 P1 h, i5 H6 R- q! w
  72. Stream size : 25.3 KiB (0%)" v% P, ?3 U) k$ A- ], u5 c; f
  73. Language : English- c, e& X* J2 \( z& t/ Y7 j
  74. Default : No
    ! p! m* S, ^% d3 G
  75. Forced : No+ a2 n* V$ J. a: a; _" s3 o; _
  76. ) u1 K, R7 t$ a' h" i2 U
  77. Text #3- g# ~- `5 x( a1 r+ N
  78. ID : 52 {2 f4 L7 m) v: C
  79. Format : UTF-8
    % V, g6 X" j" e% Z$ i
  80. Codec ID : S_TEXT/UTF8" x9 l& d" N7 f. H; {& R9 G3 O
  81. Codec ID/Info : UTF-8 Plain Text5 Z$ Y6 @2 `1 X; m% O* D: H
  82. Duration : 42 min 51 s9 N2 o. O, Z2 y2 o% h
  83. Bit rate : 75 b/s
    $ F% U5 B6 F5 ~- d( W% L, Z
  84. Count of elements : 5960 ~2 a' s9 c# }
  85. Stream size : 23.6 KiB (0%)
    ; ?6 I* l4 F  U  N- [; u0 r2 w
  86. Title : Brazilian
    8 u1 V+ `- \  Q. s+ `/ p, U
  87. Language : Portuguese
    5 E. S# H( j, D
  88. Default : No
    ) G7 D0 P3 a- |/ h
  89. Forced : No  g- _$ d, m' U/ E

  90. ( f3 N0 Q4 R7 b
  91. Text #4( ^+ |# B2 L2 K3 O
  92. ID : 6$ p7 S, n( u- `( r
  93. Format : UTF-8
    ' l6 M  B+ n( I2 H2 Z/ p" ^2 L
  94. Codec ID : S_TEXT/UTF8. B% I, z$ ]# o( w% d
  95. Codec ID/Info : UTF-8 Plain Text
    5 Z9 C% w  P: i1 k9 ~
  96. Duration : 42 min 51 s, a: z( z% X4 v- J- z- k& z
  97. Bit rate : 72 b/s
    $ W3 N; |$ A' t, ]2 k  V
  98. Count of elements : 571& f+ A1 y  K+ g& A, x; ~
  99. Stream size : 22.7 KiB (0%)
    . P) k" m  E$ E4 z- O
  100. Language : Danish
    ( |7 c, M, h, H/ x( x
  101. Default : No+ g( k5 b4 t& @/ B+ l
  102. Forced : No1 l- Q: H3 s. z+ |2 Q
  103. 2 o- |. I* \$ ]+ Q* }, A' p; Q
  104. Text #5  D/ X4 ^/ W% O+ R& J+ D/ n; E
  105. ID : 7
    ; O2 ^6 z" ?8 Z- @- u. g# |
  106. Format : UTF-85 i; J' f6 ~* U* \5 r# Q9 F
  107. Codec ID : S_TEXT/UTF8! f) E) \& x9 y
  108. Codec ID/Info : UTF-8 Plain Text
    ( b+ s0 v0 N1 Y/ `, w+ h
  109. Duration : 42 min 27 s
    7 }7 ?* A- g9 S* [* R, m
  110. Bit rate : 68 b/s
    + a: H+ i/ v) ?6 b, W3 n! ?
  111. Count of elements : 505
    9 L* }0 J% M/ s1 A0 ?3 Y
  112. Stream size : 21.3 KiB (0%)" z. J3 I9 ]$ z/ e4 u0 K
  113. Language : Dutch
    . w! v; l$ S' i" G  \6 K3 I
  114. Default : No: |$ c( P! N% i; `! [3 _7 U  a- z
  115. Forced : No
    " O. D3 h/ d' {- F8 t6 e
  116. 6 x) w8 ?$ r3 s0 w5 U+ {
  117. Text #6
    0 o% h" ~0 Y' U& r% P/ {
  118. ID : 8
    6 c: e$ c7 Z! F9 O
  119. Format : UTF-8( a% @. }& r3 o2 G
  120. Codec ID : S_TEXT/UTF8
    . K1 @) V5 N$ ?1 ?1 _8 F
  121. Codec ID/Info : UTF-8 Plain Text" O0 r3 [* C3 l" A
  122. Duration : 42 min 55 s
    $ U6 ?7 c3 k7 l" c2 V. h
  123. Bit rate : 79 b/s9 ~8 ^6 x" y; |5 k% B' [' O+ g
  124. Count of elements : 5980 ?( O3 B, M1 I" R% _( e1 X
  125. Stream size : 25.1 KiB (0%)
    + ^( F- M5 W0 J, h8 `0 r* P
  126. Title : European
    2 Q& |' S2 D0 l3 ~
  127. Language : Spanish
    * @0 O. X3 M0 [8 D& D& [% c
  128. Default : No
    5 g$ v  w1 G0 g" P
  129. Forced : No% _* f% I) d; {0 L; _" T+ T

  130. + n* B1 I! ]3 i# N
  131. Text #71 T; Q7 }3 p' f6 I4 d
  132. ID : 9
    / Q" g, a1 J6 ~
  133. Format : UTF-80 _$ A4 }  i; e4 E3 Z
  134. Codec ID : S_TEXT/UTF8! V+ [- Z/ p; N9 E( m- H
  135. Codec ID/Info : UTF-8 Plain Text
    " o+ j9 l' Q  t! @, _  T. j3 H1 u! t1 ]
  136. Duration : 42 min 54 s5 x5 A1 f& W2 D; S
  137. Bit rate : 61 b/s1 @! |# O2 O" E8 _' y" C
  138. Count of elements : 564" b4 E' I8 r" u" U2 D  u
  139. Stream size : 19.4 KiB (0%)
    # p; B- m6 A3 z
  140. Language : Finnish
    0 r& K6 m/ H! D# w4 M7 c( w. Y
  141. Default : No
    7 c7 S" v8 m1 H
  142. Forced : No  Z' B# l$ u1 N
  143. 0 J6 A. o0 ]. ?8 N7 ^
  144. Text #8
    . [. Q! D* m9 Z0 e; W: b- p
  145. ID : 10; O3 D5 u7 X  f# q% f# s
  146. Format : UTF-80 `% Y9 c+ c3 |2 i
  147. Codec ID : S_TEXT/UTF87 @9 L# x) i8 u1 d9 Q& V- q0 q. E
  148. Codec ID/Info : UTF-8 Plain Text
      g! l6 H( F, ^7 q9 Y4 ~# P$ ~
  149. Duration : 42 min 55 s7 z) [& @- X5 c% n3 Q% m4 ^* T
  150. Bit rate : 69 b/s( i' N' K9 N7 n1 N) \- @* @
  151. Count of elements : 5827 v4 x% K6 l( E) B9 |' Q9 g
  152. Stream size : 21.8 KiB (0%)
    " K! D1 `/ M$ B$ l6 X! U
  153. Language : French. i% a, t. Z9 p* L) ?  l+ y: v
  154. Default : No6 X9 H9 ]& Q  l9 p
  155. Forced : No+ r% m& {5 h9 \4 N: Z6 a* Y; x$ a
  156. 4 }" c% ?+ Y6 i! {! ~. f
  157. Text #9) ~! S# R% ?2 b! D$ b" m' C
  158. ID : 11
    * M# S7 f* u7 W3 I
  159. Format : UTF-8# x) w/ H  V$ t; [! }
  160. Codec ID : S_TEXT/UTF8. q* p0 g/ J9 j; R8 D/ o
  161. Codec ID/Info : UTF-8 Plain Text
    ' q# Q6 E0 a; X+ U2 n) v
  162. Duration : 42 min 51 s( f+ O1 V! @" B
  163. Bit rate : 77 b/s' J3 C9 i: m; C. n7 d2 b6 D
  164. Count of elements : 593
    * S+ I2 ~5 M) K) z2 e6 |; A( L
  165. Stream size : 24.3 KiB (0%)
    , ^/ q, r8 b7 y0 L$ @1 K3 m
  166. Language : German. ^1 u7 o5 a' ?7 S* K$ f5 d
  167. Default : No2 T: l4 C) Q2 r: M# `
  168. Forced : No/ n* u0 e% g( {; E# w! K) Z  X
  169. / m; c$ a' D; g! }' E5 X2 M0 j
  170. Text #100 y6 h0 Q' r3 }
  171. ID : 12
    8 J8 h# o" \$ M* @0 S; c8 k
  172. Format : UTF-8
    " R) r: o* \5 E2 ]: |
  173. Codec ID : S_TEXT/UTF8
    ) ^7 h# q8 x$ J5 A
  174. Codec ID/Info : UTF-8 Plain Text5 p. G4 @3 I6 D% u9 T* H6 ]( O
  175. Duration : 42 min 51 s; x$ ~5 ]3 i# M" y, j# J5 M
  176. Bit rate : 148 b/s
    / p/ B& l# e* e' l. d8 _/ H
  177. Count of elements : 621
    . v% A' x0 G/ x
  178. Stream size : 46.5 KiB (0%)
    # y! N" X# L0 O3 |/ S1 K
  179. Language : Greek
    . T1 V& v7 O2 a8 S
  180. Default : No8 w% {3 {$ X1 {  n
  181. Forced : No
    / z* p1 ]1 I; x. Z: J- O( r$ r4 A/ [

  182. + ^' X* u4 ~, W4 `
  183. Text #11% o& {1 f/ N4 a+ V  U$ E3 U
  184. ID : 13
    : n0 E, m0 p/ z
  185. Format : UTF-8
    5 N% U6 m3 Z4 w" @
  186. Codec ID : S_TEXT/UTF83 G( F; A9 w; Z# J5 @" t0 d
  187. Codec ID/Info : UTF-8 Plain Text
    ) A! I- R2 L1 C4 d
  188. Duration : 42 min 51 s/ u7 o' `' z) I: i6 B' T
  189. Bit rate : 82 b/s, @7 b1 U) B9 t& h
  190. Count of elements : 600
    # ?' }+ C$ Z5 k$ ?/ t1 W
  191. Stream size : 25.9 KiB (0%)7 h, M, v: C" e1 j5 m3 Q) a
  192. Language : Indonesian  u1 p5 h  G$ @2 E* C
  193. Default : No) J! k, X% W1 Y% r, z* W+ o- B
  194. Forced : No
    3 M* t% @/ s( |* ~. e4 i

  195. # o3 [6 N$ M( V5 B+ o- Z7 h/ F; I
  196. Text #12
    : ]4 B1 H: x" N
  197. ID : 14
    0 z6 `) v$ y7 G/ k0 k; T0 j
  198. Format : UTF-8* u" v" w! e* k6 B0 h0 J% [
  199. Codec ID : S_TEXT/UTF82 v3 U* Y. H" O
  200. Codec ID/Info : UTF-8 Plain Text$ _% t2 A4 X% u. n2 R! b8 j
  201. Duration : 42 min 51 s, j( A5 N7 ^7 [: `) Z) S$ O
  202. Bit rate : 72 b/s+ y; r8 y. L, Y/ Y! L" K$ b
  203. Count of elements : 568  I( C: l9 ]( x
  204. Stream size : 22.8 KiB (0%)
    9 Q2 O1 Y8 `3 b. W/ |3 B  S6 U8 E
  205. Language : Italian% U7 g: M$ G6 ?1 U: ]) N, d! f
  206. Default : No
    - q! s8 H, ^8 `+ ^" ^& x
  207. Forced : No
    6 J  x2 B' A) |* }

  208. % Y5 f) O: U* q, R0 e7 ]
  209. Text #13$ a; v% _2 D* o9 h" t/ _3 j' \
  210. ID : 152 _& {* L5 Q: B' N" O# `4 e; f
  211. Format : UTF-88 I( D8 m* C) {9 |/ ~0 d3 {
  212. Codec ID : S_TEXT/UTF8
    / i5 N9 x9 C6 B2 [1 L9 M$ E* k: q) }
  213. Codec ID/Info : UTF-8 Plain Text8 V( D- ?3 _) z1 S( }
  214. Duration : 42 min 51 s% I: A9 v- s, Y, P
  215. Bit rate : 70 b/s
    & V5 @; P/ h1 ?; i" J0 o
  216. Count of elements : 598
    . T! {6 v! K. S8 h
  217. Stream size : 22.1 KiB (0%)! r+ K& N8 F# M( D5 i
  218. Language : Norwegian Bokmal5 v/ a% ]) @$ g) }, _% L7 b1 B
  219. Default : No$ h" C- d' y( v. R
  220. Forced : No
    7 l0 s* c8 C- a4 J

  221. / M1 x8 y; m( ]9 N9 \% r
  222. Text #14/ \' Z# Q, R2 a+ C# s
  223. ID : 16+ U( n6 N1 e9 G# A; m
  224. Format : UTF-8/ J3 q1 u  {$ I
  225. Codec ID : S_TEXT/UTF88 R2 o, t6 a" D% P1 v) U' b
  226. Codec ID/Info : UTF-8 Plain Text9 g5 T6 d+ }7 O; {0 u: h8 y, T
  227. Duration : 42 min 51 s
    4 u6 c8 W3 R. l( j( _
  228. Bit rate : 69 b/s
    6 M* L/ q+ |( y. U. e
  229. Count of elements : 588
    ! j7 ^+ h+ x0 J5 d7 I9 U
  230. Stream size : 21.7 KiB (0%)
    1 `: s8 r: y2 d
  231. Language : Polish1 E/ x% }. K2 e; p0 z2 ^
  232. Default : No7 r3 e% j& [  Y& S) ~3 j/ w5 @. E
  233. Forced : No+ Y) T; T6 K4 Z. `
  234. # ]$ c- i" m% l( ?% A7 W( t# H) r
  235. Text #15
    2 x: e+ _' R5 G
  236. ID : 17
    ( Z% Y" j4 a! v" m# g, g6 I
  237. Format : UTF-8! e* V% m6 V7 |! n4 s- w4 W1 @
  238. Codec ID : S_TEXT/UTF8
    ) v. X, ^: R; C3 T  y
  239. Codec ID/Info : UTF-8 Plain Text
    ) ^8 E9 p/ M) h3 B$ J1 T, f, y( e
  240. Duration : 42 min 55 s
    # v8 B' y& _* ^( J& j+ c
  241. Bit rate : 76 b/s
    * u4 b+ ^  E, M* @1 m  E
  242. Count of elements : 594+ \0 K# R+ J# A  B6 g7 {+ w- Q) _3 V
  243. Stream size : 24.0 KiB (0%)4 l5 J/ U# ]: c: G; T
  244. Language : Portuguese
    ) i6 C* R! c/ A7 y; X
  245. Default : No# A1 A2 U0 F( n1 _* p5 l
  246. Forced : No
    5 W& T! }! P6 o- \' g# e9 \0 }

  247. # Q7 P/ O6 {0 v; ^3 S
  248. Text #162 ~- i! j/ }  K% o! B; Q8 ?9 f/ l
  249. ID : 184 S# V( B5 e5 P1 y+ P4 `) I7 [
  250. Format : UTF-8
    + F! r  m9 _* Q$ V7 t
  251. Codec ID : S_TEXT/UTF82 O  o& r0 B" ?- a5 [, L
  252. Codec ID/Info : UTF-8 Plain Text
    . ~9 x- p* _4 d8 q/ ~
  253. Duration : 42 min 54 s) b% D* V7 g2 {* S# Q7 G$ u
  254. Bit rate : 133 b/s. w3 T/ Q7 R& H6 j! k
  255. Count of elements : 608* a; N! E8 f5 u. U$ {2 Z: z
  256. Stream size : 42.0 KiB (0%)
    $ i, s) M1 X" C$ X& E& Z. k
  257. Language : Russian" `6 q: v" [5 n& _2 G$ J, B
  258. Default : No
      [  ^' B: I9 A/ w/ u$ `+ e
  259. Forced : No
    : \3 {) `: s& H; I
  260. ) V/ X7 L( e5 A1 U0 \7 A. N/ T5 Q
  261. Text #17
    / ?" j5 K' j" @) V' L! w+ z
  262. ID : 19% L& `  w7 h8 t
  263. Format : UTF-83 C5 r/ {5 P0 L9 B2 w& I; x* c3 c
  264. Codec ID : S_TEXT/UTF8* @2 D( f$ S& T  c* P
  265. Codec ID/Info : UTF-8 Plain Text7 [( Q) U! S! ]* j0 t6 O
  266. Duration : 42 min 55 s" O" E1 b, j, L3 S8 U
  267. Bit rate : 71 b/s
    6 G1 x" n9 A) t% ?
  268. Count of elements : 5682 j4 q" u) G; H9 z; ^
  269. Stream size : 22.5 KiB (0%)* s/ }! k4 s7 _  J2 q
  270. Language : Spanish
    0 g% C2 B4 b8 _0 _
  271. Default : No3 `( s% \9 s' u3 F( t+ r
  272. Forced : No0 P6 O# A# v8 Q( p. J
  273. ) i3 R1 f  @, s# j
  274. Text #18  j/ l, h" c" S% C
  275. ID : 20
    $ }! [, V0 S% Q
  276. Format : UTF-8
    % @1 E" I: c9 W' D. R6 U
  277. Codec ID : S_TEXT/UTF8# M, x& _! `" O" L8 Q
  278. Codec ID/Info : UTF-8 Plain Text8 f3 Q: }$ u1 E1 m6 O( N
  279. Duration : 42 min 51 s
    4 K+ j! a/ l8 O) E/ G% Q+ S0 ~  J
  280. Bit rate : 69 b/s
    ( u2 M+ {) l9 e6 g
  281. Count of elements : 583
    / q9 U8 b# a; Y- d7 z
  282. Stream size : 21.7 KiB (0%)
    ) H, q$ }/ O8 w' _" t' D
  283. Language : Swedish% F8 f4 g+ D* ~. ~* G3 ]3 v& ~' x# K: P9 l
  284. Default : No* k# Q0 J6 D! S# [
  285. Forced : No
    3 `) }* F, `3 u) ]5 @' |" q9 |- M- @7 Z2 a

  286.   l2 M" U0 A1 l, c5 G; I8 p
  287. Text #195 r7 g/ t2 ?9 C5 c( v$ D" C. d
  288. ID : 21
    6 f! q, W! k) i% L' g
  289. Format : UTF-8
    . `; Z" J+ r5 Q& w/ m
  290. Codec ID : S_TEXT/UTF83 Z) j; m  e7 B/ z+ ^
  291. Codec ID/Info : UTF-8 Plain Text5 u) M2 ^8 A# J0 ~3 L) V
  292. Duration : 42 min 51 s2 f7 X( g$ T  L6 l
  293. Bit rate : 77 b/s
    & }; |1 j/ \1 N8 n! D6 r/ d
  294. Count of elements : 599: k7 c+ g+ D/ p- m* L
  295. Stream size : 24.3 KiB (0%)
    9 y$ [9 V% X" z6 b5 K# ?* t0 L
  296. Language : Turkish1 s- o' b" s2 C7 m" M4 h
  297. Default : No. u$ ~8 C7 t* F* d" Y* U
  298. Forced : No
复制代码
5 O! W0 d/ G3 D  w

8 O7 P( D# }' Q1 W5 R- B9 m
4 S. v/ H/ m- ]& K" X7 x+ C) g9 K! W* x) I9 s+ K) a

0 j. u7 v4 Y/ E/ m) K5 H) }
. I1 Z4 H, K& c* D$ O0 Z, A
游客,如果您要查看本帖隐藏内容请回复  捐助论坛可免回复查看隐藏内容 详情请点击
发表于 2018-12-29 19:05:13 | 显示全部楼层
看看奈飞的记录片
发表于 2018-12-29 20:22:15 | 显示全部楼层
纪录片就是应该反应某些沉重
发表于 2018-12-29 21:57:26 | 显示全部楼层
谢谢楼主分享这么好看的纪录片
发表于 2019-1-5 20:54:29 | 显示全部楼层
不错的片,感谢分享
发表于 昨天 09:34 | 显示全部楼层
犀利的片名,谢谢分享。
您需要登录后才可以回帖 登录 | 立即注册

本版积分规则

封号公示|手机版|Archiver|有问题发邮件到admin#(换成@)hd1tj.org|微博|免责申明|HD一条街

GMT+8, 2019-1-16 16:10

快速回复 返回顶部 返回列表