HD一条街论坛

 找回密码
 立即注册
搜索
查看: 69|回复: 10

[欧美] 纪录片:光影传说 第三季[自带中文字幕]Tales.by.Light.S03.1080p.NF.WEBRip.DDP5.1.x264-NTb 7.73G

[复制链接]
发表于 2018-12-27 11:35:45 | 显示全部楼层 |阅读模式
  1. Video
    ' a6 O0 a7 }( Y: x, H, S
  2. ID : 1
    7 e6 g% t: h) A; B
  3. Format : AVC: R# j, t) R: ]
  4. Format/Info : Advanced Video Codec+ x( }2 N: \( r( {1 E% U' S
  5. Format profile : [email protected]
      Q4 M" \$ d, Y" b$ }: L
  6. Format settings : CABAC / 3 Ref Frames
    : t  w: K, j. p3 M! m) t
  7. Format settings, CABAC : Yes
    6 W5 q; a' G4 Q
  8. Format settings, ReFrames : 3 frames9 j& D9 F3 @9 Z  Q, M& W( B: Q
  9. Codec ID : V_MPEG4/ISO/AVC0 D- M* K0 @0 U4 W4 \7 [5 ~! r
  10. Duration : 25 min 30 s1 S( U' |+ k' o% {& j# e
  11. Bit rate mode : Variable
    3 _0 m: Z! [- m- e7 p1 ?6 Q
  12. Bit rate : 7 500 kb/s  u' \: g  ^& B& P7 o
  13. Maximum bit rate : 11.2 Mb/s
    & x, Q- n! B8 W. X- C
  14. Width : 1 920 pixels
    + \$ M1 S6 [& ?" e
  15. Height : 1 080 pixels
    7 s4 }- l. O: P+ V
  16. Display aspect ratio : 16:9
    ) U; ?; o/ G5 S8 w
  17. Frame rate mode : Constant
    3 H  H( U. f! f- m$ k7 m1 o
  18. Frame rate : 25.000 FPS+ ?% H9 j* T" s& I% J/ j# I
  19. Color space : YUV
    ( M, a/ u0 A' _3 u; ?9 ]! \
  20. Chroma subsampling : 4:2:00 m: y4 t, P1 @, U: E
  21. Bit depth : 8 bits
    $ `3 k: C& i( j
  22. Scan type : Progressive
    * n3 m) g2 Z. c' r" X0 j! x7 o: q
  23. Bits/(Pixel*Frame) : 0.145
    ; [  M/ w, ^4 H
  24. Stream size : 1.32 GiB (92%)
    $ J8 t1 K# Z9 W  e, E; B
  25. Writing library : x264 core 148 r2715 7e75228
    : z' H+ P4 Z+ d! n
  26. Encoding settings : cabac=1 / ref=3 / deblock=1:0:0 / analyse=0x1:0x111 / me=umh / subme=10 / psy=1 / psy_rd=1.00:0.00 / mixed_ref=1 / me_range=24 / chroma_me=1 / trellis=2 / 8x8dct=0 / cqm=0 / deadzone=21,11 / fast_pskip=1 / chroma_qp_offset=-2 / threads=8 / lookahead_threads=1 / sliced_threads=0 / nr=0 / decimate=1 / interlaced=0 / bluray_compat=0 / stitchable=1 / constrained_intra=0 / bframes=2 / b_pyramid=0 / b_adapt=2 / b_bias=0 / direct=3 / weightb=1 / open_gop=0 / weightp=2 / keyint=50 / keyint_min=26 / scenecut=0 / intra_refresh=0 / rc_lookahead=50 / rc=2pass / mbtree=1 / bitrate=7500 / ratetol=1.0 / qcomp=0.50 / qpmin=6 / qpmax=51 / qpstep=4 / cplxblur=20.0 / qblur=0.5 / vbv_maxrate=11250 / vbv_bufsize=15000 / nal_hrd=vbr / filler=0 / ip_ratio=1.40 / aq=1:1.00
    ' E1 f) p) a3 q1 s, n  O! U
  27. Default : Yes. G) C; l9 C; ^
  28. Forced : No. c7 j$ Y: o1 F% B) W
  29. 5 Y( a$ F0 H+ K% a* h" v
  30. Audio+ G9 y* j+ c& u2 t5 T7 Q
  31. ID : 2
    2 Y6 k" Q& k& N' B; w
  32. Format : E-AC-3- s$ g% |0 Q/ R( a, A# h
  33. Format/Info : Enhanced AC-39 U# J" ~2 z5 x8 }$ f1 x5 @( {
  34. Commercial name : Dolby Digital Plus5 Q5 ]1 m' c6 ]9 x) c) k
  35. Codec ID : A_EAC3
    ! X1 ^4 g. y0 d8 ]' ]1 r6 \
  36. Duration : 25 min 30 s
    3 K8 n9 p: f4 T$ l
  37. Bit rate mode : Constant% B% S! [1 C+ V3 a; D1 X/ G
  38. Bit rate : 640 kb/s
    - @3 g/ H- H) V' ?3 x4 `* t
  39. Channel(s) : 6 channels0 x. ~# K) l! m8 L& r+ l0 u
  40. Channel layout : L R C LFE Ls Rs
    0 G' r7 n+ b/ i8 h0 z- Q) Z4 Z* N. L3 j
  41. Sampling rate : 48.0 kHz
    2 K$ y* J9 J- ^. x* I4 G: e
  42. Frame rate : 31.250 FPS (1536 SPF)
    / G/ r; e5 h, E, U* q  e6 w  B) G
  43. Compression mode : Lossy" M! O0 g9 H) H- g/ P& }0 N
  44. Stream size : 117 MiB (8%)- Y. b; u+ O( M$ S
  45. Title : English) c7 b* n. B4 f6 o
  46. Language : English$ j9 p. C; o1 U1 k0 H6 j# R
  47. Service kind : Complete Main
    4 Z+ ?% W8 G/ l( H
  48. Default : Yes8 z, [& d9 Z; I7 f* t
  49. Forced : No
    # q( c5 Z- p0 A- d0 x0 ?2 G& ~
  50. 6 s" j" P  W' y- ?& ?+ J
  51. Text #1$ ]# O5 J: {! G% v# H# ?$ F
  52. ID : 3: d, x0 Z0 L( X' K5 A! K7 }
  53. Format : UTF-8" S" ?7 m" |7 D$ }
  54. Codec ID : S_TEXT/UTF8
    / i9 ?3 J' g1 j8 D
  55. Codec ID/Info : UTF-8 Plain Text9 B/ K: W! u* t; t2 F
  56. Duration : 18 min 22 s
    0 ]  N8 ~6 o- W7 a
  57. Bit rate : 32 b/s
    ' K, a8 T: p: j) Y7 V
  58. Count of elements : 109& @4 _% j3 w9 Y: I8 n6 C% w
  59. Stream size : 4.34 KiB (0%)
    / T+ E; ]# M5 q4 Z  M, @
  60. Title : Forced
    : u; G9 [$ C# k% X5 S, a) |* N
  61. Language : English6 F% h: T, n4 C% o* e! r; p
  62. Default : Yes% T+ I8 f6 t8 I; I2 v
  63. Forced : Yes( n2 }6 q2 i; w/ z0 k: K- F
  64. 9 Q* m. O$ p- f6 ?
  65. Text #21 B6 x5 E5 e; N$ k# V
  66. ID : 4% |9 k7 B2 {; T" r, N
  67. Format : UTF-8( q5 [2 V, W# m2 {3 ~: Z
  68. Codec ID : S_TEXT/UTF80 }5 h( ^3 M4 n% P
  69. Codec ID/Info : UTF-8 Plain Text
    # Y! I4 Y2 x  P# }# p5 l3 A% h
  70. Duration : 23 min 32 s
    , q  Q  p% s; Z5 V( L
  71. Bit rate : 76 b/s' i1 E+ Y# q: C6 j* K/ U
  72. Count of elements : 258
    ' ^! e4 i* g0 U% d0 X2 m
  73. Stream size : 13.2 KiB (0%)
    ( F, y4 O& J8 Y' `3 v3 X
  74. Language : English
    - z& O) D% R6 i# @/ l/ {) K6 t$ H
  75. Default : No# n2 `, z- W% g7 M2 Y
  76. Forced : No2 a8 r9 [7 ]) Q& c8 P

  77. ' y5 a+ T  f; }) V" U! x& n
  78. Text #3' s  }$ _/ Y& G1 k1 B
  79. ID : 5
    / K- A  g$ v$ |. q, g
  80. Format : UTF-8
    ) u# \+ z- r8 \9 w4 F3 A* l" g! i
  81. Codec ID : S_TEXT/UTF86 v7 ~- Z% K9 A* l
  82. Codec ID/Info : UTF-8 Plain Text
    5 Q) x1 h/ P* I. m- l& ]
  83. Duration : 23 min 32 s' r6 W* C, V6 k$ X- A) x1 F7 f
  84. Bit rate : 78 b/s# e$ q3 C: \: B6 l
  85. Count of elements : 266# X6 P# X; X0 B. Y/ p
  86. Stream size : 13.6 KiB (0%)
    7 P' O% j2 r6 s
  87. Title : SDH+ Q- }- V! J% f: T- L" l( U
  88. Language : English$ Z% g/ W0 C, I3 f; |. t: `
  89. Default : No
    9 J5 A- v& \8 x0 i) r+ m' J7 w
  90. Forced : No6 [6 s9 k8 u# }

  91. : Y/ m, v) x$ Y' c  L* h% O
  92. Text #4
    . N0 N  z% N6 l4 `# v
  93. ID : 6+ C) d7 G4 T& r8 `# A/ x  x9 q0 a
  94. Format : UTF-8
    ) `4 l3 Z) y. a! C+ b
  95. Codec ID : S_TEXT/UTF8
    * w- P7 B, ?+ l. e- m* I
  96. Codec ID/Info : UTF-8 Plain Text& p; D  E% R; @+ r  N7 ~
  97. Duration : 24 min 1 s0 Z1 [$ j$ Z: f, K5 s; b
  98. Bit rate : 103 b/s: a9 V0 w0 E' O# Z
  99. Count of elements : 297: V3 }( S; H5 ?) F
  100. Stream size : 18.2 KiB (0%); i7 R- Y% C: _% i* O- s; J
  101. Language : Arabic7 Q# s1 b6 E" i9 a8 n4 b
  102. Default : No$ t% t5 c2 D5 U' ]8 |& N
  103. Forced : No
      N0 }5 E9 n9 {8 o4 a- }) ^
  104. 9 N& g: t5 u. W$ Q# H
  105. Text #5
    % {4 q5 m! W0 o' ~2 Z3 m& n
  106. ID : 75 W8 |8 F- w/ {2 ~0 o) X( }  N
  107. Format : UTF-8
    , J5 x, H; J$ l
  108. Codec ID : S_TEXT/UTF8
    1 r" J7 C% M$ R
  109. Codec ID/Info : UTF-8 Plain Text0 k1 l% Z' F9 d) F
  110. Duration : 24 min 1 s
    ; E: H1 G+ }2 f) @% n
  111. Bit rate : 68 b/s8 k3 A8 z( l3 T  [& }6 Y/ H! U  {& y. }) ^
  112. Count of elements : 222
    2 @; Y# x& ]1 s- _1 m, Y8 S
  113. Stream size : 12.1 KiB (0%)4 Z) R  ?: _$ V6 q, R
  114. Language : Danish( l0 F9 h/ Q" \5 o3 e
  115. Default : No3 J2 ?. w( |2 d
  116. Forced : No
    ( P9 z2 N# Q; u
  117. 2 e/ e$ {0 F' g5 x% _
  118. Text #6' M! k) b. Y/ `9 F" F, D
  119. ID : 8
    ) b9 N$ F: `! T( }
  120. Format : UTF-8  R' O0 d( n$ ^- |7 ^; d5 q
  121. Codec ID : S_TEXT/UTF8$ n8 G* r) ?  _
  122. Codec ID/Info : UTF-8 Plain Text
    - I. s( y6 ?# {3 f1 |
  123. Duration : 24 min 1 s
    * A2 J) q" L+ V+ f: _6 [
  124. Bit rate : 77 b/s
    ; h3 K/ ]' B; X1 w/ `1 j
  125. Count of elements : 2996 F0 `: B; P; \9 |$ n* S) `
  126. Stream size : 13.7 KiB (0%); |! _6 R: c6 V) K/ ]. Z
  127. Language : German
    3 G( D0 E4 M! K' O* [
  128. Default : No
    ' Y8 X# t, f% |9 ^
  129. Forced : No( c# ]* R- S; Y; Z9 B
  130. ' Z3 D  g. T. [  D6 \4 z
  131. Text #7
    6 d* ]1 g) I8 B  g6 F
  132. ID : 9
    ) R4 I) s# C7 }! [1 s& n
  133. Format : UTF-8* Q- C& L, P2 u% s$ S
  134. Codec ID : S_TEXT/UTF8- w9 `" d* n3 C! F
  135. Codec ID/Info : UTF-8 Plain Text
    & l5 S- t9 ]- L  ]: o
  136. Duration : 24 min 1 s) g9 h: i( b; e2 ?8 L+ e2 n
  137. Bit rate : 117 b/s9 x. W% B. a  [5 p) t
  138. Count of elements : 301
    # B9 i7 i8 q2 `0 W% B$ i
  139. Stream size : 20.6 KiB (0%)1 Q/ R; S4 S( A" C- N+ k
  140. Language : Greek0 p: i9 k# ?: f  _. R0 I1 P) l
  141. Default : No
    + Q6 B2 f4 P8 @, T0 O5 E; K; s% f  g
  142. Forced : No) G1 v  \! w& N& Y& Y6 u+ S1 R

  143. . e7 i+ R( O1 f6 }! a7 d. z8 M6 ?; ^
  144. Text #8
    4 S- k+ z  c1 q
  145. ID : 10
    2 _* {# c' X9 X" l2 \3 x3 c
  146. Format : UTF-8
    $ l# [9 j+ G* Y, y
  147. Codec ID : S_TEXT/UTF8& J) O: B0 N  N" e
  148. Codec ID/Info : UTF-8 Plain Text+ B# X) b, O0 E! k
  149. Duration : 24 min 1 s0 Q  w2 O* k  f3 ?
  150. Bit rate : 71 b/s; Y+ r, p7 n* s9 Y$ b' W
  151. Count of elements : 300: f; a& Y0 d. V
  152. Stream size : 12.6 KiB (0%)8 N4 T, O3 o. {
  153. Language : Spanish
    1 @6 H; N4 r& r; n# n
  154. Default : No
    / K8 t  \- B! f% E
  155. Forced : No+ l( ]# g) W& w" {! |, ^
  156. ; `  \2 ^4 B$ y+ m" T
  157. Text #9
    # y- m9 X. F* m: M5 Q% y) I
  158. ID : 11
    9 q. W2 w- }1 A8 i3 C9 t* C& S
  159. Format : UTF-8
    6 D* x/ t0 d6 r0 g
  160. Codec ID : S_TEXT/UTF84 p. d( f8 Q. u& r( `+ A( K/ g
  161. Codec ID/Info : UTF-8 Plain Text
    0 d8 a$ A2 N! c1 j
  162. Duration : 24 min 1 s) \$ l! K! w, u* ]4 g( u
  163. Bit rate : 70 b/s
    / h; y: L7 b5 I) C: }
  164. Count of elements : 298
    2 n9 c, q- t: m" R
  165. Stream size : 12.4 KiB (0%)
    ! r' K( Q* S6 N2 w' M
  166. Title : European& P: }* Z  x5 p6 U  M% N
  167. Language : Spanish
    0 T7 U  u' e, f4 f! M: M
  168. Default : No
    ) @9 A8 ?4 [; f
  169. Forced : No4 ?* q* d7 }# [7 u) d; i

  170. 1 G, \3 D; r, O' h4 r
  171. Text #10
    : ]5 d4 B3 ?3 V# ]+ n; y1 _0 I
  172. ID : 12) [  F$ @0 ]! ~
  173. Format : UTF-8
    . l( Q7 @) j( o; G' e) c
  174. Codec ID : S_TEXT/UTF89 X( O! t! J& ^
  175. Codec ID/Info : UTF-8 Plain Text
    ; u# m1 ^0 T# ~; g$ }8 z
  176. Duration : 24 min 1 s
    8 _8 z2 N9 \" v+ _
  177. Bit rate : 67 b/s, ^5 e( y+ ^% g' V7 _( G
  178. Count of elements : 231
    7 d4 ]+ m$ V. m& M* s
  179. Stream size : 11.8 KiB (0%)
    : Z. Z( q) {( l
  180. Language : Finnish
      \8 k$ `9 M) ?: q( F! e7 v& z
  181. Default : No5 R. M( E9 N( w& |* j" Q
  182. Forced : No
    . M9 }! X8 O7 L" X- g/ f' m" ~

  183. ! J) o+ d$ J2 o; V. I: I
  184. Text #115 l- U  Z" F1 u) c' A
  185. ID : 13& E1 s4 b6 {. q1 k
  186. Format : UTF-8
    4 j0 g6 _0 D: y5 U
  187. Codec ID : S_TEXT/UTF8
    9 I$ @3 {# E* C( V2 H
  188. Codec ID/Info : UTF-8 Plain Text5 m5 i* t6 h$ v/ F
  189. Duration : 24 min 1 s% K( @9 n6 U! f+ `
  190. Bit rate : 75 b/s5 J& v" A8 v1 I& r2 N3 X
  191. Count of elements : 277
    - U# G# i5 W% ?& h* _
  192. Stream size : 13.3 KiB (0%)1 n; }& @: S, E' N3 C
  193. Language : French
    / C6 `8 u- O2 |. i  O. i
  194. Default : No/ t+ v- Z" m1 G( `
  195. Forced : No
    : P0 S  H6 a8 i5 f9 }4 z

  196. ' e. d) b  V$ k( J  @
  197. Text #12; J1 h1 K( x" K3 D, K& Z
  198. ID : 14
    ! W1 _" Y; _$ X. k
  199. Format : UTF-80 V, h# O( E* C# {
  200. Codec ID : S_TEXT/UTF8! H$ z. P& s7 `  f: R
  201. Codec ID/Info : UTF-8 Plain Text
      a, @7 R2 j6 ?5 d8 C5 I5 f. P
  202. Duration : 24 min 1 s
    / a! x- Q: P$ I
  203. Bit rate : 97 b/s
    + S, n: ]3 n! q! k
  204. Count of elements : 300
    2 S$ Y1 Z( N. G- k. o: X
  205. Stream size : 17.1 KiB (0%): l1 g. Y0 P( y, R) A+ V
  206. Language : Hebrew0 ?; V3 [7 {$ t3 k5 z2 D" `! e) a0 b
  207. Default : No: i# [* a/ U# f7 ?
  208. Forced : No
    , _  K" {4 g1 |4 i( `

  209. ' i: U8 [5 ]. u+ b5 [
  210. Text #13
    1 e: l6 O% D8 q) j$ p9 I
  211. ID : 15, P& f9 C3 I/ \
  212. Format : UTF-80 H+ _8 C9 [) m, C: v2 G
  213. Codec ID : S_TEXT/UTF8
    4 B: K& _3 k: C0 J( E5 v$ B
  214. Codec ID/Info : UTF-8 Plain Text" E& c3 S! E3 s7 f
  215. Duration : 24 min 1 s
    9 Z" f  i9 d# X& V( t( v: j
  216. Bit rate : 74 b/s
    ) J6 G; V- _& C( Q/ l
  217. Count of elements : 299
    : w' |4 d2 B6 Y  Y' j6 ]% _9 k
  218. Stream size : 13.1 KiB (0%)2 w4 F$ U' T: y( c
  219. Language : Italian
    & Z, `' R7 ?* o
  220. Default : No) o( a( x9 V8 Y" r" y
  221. Forced : No7 |% p& g, n' Q

  222. & M' o5 J/ y8 [6 x. C3 x. v
  223. Text #148 Z+ u0 a5 d! n* O- |* ^* w" c1 l
  224. ID : 16! u, |0 v4 C3 [
  225. Format : UTF-8% r: \/ L' a3 i. L. s# Q
  226. Codec ID : S_TEXT/UTF8
    & C6 ]' C) x3 i/ J) y) o
  227. Codec ID/Info : UTF-8 Plain Text# J/ p) X! ]4 z: x/ R/ u, S& Y, c
  228. Duration : 24 min 1 s: h3 G2 ?5 i0 U* W
  229. Bit rate : 65 b/s
    7 x, V" p  l( Q3 x
  230. Count of elements : 270
    & Z. O% n4 E+ I8 K; v" r2 g
  231. Stream size : 11.5 KiB (0%)& ?+ _3 |7 `! f' R
  232. Language : Japanese
    ) h4 Y0 \! S" b, Q' y
  233. Default : No/ J3 y3 k3 M* S, T+ A( g% D
  234. Forced : No7 f( s! W! u$ s7 P2 e8 w' |' H: g

  235. 7 ?7 s4 a5 v: x8 N8 y
  236. Text #15
    6 g/ v1 t" h6 ?9 Z8 P
  237. ID : 174 x8 k& y- v" |
  238. Format : UTF-8$ S% L2 n: B9 u" B, H! Q
  239. Codec ID : S_TEXT/UTF81 I- ]) O$ w% i$ Q' s8 U
  240. Codec ID/Info : UTF-8 Plain Text
    9 ?4 O* E* A& N( n. N. j
  241. Duration : 24 min 1 s" I$ x: ]/ G: M# z
  242. Bit rate : 75 b/s
    ( U* {. V: f0 W& ]0 N/ V2 a
  243. Count of elements : 3015 f4 l; v' G" O6 L( I, s
  244. Stream size : 13.2 KiB (0%)+ C) S& N6 t0 ?% A2 m8 c: J
  245. Language : Korean3 l7 _( K9 N- I9 T
  246. Default : No4 a$ z) I  ]! \2 R1 d# e$ x5 ^
  247. Forced : No
    / }3 b) y0 A( P4 F0 Y5 d7 S
  248. . l( C; ^6 w2 k" s4 a% Z( c
  249. Text #164 [8 U( X+ o7 j7 s
  250. ID : 18
    2 e- H* [, b0 W% D* z# C
  251. Format : UTF-86 `) F& A( k* K8 w# d, b( w
  252. Codec ID : S_TEXT/UTF88 O% N- v6 x9 u2 _
  253. Codec ID/Info : UTF-8 Plain Text/ f2 A; d9 |" p
  254. Duration : 24 min 1 s- }6 Z" \- z4 u3 o
  255. Bit rate : 72 b/s; Q- O$ r( W/ U2 H+ {/ y1 k& E
  256. Count of elements : 2963 ?$ V( w; |, {
  257. Stream size : 12.8 KiB (0%); `" A  V/ A6 f. @2 p% J
  258. Language : Norwegian Bokmal+ }, `5 j& p) `
  259. Default : No( p# z9 M6 U% U  u
  260. Forced : No
    ! K& P7 L- F6 H6 h
  261. 4 O1 D6 I. m0 s( c; F
  262. Text #170 V; K4 {: Y5 M" A( w
  263. ID : 19
    1 B" n# |7 J  a6 U: O/ P
  264. Format : UTF-87 N# [2 c8 i1 r/ R1 B% ~
  265. Codec ID : S_TEXT/UTF81 Z, Q3 A  U5 W- p
  266. Codec ID/Info : UTF-8 Plain Text
    ' N9 e. m7 W) T% Z7 M5 N
  267. Duration : 24 min 1 s
    ( E. |4 J* ^( @% d) ~7 Y# k
  268. Bit rate : 58 b/s
    ) I$ J& W% Q! M5 [9 {
  269. Count of elements : 2859 C3 X7 N+ I( j/ b
  270. Stream size : 10.3 KiB (0%)# e: o6 L" M# {* o1 X" {( m
  271. Language : Dutch0 ]- q8 z% L& |1 G; C0 h
  272. Default : No  \, ^, ^- U; E; r) a; j' x& _
  273. Forced : No1 c% Y( a5 f: t' a- S0 r. T
  274. - R7 k1 Z9 B' R% p
  275. Text #181 c- Q7 _" }; G& x$ c. s; r
  276. ID : 20
    3 v% y8 [0 D* c* w+ W
  277. Format : UTF-8# Q, b8 Z. R* w' d
  278. Codec ID : S_TEXT/UTF8) o- w4 J  F8 F3 `: o! }
  279. Codec ID/Info : UTF-8 Plain Text" c( ?7 C5 c+ z; y6 V- d9 K6 m
  280. Duration : 24 min 2 s
    9 x3 K3 [% w+ i; U
  281. Bit rate : 68 b/s
    , W6 W* a9 c* @* c* N
  282. Count of elements : 283, ^1 l! @  `# o. R! z( K6 D
  283. Stream size : 12.1 KiB (0%)( W; j$ J* ~3 M2 J0 a4 H9 M5 Q2 W
  284. Language : Polish0 r( j6 N6 ]$ S8 m6 [" d
  285. Default : No
    + D8 Y, U6 F* B. A3 X# D) ]
  286. Forced : No
    4 m* Y, V9 @8 c3 K0 v) g6 ]5 I. i
  287. 6 c' i/ f& B& `. d! @
  288. Text #19( I' I8 h# O. E* z/ c( F
  289. ID : 212 O5 V0 W; G9 I/ b; n8 y, s
  290. Format : UTF-8
    8 Z6 U3 c$ l2 v
  291. Codec ID : S_TEXT/UTF8
    2 a7 `( W2 ]+ o
  292. Codec ID/Info : UTF-8 Plain Text. }% h5 e" `/ L
  293. Duration : 24 min 1 s4 i5 E& Y% }. ^) w
  294. Bit rate : 73 b/s- d7 D, N1 \7 {4 t2 d
  295. Count of elements : 290
    7 A9 p+ N4 O4 l% h, M$ u) U
  296. Stream size : 13.0 KiB (0%)
    ' E( i$ t9 o, M4 [5 [+ C# B& `
  297. Language : Portuguese
    % }, B% h% j, h
  298. Default : No
    # `& ~' x  w" J2 v1 C" `
  299. Forced : No: x" Y$ p, @. h2 i
  300. 4 Z5 \: ]$ u) |) h1 a1 G- Q# Y# |
  301. Text #20
    * K2 U0 J( n$ s, c( m
  302. ID : 22) E6 S% J4 I( s3 Y1 i
  303. Format : UTF-8
    ( G7 o6 E- S; n% {& X
  304. Codec ID : S_TEXT/UTF8
    $ U1 j& d; V7 x" _( x5 ~& u+ L* o! {
  305. Codec ID/Info : UTF-8 Plain Text" }  v" s, Y" k- W8 o9 z1 n
  306. Duration : 24 min 1 s! B8 P% J9 l0 x
  307. Bit rate : 72 b/s
    ) o1 H# q2 g9 }
  308. Count of elements : 300
    . _% @' \" ^$ t- O% q) s3 p
  309. Stream size : 12.8 KiB (0%)  U4 F# I$ p9 P/ w. ~1 h% M; w
  310. Title : Brazilian
    ( O8 W2 N% J4 ~7 {$ Q
  311. Language : Portuguese
    # t' o' |4 {1 s* s
  312. Default : No, w2 ~- ?  ~& V5 i0 A
  313. Forced : No8 ~, _$ s7 Q$ V+ n
  314. 2 \# B9 c9 q  m; u
  315. Text #21+ q: q$ x! Y6 x0 X) I- X
  316. ID : 23
    4 S$ n4 m5 `- i8 y- P$ d' a
  317. Format : UTF-8
    , ?8 n2 j* O: x/ u1 [8 \
  318. Codec ID : S_TEXT/UTF8
    $ W) I" ^& u6 I- p) I
  319. Codec ID/Info : UTF-8 Plain Text7 f' P( q, q9 P2 P0 F; S. V
  320. Duration : 24 min 0 s
    8 S) G" k; R# W/ A0 _& `  \
  321. Bit rate : 70 b/s
    1 D: _1 u2 g0 y+ H. H
  322. Count of elements : 299
    4 I! u" @# t" s# O5 i% |
  323. Stream size : 12.5 KiB (0%), L6 B+ O4 Q$ T, f: S% j
  324. Language : Romanian
    % j% ]' y/ `9 F% \/ j! f/ F
  325. Default : No
    % ?& M+ a+ T) j( f% C( q# l
  326. Forced : No) b3 a& H* U7 G4 ]/ R3 C) b, Q
  327. . I( C/ ^+ @$ a
  328. Text #220 b, Z! ~: H- K5 s# P
  329. ID : 240 p6 }- _- \4 _1 k7 k1 J  `  C3 w( ~: s
  330. Format : UTF-8
    + S* a/ M' Y" w6 x: R
  331. Codec ID : S_TEXT/UTF88 s3 ~, x8 z$ O2 S  D
  332. Codec ID/Info : UTF-8 Plain Text
    ! Y3 u' |. w- R+ V, Q# |. u* t$ E3 l+ M
  333. Duration : 24 min 1 s5 k' p* x- W$ F: W. E( k: z$ ]
  334. Bit rate : 71 b/s1 ?) z$ i% U6 Z5 o7 r
  335. Count of elements : 299! [4 r# f/ h+ w
  336. Stream size : 12.5 KiB (0%)4 w) d" c- ?6 U4 k1 `1 v
  337. Language : Swedish
    $ l/ V! i2 P* x; s7 ?% V, K
  338. Default : No7 W$ J& P% L7 |7 o: f4 u
  339. Forced : No- c. F7 R% V$ c( ~

  340. 0 n) n0 p8 n- D8 A5 G0 ]; x1 N
  341. Text #23  y; ^3 h% o9 a$ V/ F% i
  342. ID : 25- t9 f8 i8 H) f
  343. Format : UTF-8
    5 _2 @# v- M3 F' W9 H- f, M
  344. Codec ID : S_TEXT/UTF8) j. i4 e  g$ l5 ~' u/ R
  345. Codec ID/Info : UTF-8 Plain Text0 e( J8 m1 K! P
  346. Duration : 24 min 1 s% o& v6 a$ p+ e) G) r
  347. Bit rate : 161 b/s
    3 g; a4 G: ?+ u" e5 U
  348. Count of elements : 306
    " Z, t1 b9 t% u) _
  349. Stream size : 28.5 KiB (0%)
    7 }- e% k1 M1 I4 D+ u
  350. Language : Thai* i- U  X3 ~6 j. S. P
  351. Default : No
    * }, z1 U5 M3 @% p
  352. Forced : No
    7 O4 |% H- F. S. I

  353. 2 U. g' C) J3 E2 Q/ A2 v) _2 T
  354. Text #24, B7 Z; X: v( v3 I' r/ ~
  355. ID : 26
    ! Z4 q* O: [9 W/ w
  356. Format : UTF-8
    / P( _2 E/ h7 a7 ^: ~# v6 v$ `" p- W8 U4 C
  357. Codec ID : S_TEXT/UTF8
    6 z/ e$ F4 b8 A; @
  358. Codec ID/Info : UTF-8 Plain Text: I- K& \& w- d( U( m( u6 ~5 n% ~
  359. Duration : 24 min 1 s* A1 _$ \: S8 G( P% g; `; d: D
  360. Bit rate : 77 b/s- w, g3 S/ g: Z/ R2 x- {
  361. Count of elements : 298
    0 J. x7 m4 c& }9 d* h6 A+ h
  362. Stream size : 13.7 KiB (0%)) D: V1 S0 o6 a# e/ j2 D
  363. Language : Turkish7 z- S* g. a5 k, C- S- Q
  364. Default : No
    7 P: |; q0 ?# C, n. W: a
  365. Forced : No
    ' v4 C2 V; S0 A: [7 B+ Y
  366. 8 K1 v$ P. l  z: X( S4 V
  367. Text #25
    , m! E$ Y" f  R- L- e) {
  368. ID : 27
    1 {# B3 `& c+ @5 }+ x
  369. Format : UTF-8. r; |8 q9 U& \* T9 l4 n- `
  370. Codec ID : S_TEXT/UTF8
    8 T- W( J. i! s; p1 Z% Y8 f
  371. Codec ID/Info : UTF-8 Plain Text4 w9 }0 O. e4 D2 Q2 z; d4 X/ l
  372. Duration : 23 min 55 s
    1 v+ P" Z* g  F7 V7 }: b2 ]2 V5 N
  373. Bit rate : 59 b/s& h0 J7 I9 d- g$ w$ a
  374. Count of elements : 301
    9 Q5 _' @7 X& K  y3 |
  375. Stream size : 10.5 KiB (0%)
    ) g7 k% q' t% v# y: I( s8 C5 i
  376. Title : Simplified
    * D; B% {! \4 h8 W
  377. Language : Chinese! r9 u* s  u6 S: j1 L0 m
  378. Default : No
    1 ~: i6 `+ A" k. B- u  t
  379. Forced : No$ I, R: z6 L% O

  380. ' e1 Z. L. z2 ]
  381. Text #260 G# f" t% N9 U- w, `
  382. ID : 28* Y6 U# Z$ m( N, e3 \
  383. Format : UTF-8
      C6 d  R* P2 E+ C9 a
  384. Codec ID : S_TEXT/UTF80 L) b. ]7 R8 O
  385. Codec ID/Info : UTF-8 Plain Text
    7 I* I9 V1 u5 u
  386. Duration : 24 min 1 s4 W7 p: ?- h( p) _) B% J
  387. Bit rate : 59 b/s' A1 ?. _  M8 e5 k. a3 Q6 ^& n
  388. Count of elements : 296
    ' j' O( @3 c8 R) r! z  E8 q* _
  389. Stream size : 10.5 KiB (0%)
    ( U+ V1 u+ Z5 k! R/ v) A# G! Y' ^3 [- G
  390. Title : Traditional2 _* ~0 y+ C! S5 Y
  391. Language : Chinese
    ) z* L. K! z$ ]( g0 h
  392. Default : No
    . X$ G0 K3 D7 z( |+ y5 `! P3 O9 E' f
  393. Forced : No
复制代码
+ n  r' E0 u& }- B. l* H
& V2 [9 D; A3 ?( Y  Y. D0 w0 S

# B" C" t1 f9 t: _3 D. a$ ^$ l. t0 |% h1 M& O6 x: D

. D# O; o" a9 Y# w7 E( h- |$ N3 Z+ i
游客,如果您要查看本帖隐藏内容请回复  捐助论坛可免回复查看隐藏内容 详情请点击
发表于 2018-12-27 14:48:36 | 显示全部楼层
第三季了,珍貴的纪錄片一定不能錯過,謝謝分享。
发表于 2018-12-27 21:20:47 | 显示全部楼层
谢谢楼主分享
发表于 2018-12-27 21:30:09 | 显示全部楼层
谢谢谢谢谢谢
发表于 2019-1-3 12:57:04 | 显示全部楼层
辛苦哂收下了多谢
发表于 2019-1-5 20:05:57 | 显示全部楼层
很喜欢这个系列呀
发表于 6 天前 | 显示全部楼层
深山远林的居民啊,谢谢分享
发表于 3 天前 | 显示全部楼层
好片,感谢楼主分享。
发表于 前天 00:21 | 显示全部楼层
这系列的纪录片不错,多谢分享。
发表于 昨天 09:39 | 显示全部楼层
都出到第三季了,谢谢。
您需要登录后才可以回帖 登录 | 立即注册

本版积分规则

封号公示|手机版|Archiver|有问题发邮件到admin#(换成@)hd1tj.org|微博|免责申明|HD一条街

GMT+8, 2019-1-16 20:05

快速回复 返回顶部 返回列表