HD一条街论坛

 找回密码
 立即注册
搜索
查看: 47|回复: 1

[欧美] 光影传说 第1-2季 Tales.By.Light.S01-S02.1080p.NF.WEBRip.DD5.1.x264-AJP69

[复制链接]
发表于 2018-12-24 12:30:47 | 显示全部楼层 |阅读模式
! w# x) y' y: [8 e3 z9 f/ r2 W
                               
登录/注册后可看大图

$ I3 M7 K+ f/ E' }; @: \9 K8 C. z) |; y$ T
◎译  名 光影传说 第一季  J* D6 c; A. d& ]1 x
◎片  名 Tales by Light Season 1
6 E# ~4 G  [. F) c◎年  代 2015
1 P+ O' T$ h: `, g! {( {◎产  地 澳大利亚
, ~& z) B" j/ R1 ]$ Z& _◎语  言 英语
" }) h1 ?& j+ X& A1 o◎上映日期 2015-05-24(澳大利亚)+ R5 p3 @+ Z- T8 P5 h! j
◎IMDb评分 8.3/10 from 1183 users# J4 h! r6 u8 u: M; i( [
◎IMDb链接 http://www.imdb.com/title/tt5350276
( y5 e& c# T. `$ d! g◎豆瓣评分 8.7/10 from 118 users
: \- T: m8 J( q◎豆瓣链接 https://movie.douban.com/subject/26927903/% J* Z) r6 @0 H/ T) n! Z& C
◎集  数 6
# d' b* r# K+ X6 U! b% @◎片  长 23分钟- l) J) G7 i* l; S
◎导  演 Abraham Joffe+ V% z( `. T  g  t* a6 Q
◎编  剧 Abraham Joffe% u2 f& K1 U1 x$ V% m
◎主  演 Art Wolfe; m6 K. ^& v) Q! O4 f
      Justin Brim3 Z( }) H" s: Z# h
      Shane Denherder, Z8 L7 d+ Q( f( O4 w6 W
5 D. w6 h! {& c0 l) C) v! `
# |5 K2 o/ Z! e. c4 [
◎标  签 纪录片 | 摄影 | Netflix | 美国 | photography | 自然 | documentary | 短片/ n9 |; A$ q' Y7 c: }

  d+ s3 U+ M# C3 m9 }; ^9 f◎简  介  
# d* O  U6 i$ Z; H
2 S- b3 K/ X3 H: _0 D  Behind every powerful image is a powerful story. Uniting exploration, photography and the natural world, Tales By Light follows photographers from Australia and around the world as they push the limits of their craft.. n7 n% b0 C$ u0 s
  1. Video2 F+ M; f. [% b( D1 w
  2. ID : 1$ c* T7 l" }, `; x- M/ E' U0 d1 s( l
  3. Format : AVC
    + X# X* d9 m1 b4 `
  4. Format/Info : Advanced Video Codec, X( g8 w  x4 K' v
  5. Format profile : [email protected]' o9 l0 |: J9 b2 t9 Z3 w
  6. Format settings : CABAC / 3 Ref Frames9 O# n) U" u4 N! ]7 v5 L  c
  7. Format settings, CABAC : Yes& s1 N- K, ^$ L) x- @
  8. Format settings, ReFrames : 3 frames4 t+ [, E  C7 K; H: A# o1 U( `, b
  9. Codec ID : V_MPEG4/ISO/AVC
    % Q6 t+ M. _9 o$ g' Z; z6 Z
  10. Duration : 24 min 10 s9 N7 H1 P( B+ P% p: u/ p; R
  11. Bit rate mode : Variable
    9 s+ S" m3 f9 W$ p& ]+ c! h; S
  12. Bit rate : 7 500 kb/s
    6 d/ E* x( i& k% D
  13. Maximum bit rate : 11.2 Mb/s
    / w$ W% m- i8 c9 ^9 o8 Q
  14. Width : 1 920 pixels) h3 O4 [1 C- M' _( S% e+ R
  15. Height : 1 080 pixels
    - n+ \) U2 [8 h1 E6 i8 a
  16. Display aspect ratio : 16:9
    1 R, Q9 m# c% v* j" }
  17. Frame rate mode : Constant
    : L6 S1 v( |4 d+ `, U4 F
  18. Frame rate : 25.000 FPS+ a  C8 i2 \9 v& ]
  19. Color space : YUV
    : a: c: ]1 v/ b
  20. Chroma subsampling : 4:2:0$ v7 g; E+ }. D0 i
  21. Bit depth : 8 bits
    8 j1 T& X7 y, v. ]+ d  g) y
  22. Scan type : Progressive3 A& l" v4 W: d& R
  23. Bits/(Pixel*Frame) : 0.145
    , v8 I1 o3 S3 ^  W
  24. Stream size : 1.24 GiB (95%)
    2 n* r5 G1 |( l
  25. Writing library : x264 core 118
    3 n8 m% B& Z* y+ M' R+ g& G
  26. Encoding settings : cabac=1 / ref=3 / deblock=1:0:0 / analyse=0x1:0x111 / me=umh / subme=10 / psy=1 / psy_rd=1.00:0.00 / mixed_ref=1 / me_range=24 / chroma_me=1 / trellis=2 / 8x8dct=0 / cqm=0 / deadzone=21,11 / fast_pskip=1 / chroma_qp_offset=-2 / threads=8 / sliced_threads=0 / nr=0 / decimate=1 / interlaced=0 / bluray_compat=0 / constrained_intra=0 / bframes=2 / b_pyramid=0 / b_adapt=2 / b_bias=0 / direct=3 / weightb=1 / open_gop=0 / weightp=2 / keyint=50 / keyint_min=26 / scenecut=0 / intra_refresh=0 / rc_lookahead=0 / rc=2pass / mbtree=1 / bitrate=7500 / ratetol=1.0 / qcomp=0.50 / qpmin=6 / qpmax=51 / qpstep=4 / cplxblur=20.0 / qblur=0.5 / vbv_maxrate=11250 / vbv_bufsize=15000 / nal_hrd=vbr / ip_ratio=1.40 / aq=1:1.00
    - w/ Y# @5 v( t6 }5 P
  27. Default : Yes; D4 `! L) J8 G3 \3 E6 \
  28. Forced : No- A1 R- B% `0 T- p/ F. m- d
  29. 6 G5 {' M7 {* n/ j! l$ S
  30. Audio& }5 k* U. C4 i; m
  31. ID : 2
    1 }, k9 ?$ k4 L  A0 M6 R
  32. Format : AC-3
    0 I! @1 r" N' f4 l
  33. Format/Info : Audio Coding 3# o% F  ~9 S2 T3 e
  34. Commercial name : Dolby Digital
    7 Q  _& E' [( K7 k
  35. Codec ID : A_AC3, \3 ?# Q9 n8 \3 ~4 X/ F( D+ B
  36. Duration : 24 min 10 s
    $ H- r9 Q; T- o8 o* L3 F* N
  37. Bit rate mode : Constant: {- n, Q& v- E6 i) x# @  d5 D7 c
  38. Bit rate : 384 kb/s& M0 z, [! Q" J! Y2 N" Q) @
  39. Channel(s) : 6 channels
    " W) l+ \( [  Z" x) c7 z0 {9 p
  40. Channel layout : L R C LFE Ls Rs  r+ ~! T# z+ ^. W- G; B! X
  41. Sampling rate : 48.0 kHz& _: h3 n( Y1 D4 V
  42. Frame rate : 31.250 FPS (1536 SPF)
    3 F$ G5 r( o0 x0 @2 J- g
  43. Bit depth : 16 bits; E6 @; X' L1 C8 j/ m
  44. Compression mode : Lossy
    % W! |) F  t+ g. t1 Z/ q' U
  45. Stream size : 66.4 MiB (5%). r+ A5 n, m$ g) @9 Q( z9 g+ C
  46. Language : English
    : Q% D& s/ E1 J8 S
  47. Service kind : Complete Main% t0 B' M' t1 }+ i& n/ o
  48. Default : Yes
    4 G/ _; Z) C% ?4 j
  49. Forced : No
    0 E: o4 p8 ?4 Q. R2 M" I
  50. 1 R$ N' b/ u! _3 d0 @6 m7 G' q
  51. Text #1
    1 U+ y: r. b+ Z0 y  e; q
  52. ID : 32 A) ?4 N# t7 X/ \2 v* ]. @
  53. Format : UTF-8  b4 Z0 f$ `; W( O
  54. Codec ID : S_TEXT/UTF8
    1 D' L" I" n8 k, H% {) S) I. p- g
  55. Codec ID/Info : UTF-8 Plain Text
    0 S3 C' z  w/ z7 A6 a
  56. Duration : 23 min 19 s( v0 i! X0 n# v7 C, f
  57. Bit rate : 77 b/s
    . b6 _7 @% ^. ]0 i, }
  58. Count of elements : 675! X4 j! m' k. E" I: [0 B% C7 F/ I
  59. Stream size : 13.3 KiB (0%)
    ! X8 v1 a4 W2 F4 G3 j
  60. Title : SDH  x. G1 N; v3 X: y# j+ t% k* x) X2 E
  61. Language : English
      ^6 j5 I9 N# ]$ j9 s! u
  62. Default : No
    ) `% R! _+ U& S( J
  63. Forced : No. ~, ^3 G+ c% n& _2 U5 J1 n! g

  64. / y! k# Z* x! y3 Y
  65. Text #2& F& _1 j5 O8 w* T5 s' X  y! }+ N
  66. ID : 4; m7 v+ I/ u/ Z6 h
  67. Format : UTF-8" D6 u( w% J3 B9 q# o
  68. Codec ID : S_TEXT/UTF8( q& I- I7 i* a0 I" O
  69. Codec ID/Info : UTF-8 Plain Text3 U+ o& s9 @) N5 ~7 D. U/ D
  70. Duration : 23 min 12 s
    . n- p: A  r6 l& G& x; K  G4 ?9 h
  71. Bit rate : 76 b/s
    ) u2 t% [* R# c7 k
  72. Count of elements : 253
    3 Z5 g* g  H7 B& v
  73. Stream size : 13.1 KiB (0%)% I6 O+ J( {3 x9 U" n2 ?* l
  74. Language : German
    ' {  r" q2 d/ F2 A9 l, c0 Y" @& C& d
  75. Default : No$ u$ h& m7 b. i( z0 e
  76. Forced : No
    2 q4 P1 b4 G: b! V2 g9 K

  77. * k( J- H5 e, j* Y* S9 A
  78. Text #3
    5 Z  W9 x" ~. f- e; h& V
  79. ID : 58 \9 ^# G& t8 B7 G- G& d5 x
  80. Format : UTF-8
    7 x" J; K( J+ x1 F
  81. Codec ID : S_TEXT/UTF8$ @; j5 b. P! b+ s
  82. Codec ID/Info : UTF-8 Plain Text
    ( v( S- W% l6 B- H
  83. Duration : 23 min 12 s
    - c$ Z# F7 t- y+ ~6 E* q
  84. Bit rate : 72 b/s
    % v! S# Z. Z; h
  85. Count of elements : 239% V; t& I% U3 p8 D" n0 ?$ |
  86. Stream size : 12.2 KiB (0%)
    $ ^; g  L1 o' b' I6 U- j, D
  87. Language : Spanish( b) y( a1 g: C& v' L
  88. Default : No
    # T5 _% ^* ~$ ?, @+ B7 G- G
  89. Forced : No
      V6 e5 o: Q8 c3 l
  90. 2 ~! r9 Y  Y9 [4 G
  91. Text #4
    " x" n- }# y+ f' u$ P
  92. ID : 6: Y/ k. s. Y3 c
  93. Format : UTF-8- H2 Y; Z  A8 D- L% u& z1 p: N5 E
  94. Codec ID : S_TEXT/UTF87 L& L. T! K# S/ H- Y
  95. Codec ID/Info : UTF-8 Plain Text
    ) s- I: P' X: z$ `* e) a% ?
  96. Duration : 23 min 12 s
    . C- e7 ^. x& B2 s
  97. Bit rate : 76 b/s
    ! _* @; |4 C* t. q) u
  98. Count of elements : 2486 l+ X  r9 `/ s! X8 R' N
  99. Stream size : 13.1 KiB (0%)
    . Z2 \9 J7 A# o/ n9 n9 E0 A. m
  100. Language : French" P' s' o& n3 o' u( t3 F3 s3 c
  101. Default : No' ?) P# E; K* X2 P. n# Q
  102. Forced : No
    9 ^- P3 d4 V) A- G1 j5 V; y
  103. / l  m, [9 F# S) U: v9 |2 l) p
  104. Text #5$ A" o5 j7 g2 f* ?7 w
  105. ID : 7. A, ~' X2 z- P7 L' z  M
  106. Format : UTF-8( \7 {3 P' z) n) u
  107. Codec ID : S_TEXT/UTF8! T7 n' q. {; c( I$ f% S
  108. Codec ID/Info : UTF-8 Plain Text
    7 ^4 j  A- X$ x$ I5 m- }8 D$ g0 I
  109. Duration : 23 min 24 s% X+ `# c6 O: U) X; U4 B& |/ ]
  110. Bit rate : 71 b/s" \8 A( f! @! d
  111. Count of elements : 2418 P: H7 J0 r6 L9 h+ M
  112. Stream size : 12.3 KiB (0%)
      Q8 s: A7 F* L$ s5 W
  113. Language : Dutch; @2 F/ s1 ~5 U6 v) n
  114. Default : No
    6 F' K' g' S9 f7 i. |4 ]
  115. Forced : No
复制代码
  e) {; h5 s! e! r
' A  ]+ ~0 m9 O; ?- i9 o

* U; R1 }! L, |7 R) t+ ^' R
  U' G$ @: [" }7 D( K# P$ s: \
. x0 z) o4 G% d& `% e; C- m! k
9 X5 C3 j9 y% n% L; g; L
游客,如果您要查看本帖隐藏内容请回复  捐助论坛可免回复查看隐藏内容 详情请点击
发表于 2018-12-31 17:10:11 | 显示全部楼层
这个应该很好看吧
您需要登录后才可以回帖 登录 | 立即注册

本版积分规则

封号公示|手机版|Archiver|有问题发邮件到admin#(换成@)hd1tj.org|微博|免责申明|HD一条街

GMT+8, 2019-1-16 15:43

快速回复 返回顶部 返回列表