HD一条街论坛

 找回密码
 立即注册
搜索
查看: 46|回复: 1

[欧美] 纪录片:毛侠[粤语 中文字幕]Paws.Men.2018.CHINESE.720p.BluRay.x264-WiKi 4.4G

[复制链接]
发表于 2018-12-24 12:16:17 | 显示全部楼层 |阅读模式

2 Y  S9 m: k: m+ b/ ?, ^! z& y                               
登录/注册后可看大图
+ I1 \* |2 ?0 k- @

. n% P  }: q3 H: _7 {1 y3 e◎译  名 毛侠 / Paws Men" `4 t' M8 m! J, {; e
◎片  名 毛俠
+ J$ M' `5 U  _/ _$ q9 I◎年  代 2018
2 F4 X! E9 p5 Z◎产  地 香港
- K( f( M& S6 L◎类  别 纪录片
2 d$ x* V. M1 \+ x( a3 \( M◎语  言 粤语
7 y% s- _2 m% X& x3 u+ u* q◎上映日期 2018-10-11(香港)' _4 ~+ W' J+ I' x7 R
◎豆瓣评分 0/10 from 0 users
" S7 U. D+ ]! x9 z* M! C: |◎豆瓣链接 https://movie.douban.com/subject/30312179/( K  F3 f- a8 q2 T
◎导  演 区焯文 Cheuk Man Au
& W& L/ ~$ o; Z# B; h◎编  剧 吕筱华 Shiu-wa Lou / 区焯文 Cheuk Man Au
+ h8 _8 g" T+ K  T% K' ]: e  A2 ~◎主  演 刘以达 Tats Lau
$ E4 Y9 T  k- w% z      陈丽云 Lai-wun Chan" m" e0 C$ J# x
      林盛斌 Shing-Ban Lam: [% z9 Q$ _. L9 Y
      陈逸宁 Yat Ning Chan
* a3 P+ m, I$ [6 g      林耀声 Yiu-Sing Lam! Z& V' o0 N) O
      陈达仁2 u& y+ z( C  F4 t7 ^) y
      安采妮
. |( Q& ]' v" p# C6 x" ]      区焯文 Cheuk Man Au
5 M5 ~- P  f6 q7 R- a      李兆麟. e0 Y6 r; [) B( P
      陆家捷9 \' s4 O/ v( k$ ]! B

1 G# ?' q8 H7 m  S% p+ |& o5 i2 _
◎标  签 香港 | 感动 | 刘以达 | 纪录片 | 温情 | 文艺 | 成长 | 励志
) [2 z& y0 n3 \) q4 E4 }$ u! o2 b
◎简  介  1 r; ?* x  a+ A- c9 I3 x* e' a

0 }( k5 @% c0 X$ _" z$ N4 B  救狗組織「毛俠」由達仁、采妮、海狗、基斯四位成員組成,無論任何時候,只要有狗隻需要救援,「毛俠」就會立刻出動,去拯救這些流浪毛孩。電影中分別以三個故事來講述「毛俠」的救狗經歷,第 一個故事為「食狗疑雲」;第二個故事為「虐狗婆婆」; 最後一個故事為「遺棄浪人」。
  N! m3 Q8 f" H& P  w2 p* [在這些故事中,「毛俠」會遇上不同的難關,為了調查 事件的真相,他們更會深入案件現場。在調查的過程中, 他們見證了一段又一人狗之間的深刻友誼,但同時慨嘆, 原來救狗最大的難度,是在於人的問題. . . . .? “
0 t" p0 y- v/ P
  1. Video
    $ T8 W1 d7 R: u9 S
  2. ID : 1
    , o# f0 y  H. R
  3. Format : AVC* I& L, P* j0 N- e: p# J6 ?3 H
  4. Format/Info : Advanced Video Codec
    6 c. R+ r/ N; b0 }8 q
  5. Format profile : [email protected]+ t6 \) G0 J! h
  6. Format settings : CABAC / 12 Ref Frames
    : Z) Y; G% Z1 `/ i; x
  7. Format settings, CABAC : Yes. t* `) b# I2 X; ^2 a1 S! |
  8. Format settings, ReFrames : 12 frames
    2 |6 ~% X% [8 y7 c
  9. Codec ID : V_MPEG4/ISO/AVC
    2 F! B9 O6 g3 ^  j
  10. Duration : 1 h 37 min
    1 Q4 L) _/ ~  v8 [
  11. Bit rate : 6 041 kb/s" h, x- u$ h9 R8 d
  12. Width : 1 280 pixels/ o, Q  m" v5 R, c6 ~
  13. Height : 544 pixels( x5 W8 M0 Y* h  N6 T" L
  14. Display aspect ratio : 2.35:1
    ' Z$ }* N& y* o; b' {* m
  15. Frame rate mode : Constant
    . n, S# \/ G& D6 `1 L( l/ ^+ p
  16. Frame rate : 25.000 FPS
    1 ~' J) U% h3 |. S$ \2 I
  17. Color space : YUV
      J2 ^5 ]) L- Z! K% B) _1 Z0 ~
  18. Chroma subsampling : 4:2:02 |3 p2 J+ q" t2 y! N% E
  19. Bit depth : 8 bits
    0 Y/ C; K# O& p0 W, J+ F
  20. Scan type : Progressive
    ( k3 `5 h2 w& }
  21. Bits/(Pixel*Frame) : 0.3475 A1 q# a: n9 O! C7 \8 _5 j
  22. Stream size : 4.10 GiB (93%)  a3 H8 |2 I' W1 }' g
  23. Writing library : x264 core 155 r2867+82 a249126 t_mod_Custom_2 [[email protected] X86_64]2 y8 t' ]$ P# `# X9 X
  24. Encoding settings : cabac=1 / ref=12 / deblock=1:-3:-3 / analyse=0x3:0x133 / me=umh / subme=10 / psy=1 / fade_compensate=0.00 / psy_rd=1.00:0.00 / mixed_ref=1 / me_range=32 / chroma_me=1 / trellis=2 / 8x8dct=1 / cqm=0 / deadzone=21,11 / fast_pskip=0 / chroma_qp_offset=-2 / threads=12 / lookahead_threads=2 / sliced_threads=0 / nr=0 / decimate=0 / interlaced=fake / bluray_compat=0 / constrained_intra=0 / fgo=0 / bframes=7 / b_pyramid=2 / b_adapt=2 / b_bias=0 / direct=3 / weightb=1 / open_gop=0 / weightp=2 / keyint=250 / keyint_min=25 / scenecut=40 / intra_refresh=0 / rc_lookahead=60 / rc=crf / mbtree=0 / crf=14.9000 / qcomp=0.65 / qpmin=0:0:0 / qpmax=69:69:69 / qpstep=4 / vbv_maxrate=62500 / vbv_bufsize=78125 / crf_max=0.0 / nal_hrd=none / filler=0 / ip_ratio=1.35 / pb_ratio=1.25 / aq=3:0.85 / aq-sensitivity=10.00 / aq-factor=1.00:1.00:1.00 / aq2=0 / aq3=00 W) t/ ]$ Y* L% R! ~" v5 g' _/ a4 t
  25. Default : Yes
    5 r& l3 K2 a1 G% e
  26. Forced : No
    ' \. N9 |% ~$ H+ a/ Z, t

  27. 7 |6 ^/ B$ O9 y. f& @
  28. Audio( U7 j' D+ L! u7 _* U+ z
  29. ID : 2
    - Q# V3 f" H2 |$ C  T  z4 P
  30. Format : AC-3
    : W9 L) H, {& t( G2 Y8 P
  31. Format/Info : Audio Coding 3/ h$ ]5 ~+ V4 i
  32. Commercial name : Dolby Digital3 [, Z! W+ `/ ^* m- s9 X# b/ ~' q
  33. Codec ID : A_AC3
    2 D* [/ O  l5 k4 N( C0 W9 g
  34. Duration : 1 h 37 min
    6 \6 D9 c( X6 U/ Y
  35. Bit rate mode : Constant
    " \3 Q4 }' A7 t4 q
  36. Bit rate : 448 kb/s
    ! C4 m9 i! T% `% S3 Q; Q: M) S' u
  37. Channel(s) : 2 channels+ U7 O! y) ^1 ]9 y$ z7 U
  38. Channel layout : L R
    2 H$ J, E# p& c* U% I% m% g$ q
  39. Sampling rate : 48.0 kHz1 |4 U( @: }/ c& q  m+ }1 S% D
  40. Frame rate : 31.250 FPS (1536 SPF)2 p  f+ v: z5 k2 j; G! |: E
  41. Bit depth : 16 bits5 L3 k/ X9 E6 k2 o# p
  42. Compression mode : Lossy% |7 G6 G* Z# |+ x3 D
  43. Stream size : 311 MiB (7%)
    0 @2 M0 }/ }7 y; o4 h. n- U. ^- z
  44. Title : Cantonese% g1 \% \( d. H, S7 R9 A
  45. Language : Chinese
    " r+ [! s( O6 n' b, E, x$ o# `
  46. Service kind : Complete Main
    4 @! |* d- [; Y3 H/ a* b6 f
  47. Default : Yes
    # a0 J9 h+ o- v! m
  48. Forced : No1 P9 J  ?! I3 e' ^' m
  49. 9 K7 H( c2 x" |8 l- T
  50. Text #1# m) n3 c  t5 C6 O! i0 Y; R1 @3 j
  51. ID : 3
    - x8 p' f- v+ s  W: D
  52. Format : UTF-8
    - T/ ?" j! m. o; T
  53. Codec ID : S_TEXT/UTF83 g0 ]% X' @# s
  54. Codec ID/Info : UTF-8 Plain Text
    , o# c* Z3 C2 N7 X3 w$ F3 u: s9 z2 Z' I
  55. Duration : 1 h 34 min  W3 A- [+ c0 S* l
  56. Bit rate : 43 b/s" Y# b) t. q- U) G: |
  57. Count of elements : 1200. ^! R3 s& j' X, H2 d$ P
  58. Stream size : 30.0 KiB (0%)
    # G( o) D" D; J! S
  59. Title : CHS2 Q5 C$ O' D# W- C7 h
  60. Language : Chinese, m( Z, f! m' _! O# K
  61. Default : No6 n8 r9 O" \" W1 q
  62. Forced : No* G8 n- @* y& I3 a
  63. ! F1 j* U9 H8 ^
  64. Text #23 Q  D" G  X! A6 R2 a* h; B) Z
  65. ID : 4' v& ?' {( U8 v$ ~$ C
  66. Format : UTF-8
    3 I7 X! r! b' {
  67. Codec ID : S_TEXT/UTF8
    ' o; j5 k$ z  @* T
  68. Codec ID/Info : UTF-8 Plain Text
      u* Q" j2 y% w
  69. Duration : 1 h 34 min/ w3 s/ f1 l- Y5 L
  70. Bit rate : 43 b/s
    . R. F1 l& G& P: s& C2 P
  71. Count of elements : 12001 L8 {0 m0 f9 p7 a, U; _
  72. Stream size : 30.0 KiB (0%)) n# \, p. M! g% x& y3 d; s
  73. Title : CHT7 c1 p9 p! k. p/ B4 X& s
  74. Language : Chinese
    $ E% D+ v# ~; J2 z& ^
  75. Default : No. z- e6 ]4 \- b% y, p0 b$ T6 Z
  76. Forced : No- _9 M% I8 l4 G/ ^

  77. % {2 }- V5 p  q" r
  78. Menu
    $ ]; s% |7 W" a/ h6 P
  79. 00:00:00.000 : en:00:00:00.000
    : c2 k# F5 G9 A2 a: k' c
  80. 00:09:00.960 : en:00:09:00.960
    2 c: x8 \8 K$ M
  81. 00:16:59.800 : en:00:16:59.800
    5 ]: B' |2 w6 K- W6 l2 _: o
  82. 00:22:52.800 : en:00:22:52.800; x  j" d( @! g* Z$ C. e. h
  83. 00:32:19.400 : en:00:32:19.400
    ' o. h6 e/ x; D+ S
  84. 00:41:08.320 : en:00:41:08.320
    % K5 c4 J6 G( m. t. d) o
  85. 00:47:55.840 : en:00:47:55.840
    : S- D5 d% c! z" c
  86. 00:57:02.840 : en:00:57:02.840% `( V6 D8 l2 n! s4 M
  87. 01:03:15.400 : en:01:03:15.400
    3 G. [3 ?3 ]. w
  88. 01:12:26.600 : en:01:12:26.600( p* h- Q/ C7 m& s9 ~7 y" p% [
  89. 01:20:34.040 : en:01:20:34.040; E5 D6 s$ i) T# r$ K; X" x; ]
  90. 01:29:22.000 : en:01:29:22.000
复制代码
, t% K4 j1 Q) Q8 ]

" r+ b) t' u+ O+ c9 C" m% t! E* S+ {; A% M+ i3 }4 _

2 T0 J5 x' I$ {# V5 U; I0 K9 p2 \9 t
游客,如果您要查看本帖隐藏内容请回复  捐助论坛可免回复查看隐藏内容 详情请点击
发表于 2018-12-24 14:19:02 | 显示全部楼层
2018最新纪录片,应该不错
您需要登录后才可以回帖 登录 | 立即注册

本版积分规则

封号公示|手机版|Archiver|有问题发邮件到admin#(换成@)hd1tj.org|微博|免责申明|HD一条街

GMT+8, 2019-1-16 15:59

快速回复 返回顶部 返回列表