HD一条街论坛

 找回密码
 立即注册
搜索
查看: 526|回复: 11

[欧美] 纪录片:梦想之大:构建我们的世界[自带简繁中文字幕]Dream.Big.Engineering.Our.World.2017.1080p.NF.WEBRip.DD5.1.x264-monkee 2.22G

[复制链接]
发表于 2018-7-9 22:39:54 | 显示全部楼层 |阅读模式

8 L& T- K- \% |4 N                               
登录/注册后可看大图

& H5 {% R/ I- n* T# ^- u, \/ N2 }
◎译  名 梦想之大:构建我们的世界
4 |1 o8 e* }& i6 K% S◎片  名 Dream Big: Engineering Our World* ?8 }$ k4 F# E4 g" I3 A) a( L7 j# w
◎年  代 2017. D" f% o- m; ~
◎产  地 美国
) f+ X; b2 @8 J& }+ K◎类  别 纪录片/短片+ _( x, o% ], v) L
◎上映日期 2017-02-17(美国). Y! \5 w7 _7 r2 p
◎IMDb评分  7.5/10 from 90 users( E  U' e5 A7 U$ s; g9 v; W
◎IMDb链接  http://www.imdb.com/title/tt6484086/0 C# F$ }) [/ P2 g
◎豆瓣评分 /10 from 0 users% q! i* t0 z9 }8 p9 T
◎豆瓣链接 https://movie.douban.com/subject/27185475/
6 l! m& }* |, D9 m6 `- R; O# m◎片  长 42分钟
1 m6 Z* g* [, [( o$ A6 ?◎导  演 格雷戈·迈吉里弗雷 Greg MacGillivray& Y" M! n0 B: o9 R  T; A
◎主  演 杰夫·布里吉斯 Jeff Bridges  e0 r. P# Y1 s; R- f
      Jeff Rojo
7 N+ m( \, a3 [% S# M% ^      Christopher Studenka3 x7 v3 Q, S& R3 q

3 Z2 F# p: |8 Z( O& h+ |◎简  介* y3 I  R  D, Q2 M" y0 W
0 g$ ?) X# s5 [& ^+ z; e
  本片由奥斯卡金像奖得主杰夫·布里吉斯担任解说,是首部以工程为主题的IMAX巨幕电影,将会改变我们对于工程的认识。从古老的中国长城、世界最高的建筑到水下机器人、太阳能动力汽车和可持续发展的智慧城市,本片颂扬了所有工程奇迹背后的人类智慧,同时展现了工程师们为人类创造更美好生活的激情。
  1. Video
    7 }! P' j8 e1 T0 h1 \
  2. ID : 1) \% m$ `( Y0 T5 ?2 ]  {5 b3 U& o
  3. Format : AVC& F5 Q3 [: G& k! I
  4. Format/Info : Advanced Video Codec& p3 P+ E, q- \% o9 \' r
  5. Format profile : [email protected]
    , ~8 I3 S4 N+ W+ A9 L
  6. Format settings : CABAC / 3 Ref Frames* {* q6 t$ |5 z; k- \4 M7 {$ K& F  L
  7. Format settings, CABAC : Yes
    ) [2 g; r' g6 G& i) S. r
  8. Format settings, ReFrames : 3 frames7 ]- W' |0 ~0 n. k  g1 Z% Q3 y
  9. Codec ID : V_MPEG4/ISO/AVC
    ' k' G% f1 M- u' R7 y$ d- M: K  K
  10. Duration : 42 min 12 s1 l. x7 }3 w: J% I4 h& F2 u: Q
  11. Bit rate mode : Variable* [( n  c9 f7 ~% r) y4 M
  12. Bit rate : 7 150 kb/s
    9 s5 W; j0 O& v8 i. Z
  13. Maximum bit rate : 10.7 Mb/s8 s% S8 H' u* Z2 B7 \; V
  14. Width : 1 920 pixels
    3 ]0 Y* T0 ]- {2 \! j# Y7 a" t
  15. Height : 1 080 pixels6 H6 v2 K4 C1 Z
  16. Display aspect ratio : 16:9
    ; O# Z# i# E5 r. Q6 @* A
  17. Frame rate mode : Constant) y+ D& F* P# D; X
  18. Frame rate : 24.000 FPS, V0 ]9 ]" p6 R; N5 z5 k# |  ~; c
  19. Color space : YUV
    ; j& Y3 v& J  ~- o4 i! L
  20. Chroma subsampling : 4:2:0# d5 M+ ?5 W2 u# A2 m! S
  21. Bit depth : 8 bits
    4 L  w+ M5 U) `* a) ~6 P
  22. Scan type : Progressive- p( a4 k* R1 |8 L  v( k
  23. Bits/(Pixel*Frame) : 0.144
    5 I3 g  s5 C) e8 T
  24. Stream size : 2.10 GiB (95%)
    # i' v  R: X7 f! Q1 a& @
  25. Writing library : x264 core 148 r2715 7e75228; m" J9 a) m6 ^4 F) E' ?
  26. Encoding settings : cabac=1 / ref=3 / deblock=1:0:0 / analyse=0x1:0x111 / me=umh / subme=10 / psy=1 / psy_rd=1.00:0.00 / mixed_ref=1 / me_range=24 / chroma_me=1 / trellis=2 / 8x8dct=0 / cqm=0 / deadzone=21,11 / fast_pskip=1 / chroma_qp_offset=-2 / threads=6 / lookahead_threads=1 / sliced_threads=0 / nr=0 / decimate=1 / interlaced=0 / bluray_compat=0 / stitchable=1 / constrained_intra=0 / bframes=2 / b_pyramid=0 / b_adapt=2 / b_bias=0 / direct=3 / weightb=1 / open_gop=0 / weightp=2 / keyint=48 / keyint_min=25 / scenecut=0 / intra_refresh=0 / rc_lookahead=48 / rc=2pass / mbtree=1 / bitrate=7150 / ratetol=1.0 / qcomp=0.50 / qpmin=6 / qpmax=51 / qpstep=4 / cplxblur=20.0 / qblur=0.5 / vbv_maxrate=10725 / vbv_bufsize=14300 / nal_hrd=vbr / filler=0 / ip_ratio=1.40 / aq=1:1.00
    2 Q, Q; M+ Y& H8 O9 G& {& S
  27. Default : Yes
    ! a6 L0 z+ h$ o( p& T( V# R
  28. Forced : No8 Q$ n6 L6 H% k8 w0 e

  29. " ?2 o2 U; F4 E1 F( I: K
  30. Audio
    . i3 O, \# h8 ]# ^2 N
  31. ID : 2+ k$ p: W1 S* [  s; w$ |9 d. _2 H
  32. Format : AC-30 x$ ~! j/ A. n' m" l" A, S
  33. Format/Info : Audio Coding 3
    4 @) K( U: V7 o) q4 x: w
  34. Codec ID : A_AC39 `8 i0 Q. c$ w1 [' |3 K6 U) {8 x
  35. Duration : 42 min 13 s
    & V/ v, F" l* _# _$ C8 a
  36. Bit rate mode : Constant
    ; M, U0 e; P% n- t, x
  37. Bit rate : 384 kb/s
    : |- {( o; J2 Z$ F& E
  38. Channel(s) : 6 channels) ]# F" Y+ I! {6 R; ^- Y
  39. Channel positions : Front: L C R, Side: L R, LFE" V4 ^- _, [7 `- f. y$ X% g; ^
  40. Sampling rate : 48.0 kHz
    2 V% h5 H9 Q( U+ a
  41. Frame rate : 31.250 FPS (1536 SPF)
    + `+ Q* W: ?. }0 J  p$ V% r+ P0 m
  42. Bit depth : 16 bits
    / d; ^3 q5 ^! s! J2 N" Y2 l( s
  43. Compression mode : Lossy
    5 @# \* A& o4 j) L
  44. Stream size : 116 MiB (5%)% k8 {' {! ?; c3 l9 u' P
  45. Title : English  b# S) e+ C9 W' A$ |$ M
  46. Language : English: A  @+ T+ S$ Q7 j6 ]4 i
  47. Service kind : Complete Main
    2 E+ B9 b& Q% R: M8 d$ l% ]
  48. Default : Yes9 g. Z/ ?% K2 M  V7 V3 H5 N4 k
  49. Forced : No& c: F) C8 e: A. n
  50.   [; ^: w, w( l
  51. Text #10 B7 p1 o$ k* F/ [5 v' b- R9 m  t
  52. ID : 3% h5 ~1 T# j6 t2 Q3 p
  53. Format : UTF-8
    - G! R7 [8 I# G/ O- Z9 C( t" Q
  54. Codec ID : S_TEXT/UTF8/ q- {; t6 c, S
  55. Codec ID/Info : UTF-8 Plain Text2 h+ \. R+ N8 ^* S
  56. Duration : 40 min 53 s
      _) R$ j+ O1 t8 @8 ?; {
  57. Bit rate : 62 b/s
    8 a4 S5 M& }9 G/ u% c: x' r/ U$ j3 ]& Z/ ~
  58. Count of elements : 420- S$ a5 f0 b. P! S
  59. Stream size : 18.8 KiB (0%)
    ' q! W6 |- E( B& n3 `  u
  60. Language : English5 Q+ h( E" n& o/ C$ ~, Y
  61. Default : No$ [! f. A, ?. {2 `; x% q# H& ]! A+ g
  62. Forced : No8 I: p+ h" r2 X+ Z+ Y5 [/ B, b- W

  63. ( K. Z5 U0 f( }; f& W
  64. Text #27 B- `) U  F) |& ~% B2 P# \8 H
  65. ID : 4
    1 w2 Q/ L% E, u& X, n3 `/ n
  66. Format : UTF-8
    4 U) B* }' W7 ]" }
  67. Codec ID : S_TEXT/UTF88 o. j# m1 x! ?. R( [2 s* e
  68. Codec ID/Info : UTF-8 Plain Text3 J5 K; z! @. |: H
  69. Duration : 41 min 5 s
    . O* Y* \% M9 U
  70. Bit rate : 69 b/s
    , h) [  m) _! {# W  A. b5 c, x9 A9 c
  71. Count of elements : 476" ~! B1 H) U6 ^( d  f' l
  72. Stream size : 21.0 KiB (0%)
    ) m) {1 N3 {2 C. S$ |' I9 i$ i
  73. Title : SDH
    " A, Q" X" `! m: U& b8 ]3 F
  74. Language : English
    + d: M) @* T6 X+ @4 S# P; K8 G
  75. Default : No
    9 |3 D4 r8 |6 Z  A
  76. Forced : No, I! U: B! R4 H- A
  77. & L" w. m8 [. L+ g8 L
  78. Text #3
    ( O- p. S5 j: p8 j8 `/ R1 m  \5 }, Y/ ]
  79. ID : 5& I1 @; H- u1 G# R, B) [0 j7 ?4 a
  80. Format : UTF-87 l3 Q/ d; r! z, G8 X
  81. Codec ID : S_TEXT/UTF8
    4 A! C5 i: S) c5 y  Z8 J0 K+ w
  82. Codec ID/Info : UTF-8 Plain Text
      L8 Y' G. |- y  T/ s7 a
  83. Duration : 40 min 53 s, Z' q# n8 H' E# O8 i  c( e# V
  84. Bit rate : 102 b/s
    6 @4 `7 v# K' Y- @8 q3 Z% `
  85. Count of elements : 511
    ' F) X) O; ]4 X6 c  v
  86. Stream size : 30.5 KiB (0%)- d' J. h) H' c* s! s* O+ ~9 W8 I
  87. Language : Arabic
    , r, L1 ?' `6 P2 c5 i) \2 G
  88. Default : No/ x5 h# F4 x! J" f. X! r
  89. Forced : No
    1 u* {) I4 x& i+ ~+ P( O( I
  90. 3 w8 d+ j/ N. F* C1 p) v
  91. Text #43 N, b, q# a2 V% Y
  92. ID : 6
    6 F/ l/ L. I! T9 p, N+ _$ [; e
  93. Format : UTF-8
    2 g; j. B# o- s6 d5 n' }) d
  94. Codec ID : S_TEXT/UTF8
    " A* A  m3 ^2 Y- r
  95. Codec ID/Info : UTF-8 Plain Text2 \) s4 W2 C. p1 u$ [* o; l9 H% e
  96. Duration : 40 min 48 s
    ; c* N' W5 U1 |- {% w4 Q( D
  97. Bit rate : 106 b/s$ J& t6 y' b- d# y4 y% h
  98. Count of elements : 419
    9 s) z& r7 Q' W$ r
  99. Stream size : 32.0 KiB (0%), u2 ?) V3 k& L6 g5 f( H
  100. Language : Bulgarian
    ; {) E* ?# U$ v& J
  101. Default : No$ a% t8 p, a; C0 P
  102. Forced : No5 d/ s2 k$ L7 V# r9 V, i% C+ b

  103. * ?0 q- n+ y6 c# F7 y
  104. Text #5
    6 `6 S+ p5 k$ U
  105. ID : 7
    2 k* L6 p! ~. f$ W3 b4 j
  106. Format : UTF-8' T3 J! f4 j2 U/ y  T! ^0 s4 V
  107. Codec ID : S_TEXT/UTF8% \! ^* P3 H  S6 }# _7 k
  108. Codec ID/Info : UTF-8 Plain Text
    7 V5 L& T. m8 f
  109. Duration : 40 min 53 s
    2 S0 U7 L( r+ ~0 H, H
  110. Bit rate : 52 b/s
    5 j- m* t4 e% f7 h4 {# G
  111. Count of elements : 423- N! I$ O+ Y5 R" _
  112. Stream size : 15.8 KiB (0%)
    * k% K6 a8 e2 j' ?$ ?) z9 C
  113. Language : Danish
    # ~, o' ^( p7 g7 _: ?; b4 a
  114. Default : No
    $ h1 |# z- V9 T- B" S
  115. Forced : No8 p% p( U0 ~0 p% {! n
  116. ! S! u3 H/ W) Z/ W
  117. Text #6  y0 s6 Q) h4 v  s. T
  118. ID : 8$ c! C3 O( o7 U: B! o* q; T) l% `
  119. Format : UTF-85 ?5 p9 H7 R' n' i" N
  120. Codec ID : S_TEXT/UTF8
    2 D( `$ J9 S0 R0 [- |/ b) ~
  121. Codec ID/Info : UTF-8 Plain Text2 [! I# [8 k3 V, y* I. l
  122. Duration : 40 min 53 s
    7 }: J. Y3 @8 L
  123. Bit rate : 57 b/s
    * J* }4 y' H3 @( C4 d: l' ^. s
  124. Count of elements : 4344 q# Q+ Y  q( _) W/ H# `( d
  125. Stream size : 17.3 KiB (0%)
    . Z  w. n+ T# m0 a7 ^
  126. Language : German) ?# u8 v5 H" u% Z0 N3 t% [
  127. Default : No
    & Y% G8 c8 ~4 I3 j0 |
  128. Forced : No
    4 |, q5 r6 z6 {9 d' {

  129. 6 {+ X; y2 }* z  Z7 q( e6 N
  130. Text #7: P/ k1 ~8 M% N7 ?9 p
  131. ID : 98 s9 ?/ ]4 u) o- f  [  G
  132. Format : UTF-8
    6 O2 w& d% S& f2 c/ r4 {: U
  133. Codec ID : S_TEXT/UTF8+ Q9 ?' a3 V2 q5 U- S' F$ V1 l
  134. Codec ID/Info : UTF-8 Plain Text4 p) g! \, o# C- I2 K' c! ^
  135. Duration : 40 min 53 s7 E  Q0 G$ Y, y( l) [# [
  136. Bit rate : 102 b/s1 ^9 s3 t* a$ D% T- I
  137. Count of elements : 432/ F, p" X* r* _! Y1 `* L& c
  138. Stream size : 30.6 KiB (0%)
    . W- }2 S# ]) ^) U# q( K) s# ?
  139. Language : Greek
    & U. L3 U. d0 {
  140. Default : No
    8 k% V& W" z3 F7 D% c9 ]
  141. Forced : No- j) e3 o3 Z. P# H  Y
  142. 7 [0 k: \0 d% ^) q$ W8 W
  143. Text #8
    * \# h: @' S& A4 D5 G' W" `
  144. ID : 101 Z4 N. i, ]# @6 \9 T
  145. Format : UTF-8
    3 u' L' x% Z: O  Q
  146. Codec ID : S_TEXT/UTF8
    ( x( }8 v! N3 L- {
  147. Codec ID/Info : UTF-8 Plain Text
    & s9 [, J/ ^0 |
  148. Duration : 40 min 53 s
    ! l" s8 a" h" q. S
  149. Bit rate : 66 b/s3 Q2 c2 ]' P" p( N; n5 ?$ k1 Y0 m: J
  150. Count of elements : 427
    ' `% m, ~' Q# G5 ^
  151. Stream size : 20.0 KiB (0%)* z9 A5 O' I" B2 i! v
  152. Language : Spanish
    ; r# e9 L% V# u/ @( T- O
  153. Default : No
    " V2 t# V7 k0 \
  154. Forced : No) e0 C' j5 h5 K1 z

  155. + Q  }  p! n/ p, S/ r
  156. Text #9% q: `" @5 [! d3 E
  157. ID : 11
    6 g1 E; B2 d& ?
  158. Format : UTF-8
    3 m/ O9 m! E; J' ^$ G; w( @
  159. Codec ID : S_TEXT/UTF81 }0 O6 i+ b5 X0 T' d
  160. Codec ID/Info : UTF-8 Plain Text
    # X- A  B% E$ J. }1 X7 z
  161. Duration : 40 min 53 s
    ) E! K9 F0 Z- |4 J
  162. Bit rate : 66 b/s* q- t. J7 O) [
  163. Count of elements : 4344 E( Q( T' D8 n8 t' s7 u
  164. Stream size : 20.0 KiB (0%)
    " H1 ?; V2 P3 E5 l' z, J3 c- c
  165. Title : European# [. f3 B+ q1 {, [0 f  E6 I  f
  166. Language : Spanish
    & G; f, }6 c3 Q  A) \
  167. Default : No
    / i0 @  s0 `/ E  J4 P3 @
  168. Forced : No
    # A* P+ X0 i* _: s0 K/ b

  169. 8 f; o, t  H1 c! m1 Q
  170. Text #10/ K8 J' y* a, r' Z1 c
  171. ID : 12. F; e! A+ L: _6 y
  172. Format : UTF-83 y: H, s/ \+ u2 S
  173. Codec ID : S_TEXT/UTF8& r& R& `0 e5 H* |' M
  174. Codec ID/Info : UTF-8 Plain Text
    . e3 N! X& |9 [$ z
  175. Duration : 40 min 53 s
    1 \4 i6 h6 w# v* X
  176. Bit rate : 53 b/s  U0 P/ z! Q( J
  177. Count of elements : 426
    * R4 o- W/ \- ^6 d. j, o
  178. Stream size : 16.1 KiB (0%)! ~3 K/ `8 Q7 i7 D/ H: S; J# I) ?; j
  179. Language : Finnish4 d: y; {$ W7 B3 L
  180. Default : No
    ( A% p. ?8 V5 t7 r5 e8 \; d
  181. Forced : No
    & [' t. b0 C. K! t6 g9 G3 M( S
  182. ' T% i) J2 T5 l' H0 \; |
  183. Text #11( b  _& X' ]9 H2 f1 f  C# A4 X3 p# a
  184. ID : 13" @6 Q/ Y8 i8 Y# ^1 P. |2 \5 D
  185. Format : UTF-89 @; S4 @. N+ ^" J, k9 `* b- X: J
  186. Codec ID : S_TEXT/UTF8
    # R" h7 S" o2 Q" h1 {
  187. Codec ID/Info : UTF-8 Plain Text0 A, I8 P: h% c% D
  188. Duration : 40 min 53 s
      U* I4 K9 G+ V' H* L+ T
  189. Bit rate : 57 b/s
    - T9 W9 D: r: T$ O: K& Q! d; ]
  190. Count of elements : 428! ]  X$ W+ Y: n  l
  191. Stream size : 17.3 KiB (0%)# ?3 Q# A3 {" j* [2 g/ T& [
  192. Language : French& I2 s; h# [/ w1 \9 W
  193. Default : No1 N6 V; H8 w% }8 M' K+ N
  194. Forced : No' u8 `3 T/ _( {, e" U8 F- M8 v
  195. 3 H; ]2 I5 ]. K
  196. Text #12+ q& ~; v5 p3 c
  197. ID : 14
    . c: T$ B' a! X" _- Z  T+ G2 z7 S2 d1 T
  198. Format : UTF-8" m8 [5 R" E7 C' z4 D  o
  199. Codec ID : S_TEXT/UTF8+ Q5 x) d) j5 {9 e
  200. Codec ID/Info : UTF-8 Plain Text
    / v* s8 v; G6 U- ^8 I( V
  201. Duration : 40 min 53 s
    % o4 v9 g/ m3 e9 H$ M8 }, M  V
  202. Bit rate : 82 b/s
    4 b5 X: J7 j  F
  203. Count of elements : 437
    ( V9 q( y; O# K: i
  204. Stream size : 24.7 KiB (0%)
    ) d$ b2 |4 Z# |* T3 o% u  I. z
  205. Language : Hebrew7 S; `: K" F7 k2 J4 V, q
  206. Default : No) C' @% J1 P0 T7 c+ y5 X, a* x
  207. Forced : No
    + @% x% |( W4 z2 M6 |0 f( a/ _) |$ @
  208. & y, m& C# k6 _7 d) E4 C  ?
  209. Text #136 M) {. k2 {# I8 J
  210. ID : 152 u! E& v/ O6 K, s! Y
  211. Format : UTF-8
    9 `* P8 `+ E  D4 z) W; N* j, b
  212. Codec ID : S_TEXT/UTF8
    ' I# i) S0 E6 J/ n3 O. y
  213. Codec ID/Info : UTF-8 Plain Text
    , g" j$ P( g$ U; a+ |0 ^
  214. Duration : 40 min 53 s
    . D8 B( q0 y- K. E
  215. Bit rate : 69 b/s
    / w8 Q' _" x+ z
  216. Count of elements : 431
    , q7 q% X0 v. j4 C! w& P, Y& F( o
  217. Stream size : 20.7 KiB (0%)
    5 G  ]' ]' D+ X
  218. Language : Italian8 x+ x5 x1 \' r( @& _; H
  219. Default : No
    4 x* E  O7 S; e' k7 j. }, n
  220. Forced : No
    5 n! L7 M+ K; s

  221. ) o1 P0 Y1 q9 ?+ r
  222. Text #14
    - J" A  G" u+ D- e& m% |( n
  223. ID : 16
    8 a: r$ `4 M: z1 u* T
  224. Format : UTF-8
    3 l3 v. R) g) \# e3 X/ Y3 W$ Y
  225. Codec ID : S_TEXT/UTF8& t% F( o6 v, f1 E# j8 V
  226. Codec ID/Info : UTF-8 Plain Text
    ; z9 ^5 r6 N! U4 b! q% v1 ]6 _
  227. Duration : 40 min 53 s
    & k7 O" S8 z. s, o
  228. Bit rate : 55 b/s
    # ^" ]' ]1 h! c8 O
  229. Count of elements : 376
    4 a6 S5 ?9 B3 o( F  n9 r
  230. Stream size : 16.6 KiB (0%)
    ; A7 L0 w+ }7 n/ g* a% P
  231. Language : Japanese" [9 ^" T( q+ S7 j. V
  232. Default : No
    - I# o9 ?. Y# o, u* {3 k2 g
  233. Forced : No
    3 e3 {  X  z% H5 k9 M9 Y1 e$ J9 ?

  234. 9 J% f5 h3 l1 R" e! R  f
  235. Text #15
    ) f* v( [+ }+ g0 z# ^- z" F
  236. ID : 171 `" i4 E: _* o8 {5 ^
  237. Format : UTF-8
    6 ~+ V- c* ?/ W9 s# v7 D% x  X. |
  238. Codec ID : S_TEXT/UTF8
    8 B2 R0 Z% f  {- j' C$ D1 i
  239. Codec ID/Info : UTF-8 Plain Text' U1 {( h& Z: u, Y1 ]5 S- a3 q6 R& i
  240. Duration : 40 min 53 s
    7 G3 i! i% O' s. A! R
  241. Bit rate : 61 b/s
    9 H) ~7 |7 q' ?2 z5 g# f0 _
  242. Count of elements : 440' Z$ @2 V: e! o3 s& g4 x' P9 q( m
  243. Stream size : 18.4 KiB (0%)
    . b/ |; ]4 ?/ a0 J: U, U
  244. Language : Korean' b; E, A* S; \1 @& |5 n& ^
  245. Default : No4 g- J$ C7 _2 K: r) \1 O7 U+ o
  246. Forced : No8 V3 I7 S: ^2 |2 f4 M

  247. : `" C6 A$ d$ U3 H' g
  248. Text #161 E, H: X" p% Q4 E- X, S
  249. ID : 18
    & [8 i! W- P8 {8 g% w4 S
  250. Format : UTF-8
    ; W, T" ]6 Y1 g- e" s; d" d" K. U
  251. Codec ID : S_TEXT/UTF8
    ' I6 ]. u, X! o; o0 q
  252. Codec ID/Info : UTF-8 Plain Text& S# m( e( M/ E, H# s1 W- o" \
  253. Duration : 40 min 53 s! }0 z  V' G  j# J7 c6 r& ^3 }
  254. Bit rate : 50 b/s
    3 S& E" ?' M% R) m; R
  255. Count of elements : 4255 o" @# \- G  S  R9 k8 W5 g
  256. Stream size : 15.1 KiB (0%); v  o! D% `: k8 X" p: z
  257. Language : Norwegian Bokmal
    3 w. E$ {8 m. G+ R6 ~5 i
  258. Default : No
    ) s3 A3 B9 |! y9 s  c: u1 h
  259. Forced : No
    2 q# y- F( @1 Z) V% E- C4 J

  260. 9 ^# a3 G" y! {2 U" R1 A+ i
  261. Text #17
    + E6 b! a! g. g( S8 l3 y% |
  262. ID : 19) X4 C+ r. k4 u: V6 R/ ^
  263. Format : UTF-8: a& Z% q0 |0 r) [
  264. Codec ID : S_TEXT/UTF8$ d5 K. l1 i7 `" m7 m. p, ?6 J# U
  265. Codec ID/Info : UTF-8 Plain Text8 c9 @" \2 Z# E% e/ O7 G
  266. Duration : 40 min 53 s, N, f) N* p  ?( t$ W' b
  267. Bit rate : 55 b/s
    * \; I8 q5 N9 Q
  268. Count of elements : 416* X" Y" m; c' K5 \4 s
  269. Stream size : 16.5 KiB (0%)% d4 N2 D7 B% s  S0 K$ V: W- K/ V
  270. Language : Dutch6 C2 l; s3 ?: H. R& A# j
  271. Default : No  h, w1 F. c" |
  272. Forced : No
    8 s9 }; o1 [5 o" F

  273. , [" j8 u7 Y9 Q  N  O
  274. Text #18; c1 C, g# _3 R  i/ t& g( V
  275. ID : 20! k; o- Z, b# O+ a/ Z4 S5 c  x6 }5 b
  276. Format : UTF-8
    ) e6 f5 \' ?* I+ U# U" u0 R) }
  277. Codec ID : S_TEXT/UTF8/ t) e5 W* a! X
  278. Codec ID/Info : UTF-8 Plain Text
    7 e# L7 h/ ^( j
  279. Duration : 40 min 53 s
    # {  W& v  l1 }( b
  280. Bit rate : 64 b/s7 L! D3 Y" Z, k( O; u- V5 t( `5 u
  281. Count of elements : 423: _9 Y8 q0 A# L3 E2 e0 @
  282. Stream size : 19.5 KiB (0%)
    - b) w1 R/ q4 L$ g: O+ ?7 u
  283. Language : Polish$ n/ t  I0 G) Z5 ^% f9 N$ T* U5 o
  284. Default : No
    - a/ D' U3 p* P+ A9 @2 y
  285. Forced : No
    4 a" Z- Z' n6 U! `
  286. 9 K* S( W9 t1 x  b
  287. Text #19  H! {" A. e% Q: y; j6 g" Q' d
  288. ID : 21$ b# V7 @+ D9 \' q( G
  289. Format : UTF-8
    4 e: ?- X0 i) W6 E! D6 ^1 \( z( O  [
  290. Codec ID : S_TEXT/UTF8
    4 f5 e& k6 E; [! {) K
  291. Codec ID/Info : UTF-8 Plain Text
    4 p6 I  b) Q' _8 J+ ^  Z% H+ `* U
  292. Duration : 40 min 53 s
    ' X4 T! H. c8 R' H! t
  293. Bit rate : 68 b/s5 S1 U" a4 _* k$ E2 h' }' L) u
  294. Count of elements : 428
    : y' O* [& W7 h! K. n# c2 P8 j8 c
  295. Stream size : 20.5 KiB (0%)8 j& ]! N7 @, ]; o9 W
  296. Language : Portuguese
    9 H- d* c$ G: J- S5 t1 n
  297. Default : No0 v$ ^) a' X: s/ p/ A5 c
  298. Forced : No
    . b! d% e6 S$ n, |

  299. / o& p" m0 M! P4 w) ^  l) f# G% W! @
  300. Text #20
    $ J( y2 E+ Y! O. t- `7 @
  301. ID : 225 O2 }; j6 u" ?
  302. Format : UTF-8# ~) R, k; ]" E( V$ M
  303. Codec ID : S_TEXT/UTF86 E3 t$ @5 w$ t$ ?) U- M
  304. Codec ID/Info : UTF-8 Plain Text
    ' j# o+ O' N/ N" J; _* p
  305. Duration : 40 min 53 s
    % t- N" ?7 M& [
  306. Bit rate : 67 b/s4 t2 i" u1 J- \. @# O6 G
  307. Count of elements : 4269 V+ j3 Y, J! J" [; Y9 f
  308. Stream size : 20.1 KiB (0%)
    9 j8 x9 R3 S& @. q- ]( U, F
  309. Title : Brazilian
    ) J5 Y$ z) j) C4 J
  310. Language : Portuguese# p. f5 f9 n# z& ^7 J" J! w
  311. Default : No3 U  L) x( H! w! I, Y
  312. Forced : No
    1 q1 F# H4 X" j# R6 B# b. `# {, C
  313. 4 Z" u* i% n5 k& s; h
  314. Text #21; }: ]7 z6 X( l" j4 |+ n
  315. ID : 23! w0 |* f& M& \# N
  316. Format : UTF-8  n1 C$ T! p4 ]- O! o; p8 D, \  k
  317. Codec ID : S_TEXT/UTF8
    " [3 U" f6 f) n0 y7 @: [
  318. Codec ID/Info : UTF-8 Plain Text
      Q! N" P% b+ J) A! {" m% U6 L
  319. Duration : 40 min 53 s
    0 ~! W$ k5 J$ k- [; ~' R
  320. Bit rate : 66 b/s; x& v3 T1 c; p7 q/ V! U) K8 C
  321. Count of elements : 431
    ( a. r- z" ^5 u+ m$ y
  322. Stream size : 19.9 KiB (0%)
    1 g5 o% t* k8 o! ^' x# o
  323. Language : Romanian. ^! q) @7 X% ?  ^2 W/ n6 g" \/ F
  324. Default : No2 ], u. n: x* ^& E) f0 M
  325. Forced : No' }: U/ b) E8 P' a" z

  326.   m  Q# c- B7 Q3 `! |9 }5 a6 t
  327. Text #22
    / B1 T$ L; L8 |! D6 r. o) A
  328. ID : 24
    ( u% |+ g; [' n
  329. Format : UTF-83 E/ Y5 h/ Z1 q* L0 R1 Q: o! R
  330. Codec ID : S_TEXT/UTF82 Q1 N0 ~) y) O
  331. Codec ID/Info : UTF-8 Plain Text$ g2 V5 V3 u, V' n1 ?3 E
  332. Duration : 40 min 53 s
    3 D# _# J5 k4 `( ?0 p6 P8 X; x6 U
  333. Bit rate : 63 b/s
    $ m! R9 f( l6 P8 ]3 s. ]: B: C# \6 ?2 ^4 ]+ M
  334. Count of elements : 425
    % z& W2 m5 d- v) r+ K9 M  E; M8 ^
  335. Stream size : 19.1 KiB (0%)& Z+ t1 b, I$ M0 v* j8 }8 j$ [
  336. Language : Swedish( {$ m# A+ N: e9 W0 n9 k- y
  337. Default : No
    ) x' Y0 Z+ ~( W. `3 u
  338. Forced : No, ^1 H- I% E+ J
  339. " V6 }, H4 V: z- t4 x& G7 u
  340. Text #23
    " ]" ^: x0 @8 U# j" w" s
  341. ID : 25* }4 x( |: x7 S
  342. Format : UTF-86 [8 K' W, o$ k1 ?
  343. Codec ID : S_TEXT/UTF8" R5 W) i. P) I1 y: W
  344. Codec ID/Info : UTF-8 Plain Text( q( \- @  d8 A* L0 x
  345. Duration : 40 min 52 s, [" y: S& Y9 F' k1 U
  346. Bit rate : 153 b/s2 b3 C3 O+ u. _' z
  347. Count of elements : 523+ T& x5 L1 N' F' A) |' E3 N( b& e, Y
  348. Stream size : 45.9 KiB (0%)1 l* A, A) V% ]+ M+ N; S
  349. Language : Thai
    7 T  F% S9 u: p# U3 w
  350. Default : No; O$ z0 c9 z& X5 d0 S
  351. Forced : No
    5 f1 g0 H$ z5 y. D7 [

  352. 0 `- S1 _2 Z1 c  y1 z3 G# `
  353. Text #24
    8 H2 b0 \+ L  V& e2 Z, Q
  354. ID : 26+ R- }3 m2 C' g$ z
  355. Format : UTF-8, K& i) O' ]! P
  356. Codec ID : S_TEXT/UTF8( h( U. X# T0 k4 f
  357. Codec ID/Info : UTF-8 Plain Text* c. {: _/ v: z+ E
  358. Duration : 40 min 53 s, r1 ^1 g# a3 Y' I/ I
  359. Bit rate : 68 b/s
    8 K& ~0 M) \2 r- M6 l
  360. Count of elements : 430. m7 T" t$ k! V0 c
  361. Stream size : 20.5 KiB (0%)
    ' z) a5 D# R- r$ u9 E
  362. Language : Turkish
    5 R  U! ~/ u# J. G: U
  363. Default : No
    ' n) P! P7 n) q2 P# c  a2 ?
  364. Forced : No- |" p% v. P2 O- d# V
  365. : K. o+ x6 [4 j' E# @
  366. Text #25
    # Y6 g5 [8 ^  c! h$ F& [
  367. ID : 27
    % a1 @8 R1 G, ]0 o$ d: E4 w
  368. Format : UTF-8& L( ~  T4 T1 F: B5 b$ W
  369. Codec ID : S_TEXT/UTF89 X$ f1 c1 b0 }3 z( G5 c
  370. Codec ID/Info : UTF-8 Plain Text
    $ H3 C; z+ h& U4 x+ m! a
  371. Duration : 40 min 53 s
    - V$ [+ t( D# P5 e
  372. Bit rate : 46 b/s
    4 [  E* w4 r# c- ^* h' p
  373. Count of elements : 4344 X% ^4 Q1 Z0 d1 j. l
  374. Stream size : 13.9 KiB (0%)) I6 m! q. R$ W1 ]" v( |; c! K
  375. Title : Simplified
    4 h3 m+ i  R' M2 \
  376. Language : Chinese
    ; ^1 G2 s7 a% h8 I8 J3 I( }
  377. Default : No
    ) I6 n  ?! l# F! U7 s
  378. Forced : No' m+ b8 Z  I% ]5 q
  379. 5 t- g" r- [& V# J' |# V
  380. Text #26
    , E$ e' ?# K! b' G! e" H
  381. ID : 28
    % c: K( @7 e7 W6 C% E2 U, b4 v& l' o
  382. Format : UTF-8
    / c  t7 c% C1 i5 _) M; F
  383. Codec ID : S_TEXT/UTF8
    - _+ z& U) P; E- J0 C4 b" F
  384. Codec ID/Info : UTF-8 Plain Text/ e" {4 P6 ]* h9 y6 M- N
  385. Duration : 40 min 53 s( j3 D+ n1 J& r- ^6 e7 b/ w
  386. Bit rate : 47 b/s
    ; @; L2 b/ s0 L9 p0 Q
  387. Count of elements : 429
    6 ]; _, O# {# a0 @
  388. Stream size : 14.2 KiB (0%)
    / R& p9 C) U5 B9 t/ q+ R: G
  389. Title : Traditional
    ) H/ \* a* O/ ?
  390. Language : Chinese4 R% T5 g& R% Q1 C  G5 A" @
  391. Default : No
    6 M$ {( d5 r0 e' D* P* b
  392. Forced : No
复制代码

, E; f) A, d0 {2 f) t% P: O" f! N" \

/ a$ U  V8 l! ^5 M1 K3 X) G' o5 l3 \  i9 S2 `( @' R+ }  l, d3 n0 ~+ r2 ?

- k) v$ [8 @0 h8 d' Y* ?3 A
' ]& @: c7 ^6 t; A/ a4 s
游客,如果您要查看本帖隐藏内容请回复  捐助论坛可免回复查看隐藏内容 详情请点击
发表于 2018-7-10 00:07:33 | 显示全部楼层
难得的IMAX纪录片
发表于 2018-7-10 08:39:26 | 显示全部楼层
再先進的科技,人的道德卻倒退,悲哀啊
发表于 2018-7-10 11:45:36 | 显示全部楼层
终于有不错的纪录片了
发表于 2018-7-15 01:11:16 | 显示全部楼层
这个必须下载
发表于 2018-7-17 18:07:10 | 显示全部楼层
这个必须下载5 F) R: U' n8 M
发表于 2018-7-30 20:59:39 | 显示全部楼层
辛苦晒!多謝分享!......
发表于 2018-8-10 02:15:39 | 显示全部楼层
感谢楼主分享
发表于 2018-8-22 20:56:41 | 显示全部楼层
谢谢分享资源
发表于 2018-9-25 08:59:58 | 显示全部楼层
这个一定要下载
您需要登录后才可以回帖 登录 | 立即注册

本版积分规则

封号公示|手机版|Archiver|有问题发邮件到admin#(换成@)hd1tj.org|微博|免责申明|HD一条街

GMT+8, 2019-2-22 08:17

快速回复 返回顶部 返回列表