HD一条街论坛

 找回密码
 立即注册
搜索
查看: 306|回复: 11

[欧美] 纪录片:梦想之大:构建我们的世界[自带简繁中文字幕]Dream.Big.Engineering.Our.World.2017.1080p.NF.WEBRip.DD5.1.x264-monkee 2.22G

[复制链接]
发表于 2018-7-9 22:39:54 | 显示全部楼层 |阅读模式

8 ?2 m9 {& T# `9 Q9 x! j# m1 \                               
登录/注册后可看大图

; B- R/ b6 X, c7 T6 S8 s. m; T, R( N- I$ Z, C8 F8 K
◎译  名 梦想之大:构建我们的世界2 G7 j+ o! I( H- K, `) o
◎片  名 Dream Big: Engineering Our World
5 R, M8 A: L3 ~◎年  代 2017( _% u, g3 D% B6 q, k
◎产  地 美国5 ~5 f8 p  v# ?/ Q3 d4 m
◎类  别 纪录片/短片
* p$ ^* [3 Q0 {8 |. L$ Q◎上映日期 2017-02-17(美国)
$ S/ R- M$ t, V2 r0 K# l( I) L◎IMDb评分  7.5/10 from 90 users
" L4 h+ i, m9 T& w# I◎IMDb链接  http://www.imdb.com/title/tt6484086/
1 h% B" ]" ?2 B$ I! R' S◎豆瓣评分 /10 from 0 users
& Q0 \0 k5 `4 x9 G! C# P) Z◎豆瓣链接 https://movie.douban.com/subject/27185475/
5 k: l; w' J, \$ d4 j/ h◎片  长 42分钟
, Z- k0 Q* |4 n◎导  演 格雷戈·迈吉里弗雷 Greg MacGillivray
" P9 N8 \/ l( X* [" M◎主  演 杰夫·布里吉斯 Jeff Bridges0 v5 Z7 S% c# I6 a" c" u( P  a
      Jeff Rojo* t0 c0 a+ P5 a& }8 U! G/ x" r) w
      Christopher Studenka: W- \, d- g* `
7 I# r7 e3 ^1 l5 b" U
◎简  介
* d) y% h. t- S( k3 r" Y  _5 H$ h' `9 F% g: M5 b( }) b8 [
  本片由奥斯卡金像奖得主杰夫·布里吉斯担任解说,是首部以工程为主题的IMAX巨幕电影,将会改变我们对于工程的认识。从古老的中国长城、世界最高的建筑到水下机器人、太阳能动力汽车和可持续发展的智慧城市,本片颂扬了所有工程奇迹背后的人类智慧,同时展现了工程师们为人类创造更美好生活的激情。
  1. Video  a( j) f. E$ i
  2. ID : 1- D7 y1 N* |! [* @
  3. Format : AVC
    1 ^, W- ?! ?4 R) b" m
  4. Format/Info : Advanced Video Codec
    / N- w  x" q/ m- H
  5. Format profile : [email protected]
    " O% ?: I. L" W7 N7 K
  6. Format settings : CABAC / 3 Ref Frames2 R3 g3 E( P( P
  7. Format settings, CABAC : Yes
    1 y; N' s4 w. S- a2 R2 e3 M& z" ^
  8. Format settings, ReFrames : 3 frames
    # ?0 g" V/ i% ]
  9. Codec ID : V_MPEG4/ISO/AVC
    5 @. N* B: j% G+ z
  10. Duration : 42 min 12 s
    + q+ `9 ], ^7 l, N
  11. Bit rate mode : Variable1 s% O$ w+ T& m
  12. Bit rate : 7 150 kb/s
    # M; q' [! X) {9 M; e# M1 V2 |* T0 O
  13. Maximum bit rate : 10.7 Mb/s6 q. v1 o; z, N) `$ K+ G7 ]
  14. Width : 1 920 pixels
    " i5 h0 x( F5 n: Z+ X% \! t9 G
  15. Height : 1 080 pixels0 C/ ^: ?# z" T' H8 S' h- K& Y
  16. Display aspect ratio : 16:9" C# n5 u/ E8 j% C( D: E  }
  17. Frame rate mode : Constant6 t# B# Q9 Z$ \. S4 W5 i, o
  18. Frame rate : 24.000 FPS
    + p7 }9 s/ S( u
  19. Color space : YUV# K* w7 q) e2 {: X" g1 [) E# B
  20. Chroma subsampling : 4:2:0
    ( U' B' ~+ ~" U/ ^$ n
  21. Bit depth : 8 bits. R- B! M  |; w2 |  ~3 {
  22. Scan type : Progressive
    7 j5 X0 e- B6 l/ @2 n
  23. Bits/(Pixel*Frame) : 0.144% f) C8 A  [7 z) u5 w
  24. Stream size : 2.10 GiB (95%)5 J6 n. _; X3 a) A+ M
  25. Writing library : x264 core 148 r2715 7e752289 K' I3 \( O2 a3 t- s  [$ B, ]
  26. Encoding settings : cabac=1 / ref=3 / deblock=1:0:0 / analyse=0x1:0x111 / me=umh / subme=10 / psy=1 / psy_rd=1.00:0.00 / mixed_ref=1 / me_range=24 / chroma_me=1 / trellis=2 / 8x8dct=0 / cqm=0 / deadzone=21,11 / fast_pskip=1 / chroma_qp_offset=-2 / threads=6 / lookahead_threads=1 / sliced_threads=0 / nr=0 / decimate=1 / interlaced=0 / bluray_compat=0 / stitchable=1 / constrained_intra=0 / bframes=2 / b_pyramid=0 / b_adapt=2 / b_bias=0 / direct=3 / weightb=1 / open_gop=0 / weightp=2 / keyint=48 / keyint_min=25 / scenecut=0 / intra_refresh=0 / rc_lookahead=48 / rc=2pass / mbtree=1 / bitrate=7150 / ratetol=1.0 / qcomp=0.50 / qpmin=6 / qpmax=51 / qpstep=4 / cplxblur=20.0 / qblur=0.5 / vbv_maxrate=10725 / vbv_bufsize=14300 / nal_hrd=vbr / filler=0 / ip_ratio=1.40 / aq=1:1.00  ], m4 A: D$ S! V/ T8 j  [
  27. Default : Yes6 s5 ^" j, e6 X4 ~
  28. Forced : No2 L) _; ^% A9 }1 c; v% i& X7 e0 B

  29. ( a7 `  t0 A: D6 U" l, \
  30. Audio1 G; ?2 S) ~" w
  31. ID : 2
    ! o- D; H  M6 {4 E: ~$ J+ ~
  32. Format : AC-3' G" c% J. j5 ~* l4 C3 a  j( `* [
  33. Format/Info : Audio Coding 3' n5 n) |6 z/ s0 C
  34. Codec ID : A_AC3
    4 d- O5 B/ u& M5 y+ L- c2 M" w- [
  35. Duration : 42 min 13 s
    " K8 x* ~0 _/ ~+ V- Z! C9 A
  36. Bit rate mode : Constant/ M1 g0 V' y* O8 H
  37. Bit rate : 384 kb/s! W/ Z8 S& Q& B5 e- d/ s
  38. Channel(s) : 6 channels
    6 Q; z) }, r: _: c) Y
  39. Channel positions : Front: L C R, Side: L R, LFE
    # S; D/ {* p3 [& ?7 B
  40. Sampling rate : 48.0 kHz# Z: B; r! n" h; X6 j" `6 S, h
  41. Frame rate : 31.250 FPS (1536 SPF)
    " ^+ p4 S# e7 ~6 S! Y4 q) j
  42. Bit depth : 16 bits
    6 v( I$ h. x" W9 _* X& A$ S
  43. Compression mode : Lossy) @  i* N* T+ r% ?9 Z
  44. Stream size : 116 MiB (5%)
    % `+ {. s( u  W- ]9 v( w
  45. Title : English
    6 T2 `" a' w0 }. e3 [
  46. Language : English0 u- N& D) _( ~3 s- v
  47. Service kind : Complete Main: ]+ i2 C: Y- Y: @( j
  48. Default : Yes
    % L! ]& y/ N) F  z& {) [2 p
  49. Forced : No
    . @) D7 [; ^6 d& f) F; p5 t3 f

  50. ; Q# a# a2 Q! K" G4 M4 `# D
  51. Text #19 W4 a1 N1 `9 ^/ c2 @
  52. ID : 3" |2 s8 \7 O3 O) v5 T# K
  53. Format : UTF-8$ X0 u( A2 s, l  R8 m  l$ f
  54. Codec ID : S_TEXT/UTF8/ T" R, D8 W+ o; H, M, C
  55. Codec ID/Info : UTF-8 Plain Text# r' S. j$ k1 ]" A5 M( _. l
  56. Duration : 40 min 53 s3 R# x  ~3 C' T! j) y/ D
  57. Bit rate : 62 b/s/ p( ]' L, |" N4 H
  58. Count of elements : 420
    - `$ W. W$ C5 a
  59. Stream size : 18.8 KiB (0%)
    3 p: W# C) c/ z$ r
  60. Language : English
    % h/ t" o  R4 X$ x% o" x6 W
  61. Default : No
    ) Z- ?6 G' E, o8 R
  62. Forced : No4 a* {" V& g/ a$ }1 g' O; F
  63. . o, L+ f' r# H7 P% w- p0 J' l
  64. Text #2
    4 N9 F5 t0 A- d/ l9 ]8 Z; _9 |4 A
  65. ID : 48 c- S, ?! l  ^. n% {' j
  66. Format : UTF-82 a* r& a0 R% e2 M/ k
  67. Codec ID : S_TEXT/UTF83 K5 e* E; F  W0 n% [
  68. Codec ID/Info : UTF-8 Plain Text
    / [+ l2 ]' C! d: b
  69. Duration : 41 min 5 s
    0 x; C4 m4 b3 O0 x
  70. Bit rate : 69 b/s
    ! i. S2 N3 z1 y. n
  71. Count of elements : 476
    5 j: D* f3 |# y8 q" Q' M' l  G
  72. Stream size : 21.0 KiB (0%)
    , w( Y/ V; D1 c3 u
  73. Title : SDH2 S) k/ E6 E4 o
  74. Language : English. J( a9 ^8 v6 |
  75. Default : No: l9 ~. L  p5 b2 t) v
  76. Forced : No
    : |8 r! M# c# w2 m$ R+ U

  77. : X3 w9 ~0 \, `, U2 R( i
  78. Text #3
    4 c8 f" b0 N/ h- D# o9 d3 F
  79. ID : 5$ V$ U2 V5 a$ k: b
  80. Format : UTF-8
    * u/ ?8 K  F( m0 v& X! ^
  81. Codec ID : S_TEXT/UTF8, [+ |; R8 B6 G4 R" ]* }
  82. Codec ID/Info : UTF-8 Plain Text  R/ I1 s; M. V: l+ I3 a0 u' L- k  ]
  83. Duration : 40 min 53 s
    . m- c4 Q" x" U# A* B! _" R! d
  84. Bit rate : 102 b/s
    ; X5 \5 e  x8 W
  85. Count of elements : 511: o: r, }5 T6 [. g
  86. Stream size : 30.5 KiB (0%)' ^! Y4 d5 t" u8 H. G
  87. Language : Arabic
    + b. E3 g2 X9 _0 T  u3 p8 Y
  88. Default : No0 N0 l4 V* `2 j; C/ h$ v
  89. Forced : No) a* q# k7 g* C, D) w

  90. 7 \& x5 w% U+ t" [
  91. Text #4
    7 O. r+ W/ O0 f& e# ^8 A
  92. ID : 6
    $ G$ G* f/ E8 X* e1 k! K
  93. Format : UTF-85 i* `2 I9 [. {6 Y
  94. Codec ID : S_TEXT/UTF8, B  H9 q# M, `
  95. Codec ID/Info : UTF-8 Plain Text/ x) ^, b  ]9 N, {; G8 U) ?; @$ p! v
  96. Duration : 40 min 48 s
    7 Q8 g; S+ U3 X, Q2 A9 H
  97. Bit rate : 106 b/s4 `9 ~" K+ N" U. C
  98. Count of elements : 4197 w- L" d. t8 D9 H5 X
  99. Stream size : 32.0 KiB (0%)
    5 D( r) `$ o0 |& N
  100. Language : Bulgarian; c% l1 E4 N: G+ D3 c0 y) I
  101. Default : No
    ( p( N6 P7 ^. m8 Q8 I% ?$ g
  102. Forced : No
    ' ]: [3 J% S2 j& @" n: v, y
  103. 1 U& _# O0 ^: f  D/ [
  104. Text #56 ^; z4 q9 K' C
  105. ID : 74 c: b1 `5 T; S
  106. Format : UTF-86 J+ U+ S: D/ M% Q+ Y3 t
  107. Codec ID : S_TEXT/UTF8
    5 s3 O! ~: q1 `/ g3 t
  108. Codec ID/Info : UTF-8 Plain Text
    % O, k: V7 Q; N2 c: O: G# ]
  109. Duration : 40 min 53 s$ D/ A/ x% g% i6 I
  110. Bit rate : 52 b/s: a" A( }1 g$ I4 y/ N  r2 E- o
  111. Count of elements : 423
    - _4 O$ L$ {3 K, l( X+ a
  112. Stream size : 15.8 KiB (0%)
    2 n* u4 J0 D# Q
  113. Language : Danish: Q- T" M. v- O3 v; b$ j% U
  114. Default : No% w- H& D* E7 \! J+ U
  115. Forced : No
    5 v/ b! d4 F+ a% z' p) J$ X  R: W

  116. ; {; u0 a6 P. H4 }. o
  117. Text #6( |) ]) M* V& v3 U- [; M% n
  118. ID : 8
    ( T# l7 p: h& N$ ?- J5 l4 O
  119. Format : UTF-8
    7 l! g9 z) g- s" l
  120. Codec ID : S_TEXT/UTF8$ ~6 S5 q+ d( w+ X4 e" N
  121. Codec ID/Info : UTF-8 Plain Text
    ; J7 C- J5 f' F+ Y! S" T  r
  122. Duration : 40 min 53 s( {4 Q+ p8 n$ Z( C" H0 `1 D
  123. Bit rate : 57 b/s
    - y; D6 m0 _. t# y. x3 Z, r0 X4 O
  124. Count of elements : 4341 x/ K; q6 Y# o/ n
  125. Stream size : 17.3 KiB (0%)
    , _5 G% w+ d% @
  126. Language : German
    2 ~9 x' ^; u  b4 M  l
  127. Default : No* [0 e7 L' y9 e: ?0 O
  128. Forced : No
    9 o, |. x) q$ J  H

  129. 1 N$ }3 ?7 G* A: C' U( {5 I
  130. Text #7: [! O6 t8 v+ V$ L0 @6 D
  131. ID : 9
    ( `* y$ s2 k  U9 \& B5 P, u/ U
  132. Format : UTF-8
    . r* g% i; P7 I3 }  \
  133. Codec ID : S_TEXT/UTF8
    ) U( u& t( Q" l0 V# c1 i, a! B; _
  134. Codec ID/Info : UTF-8 Plain Text' v/ d5 O, U7 W: m4 Y
  135. Duration : 40 min 53 s
      d7 H5 x+ D- P# u' ^! {9 @( i
  136. Bit rate : 102 b/s0 l1 t/ g  @( `8 Z% _
  137. Count of elements : 4323 r/ u5 b% T! g& c+ a
  138. Stream size : 30.6 KiB (0%)
    8 E6 w' J' s- r  H& B: S
  139. Language : Greek, p. D0 h* [9 L# c4 t$ h2 O
  140. Default : No  o5 `3 ?! G% K" o. R/ J
  141. Forced : No# U3 z% D  V: X1 ~

  142.   p8 A; r  u3 K* {* N
  143. Text #8
    4 l4 A9 [) h* ^0 e5 Q$ o* ?
  144. ID : 103 d/ T$ T4 f' v3 {2 Y2 ]1 \# Z0 U% q
  145. Format : UTF-84 S, N( E* [( c: V
  146. Codec ID : S_TEXT/UTF8
    . H! m8 q6 Q9 z4 B. E
  147. Codec ID/Info : UTF-8 Plain Text% ]' _' U8 p$ |$ d4 j) l
  148. Duration : 40 min 53 s
    $ N; m! @, ~. R: t8 u
  149. Bit rate : 66 b/s# P3 E' S5 Y- G5 K5 M$ k
  150. Count of elements : 427/ Q8 r- S3 z9 O/ f) B
  151. Stream size : 20.0 KiB (0%)+ M" J2 `( h) P
  152. Language : Spanish4 i& `$ I5 D0 Q2 t. @
  153. Default : No( P) i* g2 E% D* ^. n9 m: M
  154. Forced : No2 H  D! V! k2 m/ U, }8 A

  155.   }1 D3 g# g& }
  156. Text #9& E# S2 C# ]  G. z3 S$ p, F
  157. ID : 11* P; \1 L% V0 {8 _0 A- b* n
  158. Format : UTF-83 r! k! |+ M$ ?3 T) q
  159. Codec ID : S_TEXT/UTF8
    3 Q/ B! N$ m" T, l" [3 r9 [
  160. Codec ID/Info : UTF-8 Plain Text" z' @, x) C, w8 @) @& [& ?- j- _
  161. Duration : 40 min 53 s! U) ]# w8 t! O3 s" `" x, f$ c1 k
  162. Bit rate : 66 b/s
    ( M( N) ^# O& s0 N
  163. Count of elements : 434
    7 d1 c' H, X9 M8 Q# F; A* s* B3 B
  164. Stream size : 20.0 KiB (0%)
    , T8 {) _, ]) a8 X
  165. Title : European
    " T6 P' ]7 x% t) U* `
  166. Language : Spanish6 B! K9 {4 G  W1 Y) @
  167. Default : No4 p" Q6 ~& t8 Q& F+ l
  168. Forced : No+ g6 n* u+ K8 ]* K( X1 [
  169. + X) n( K1 M! r2 V
  170. Text #10# Q/ K& q8 E9 G! N2 Q
  171. ID : 124 r1 z: x5 C# M0 P& B
  172. Format : UTF-8( O* N6 [$ E0 y" E
  173. Codec ID : S_TEXT/UTF8
    5 ^/ q; x) ^# i% g9 s
  174. Codec ID/Info : UTF-8 Plain Text0 l: a" R2 U; F, K5 N
  175. Duration : 40 min 53 s. x2 y2 T7 Q& B
  176. Bit rate : 53 b/s9 D! i! C7 R+ J9 y  Q; w9 Y; s
  177. Count of elements : 426- J1 W; ^: K/ V1 ^
  178. Stream size : 16.1 KiB (0%)
    # u5 W8 Z; T: F2 b' v% J& S) f
  179. Language : Finnish- [% x, f5 y! {* S. u
  180. Default : No
      ]! `% D. d) C1 v
  181. Forced : No+ n6 m9 I2 c) \& R
  182. ) ]$ R0 Y' Q7 ^  _! y6 e# s8 c+ y) r
  183. Text #116 n( `# ]5 V* c8 q8 T0 W4 @" i# U
  184. ID : 13: o$ k0 n' n, W" S. o
  185. Format : UTF-88 ?( w: W% F9 i7 E
  186. Codec ID : S_TEXT/UTF8
    ; ~6 t- c0 ?& _, U$ p. a- U
  187. Codec ID/Info : UTF-8 Plain Text9 [4 q* @% ^6 c3 b  n
  188. Duration : 40 min 53 s! g4 i! |: T0 U
  189. Bit rate : 57 b/s' [8 T7 R4 s2 L1 a
  190. Count of elements : 428- P- J3 I, {# L/ Q; r, ]
  191. Stream size : 17.3 KiB (0%), v: n6 }( `: ]# d* }
  192. Language : French' w( G' H# Y7 L* b$ b
  193. Default : No
    ' d6 g5 z. ^. d, [. a
  194. Forced : No8 `/ Y% q: L$ w/ c  G4 H" d4 \2 k' H
  195. ( G7 f# a( H8 l* i2 S: b& ~6 y/ g1 _
  196. Text #12& C& N9 J9 J' R' a
  197. ID : 14" F) }, ^! j+ P* [; R& b( a
  198. Format : UTF-8! G" A1 g( f& W
  199. Codec ID : S_TEXT/UTF8+ T8 d& X7 S' ^4 i) q
  200. Codec ID/Info : UTF-8 Plain Text
    ! U3 z+ g* V' M. u) w* N
  201. Duration : 40 min 53 s
    4 z% ^8 y1 G; y3 W
  202. Bit rate : 82 b/s; U. T. A. P8 Z4 G
  203. Count of elements : 437
    / d) i& x- |6 j  T
  204. Stream size : 24.7 KiB (0%)5 K: C, A- d% z5 I% s% [
  205. Language : Hebrew4 `: D5 B2 w/ T3 G. V
  206. Default : No6 ?/ D( r  W# f: ^6 a
  207. Forced : No6 N8 }7 W) ?! L$ D, z% F

  208. ( v6 _' \( j. O/ S! h0 t
  209. Text #13, U. c; S: e9 \3 d$ q) X
  210. ID : 157 F9 W  V) Q$ j1 C; g% Z3 f- C0 J, Q
  211. Format : UTF-8
    ' |: c* I) Z6 g
  212. Codec ID : S_TEXT/UTF8% d+ T% _0 c; ^" o
  213. Codec ID/Info : UTF-8 Plain Text  o: \, g+ p! U5 t
  214. Duration : 40 min 53 s
    & b" B. I0 T9 k1 b. H
  215. Bit rate : 69 b/s
    2 M1 t; E, W7 p1 k
  216. Count of elements : 431
    8 X: A# l, U6 l/ u; c0 k/ S) V7 e
  217. Stream size : 20.7 KiB (0%)
    ! z, L( ]& a6 ]) z' l) @- r
  218. Language : Italian  n  d1 n* O! q4 Q7 G
  219. Default : No
    " L. F% t5 g- Z! s, }/ Z: b1 V
  220. Forced : No1 ]$ ]2 B3 P- B6 E! y

  221. 3 f3 i( W; M( ]
  222. Text #14, K1 N) Y. x5 n8 r, ^
  223. ID : 16
    # w, U/ ]; J9 A& X
  224. Format : UTF-8
    ! R' ^+ l1 W1 J) g
  225. Codec ID : S_TEXT/UTF8
    : S3 q3 W2 a% z4 f2 Z
  226. Codec ID/Info : UTF-8 Plain Text
    ) e, Q. O1 t6 f$ Z6 B- D/ x
  227. Duration : 40 min 53 s
    9 a( q2 Z3 A0 Z3 G: ]8 a
  228. Bit rate : 55 b/s% z# E6 |6 I8 g0 l' Z" I* e8 ?% ^
  229. Count of elements : 376) ~1 m. x1 \- }7 _
  230. Stream size : 16.6 KiB (0%)- Y" E& P4 F% N
  231. Language : Japanese6 G5 m8 S8 @9 |( S4 U; o
  232. Default : No
    ! o/ A/ L/ H; m0 L
  233. Forced : No
    $ H* C7 T$ v* D; e! S- I
  234. $ s: g8 u* p, @4 y( o+ m
  235. Text #15
    " c8 Q/ j/ a2 d+ p" B
  236. ID : 17% a9 i5 s' c4 k7 P
  237. Format : UTF-8
    3 z2 V; J$ ?, y
  238. Codec ID : S_TEXT/UTF8
    $ q3 P9 Z( {" h! y% Z# v" z
  239. Codec ID/Info : UTF-8 Plain Text; t8 o9 V- B1 ]9 s; p1 d
  240. Duration : 40 min 53 s
    * V+ b# H2 ^, W) T
  241. Bit rate : 61 b/s
    6 W% g3 Y$ i! v- P0 j& G
  242. Count of elements : 440
    3 p8 M& G5 v) D" f/ b( R
  243. Stream size : 18.4 KiB (0%)
    6 B" H  g! g7 V, [0 B
  244. Language : Korean
    * A) Z" l+ O) Y! a. s- ~
  245. Default : No
    ) Y+ r; I3 h6 c  Q
  246. Forced : No
    ) ]  P6 x9 D  j- Q3 ^9 p
  247. % \& e& I1 D; e7 b
  248. Text #16& _( h, O4 V# n& T- d
  249. ID : 18
    " d, ]" }6 p1 _7 n- F% W
  250. Format : UTF-8, w/ A/ g- t1 T+ D( w! }& p) D0 Y, T
  251. Codec ID : S_TEXT/UTF8" l4 W0 x( o0 t* V7 o6 l
  252. Codec ID/Info : UTF-8 Plain Text
    , U& J4 ?" B0 q* ^' Z
  253. Duration : 40 min 53 s* o- ^3 _. C# O7 Y8 x* r
  254. Bit rate : 50 b/s
    3 {) C1 O5 E3 r8 {. t: Q; b
  255. Count of elements : 4253 P9 [1 y' G8 r+ X6 T
  256. Stream size : 15.1 KiB (0%)) X: N9 i2 h( b6 {
  257. Language : Norwegian Bokmal
    7 k2 e9 ~, h) L0 n
  258. Default : No
    0 e, v# b8 ]1 e
  259. Forced : No
    : O; ~( j5 X" s4 \% Q, y5 x2 P

  260.   b* w! L. C) Q3 f
  261. Text #17
    $ g# Z1 M4 S" m, O- C( M
  262. ID : 19
    - t8 ?5 Q7 \  h4 D+ c& c0 f
  263. Format : UTF-8
    " Q: A# h9 `# s. s
  264. Codec ID : S_TEXT/UTF8
    5 C) p, g2 s4 D& v1 W5 G" _
  265. Codec ID/Info : UTF-8 Plain Text
    6 d6 S* u  l  X. k+ j$ m
  266. Duration : 40 min 53 s
    9 a' k. e1 O* k, \+ O6 l1 Q' Q2 T
  267. Bit rate : 55 b/s
    , n( i: P; o* r
  268. Count of elements : 416
    8 ?5 l- |; H1 a0 [
  269. Stream size : 16.5 KiB (0%)4 K, n8 |9 ?( s; t" O
  270. Language : Dutch( H3 T: w/ U0 J' `( N! U: q$ `1 O
  271. Default : No
    * x. ]7 x! t6 n4 Z' s6 V
  272. Forced : No
    ' f% M& `: ~2 R7 B+ w7 J6 d& n' w

  273. ) D! t. R0 v! |) T$ o
  274. Text #18
    9 p% i' G" x: |5 K. f) K9 y
  275. ID : 20
    2 |+ g6 P) {3 {, K. f
  276. Format : UTF-8
    % B9 K! _* q& b# z6 B) @% ~8 V
  277. Codec ID : S_TEXT/UTF8
    ' Z6 ~( u9 G9 L, w* g
  278. Codec ID/Info : UTF-8 Plain Text3 l4 {# K- {( e7 Z2 ]$ ]% e
  279. Duration : 40 min 53 s, S8 x& u, r7 ^1 c
  280. Bit rate : 64 b/s, m+ k- r- K% M- O2 X( S" Z
  281. Count of elements : 423
    5 x. g4 X, q- i2 D
  282. Stream size : 19.5 KiB (0%)0 i& l' y! F! t( G# r4 |! `
  283. Language : Polish' `7 A+ `! d0 J: s9 N
  284. Default : No# y6 W- q! m2 i' y9 C$ P, n* t
  285. Forced : No
    ' `+ ?# k6 \4 I* d2 r
  286. & |8 c. u1 s9 E  |1 b" ^( f; s4 y
  287. Text #19
    : t! l" H9 h& Q; [9 u
  288. ID : 21+ G' W# k' d7 S
  289. Format : UTF-8
    $ y9 P  E! L# n4 ~2 F
  290. Codec ID : S_TEXT/UTF8
    , w% I" d( \" R, Y
  291. Codec ID/Info : UTF-8 Plain Text9 B/ G9 ^* ^8 q7 B, `% P# v
  292. Duration : 40 min 53 s  S- @0 j3 S6 K3 o* D* ]$ `- j9 m
  293. Bit rate : 68 b/s. L7 S3 E( t" t+ g* i6 i
  294. Count of elements : 4288 e7 t( D+ Q) ^* {, r, b
  295. Stream size : 20.5 KiB (0%)
    - Q# y  D4 S# l$ H2 r& N2 ~
  296. Language : Portuguese- J5 ?4 {- k( S
  297. Default : No
    , y- C0 ~/ Q7 @# q
  298. Forced : No
    / {3 F! v7 s7 b) b2 D

  299. " E! I0 L% Y( k
  300. Text #203 c9 O. c4 ?9 {  ~* `
  301. ID : 222 W0 t7 b/ e& D  T; E
  302. Format : UTF-8
    + ~- {# }, c( y( Z
  303. Codec ID : S_TEXT/UTF8# z6 a( T" ]4 o3 {' `6 G
  304. Codec ID/Info : UTF-8 Plain Text1 x4 C. |5 E- X
  305. Duration : 40 min 53 s& I5 I+ T8 l+ K
  306. Bit rate : 67 b/s
    / ]' M1 v& b5 O" H3 H
  307. Count of elements : 426
    % S% V- A9 y, [$ }+ Z/ _. s
  308. Stream size : 20.1 KiB (0%)7 o5 E1 a% K3 \+ c: n3 B% z
  309. Title : Brazilian; n7 I( v6 \- l7 a: ^9 Q+ c% M
  310. Language : Portuguese
    ' O0 J) n$ P7 t) ?
  311. Default : No5 h( A" X$ f# H) I% s1 m
  312. Forced : No
    ; b4 W" `7 L! K. }3 Z7 l

  313. 2 `+ @$ u5 x0 h. V& s
  314. Text #21  n5 ^# N9 ~% x4 Q. r
  315. ID : 23% Z2 c/ @, q$ x; L- m- [- e' @
  316. Format : UTF-8
    ' ^0 y( q+ o) `. A  Z
  317. Codec ID : S_TEXT/UTF8
    + R! w2 X( R" K, s( f* Q: V
  318. Codec ID/Info : UTF-8 Plain Text9 t& C4 ~" k9 t2 w: h! T
  319. Duration : 40 min 53 s
    % |  e) l. b. f' G# r- R! R$ {
  320. Bit rate : 66 b/s. [9 {2 r0 ^% I' a+ x
  321. Count of elements : 431
    9 M( E& S: l3 P- c+ b
  322. Stream size : 19.9 KiB (0%)8 D" \# \% J* N& ?
  323. Language : Romanian& g+ w& A/ |' D0 v) k
  324. Default : No
    4 }4 q. w, ?) T6 w6 |' m- H* i
  325. Forced : No
    ! i7 I3 {/ u# ]: @  p" }
  326. 4 m- D# V/ C0 C' G5 h+ t; j  r
  327. Text #22
    4 M/ J# _" c, h" ~
  328. ID : 24' T$ d+ y  Z8 D7 z$ M$ t
  329. Format : UTF-8% d$ s3 R* d0 ?; Y' ~) s4 a
  330. Codec ID : S_TEXT/UTF8* ~( J6 k$ b! _6 m
  331. Codec ID/Info : UTF-8 Plain Text& H# C" o( a4 Y4 h) W# y
  332. Duration : 40 min 53 s; q, g5 Y7 W; ]+ L
  333. Bit rate : 63 b/s$ ]2 J; i7 C2 \$ U, X
  334. Count of elements : 4256 q; {9 R+ l- V4 K- q& }7 m
  335. Stream size : 19.1 KiB (0%)5 i! J3 [2 p0 l( L3 K- _: J5 Y
  336. Language : Swedish
    ; O: s& A6 k( X2 f& X4 [- |
  337. Default : No
    ) ?7 Y" B8 ~  c% r# J5 i
  338. Forced : No1 Q1 }/ r1 _: f

  339. 4 v% s: N4 f; V
  340. Text #23
    7 Z! P8 |0 b/ O8 }8 |, Z
  341. ID : 25
    - @; D  ]2 s) c
  342. Format : UTF-88 J  j/ S  x& z; Z0 k
  343. Codec ID : S_TEXT/UTF8
    0 a5 `. x1 A5 p0 `- U9 Y$ M
  344. Codec ID/Info : UTF-8 Plain Text' X' B/ H9 }# p) G' D  O  T
  345. Duration : 40 min 52 s! |7 t3 X- u; W! X; r
  346. Bit rate : 153 b/s
    / ?: U0 ~! v$ h4 I8 U. j5 n
  347. Count of elements : 523
      {9 y9 j- e7 W5 `* w# s% p" V
  348. Stream size : 45.9 KiB (0%)/ B, Q3 p9 x& }! V) q9 L3 @  a: P  C; ]
  349. Language : Thai; i: g# k, V+ W) @# E3 J+ P
  350. Default : No
    8 X7 W' L; g) U# x+ J2 ?
  351. Forced : No* C1 i2 Y+ H/ F* ]
  352. 6 F: Q; N; g/ J! T4 G, L
  353. Text #24
    0 }. ^- c$ X" w8 s$ N
  354. ID : 26% }- a2 F# X. R( R7 w
  355. Format : UTF-8  k+ d/ z6 f$ q0 C5 P; V8 F; @9 i
  356. Codec ID : S_TEXT/UTF82 ^* s( a* B4 I/ `; {) |* F) D$ p0 A
  357. Codec ID/Info : UTF-8 Plain Text1 G" }  k3 N0 |3 h
  358. Duration : 40 min 53 s# O: A9 Y' v: w0 @) B, m1 q+ _& P
  359. Bit rate : 68 b/s& X  n: C; {( [* J& H& u3 T0 u
  360. Count of elements : 430
    ; J- x; p% d- p* A; t3 K/ x
  361. Stream size : 20.5 KiB (0%)
    6 o/ m. ?) z8 H% I9 X0 u
  362. Language : Turkish: |( ~* Z1 b1 a5 G  s' O" h; L, w
  363. Default : No
    ) _" q5 Q5 G2 f  l/ {
  364. Forced : No
    - {2 I' w7 d- k

  365. ; N# P3 r9 B3 l2 j! C6 k( s
  366. Text #25
    ! W& o" {! t, R! D0 k
  367. ID : 27  g) m7 q& R1 T3 J* h# x( w
  368. Format : UTF-8" S- n+ F4 E% l5 {/ I
  369. Codec ID : S_TEXT/UTF8, @$ G$ P& `% |+ a  n
  370. Codec ID/Info : UTF-8 Plain Text
    * B: |! _' M: T# Q. ?
  371. Duration : 40 min 53 s  m. f# K$ u$ P5 ~
  372. Bit rate : 46 b/s
    + Z+ E/ \1 D- F: h
  373. Count of elements : 434  b! l4 ?& K3 J) @$ i( e
  374. Stream size : 13.9 KiB (0%)
    8 W# d& C$ u( d, F
  375. Title : Simplified7 ?( ]" k1 c' G
  376. Language : Chinese, H* i8 ?1 O) {3 u: ~
  377. Default : No
    + x! E  s* m! ?$ Y
  378. Forced : No
    - l7 M$ ~* [. v5 e( a& o% ]$ {
  379. - I: ]: `' Q, Y5 H6 c! _% |* E
  380. Text #26
    ) @6 y+ O( I+ Z2 b! Z9 k
  381. ID : 28. K7 M8 D3 ?! f& }2 z7 ?
  382. Format : UTF-8
    1 m% j& f) C" L1 D; `5 w" V" s
  383. Codec ID : S_TEXT/UTF8
    3 w' j4 B; J) `3 Z/ f) ~2 w5 ~! Q
  384. Codec ID/Info : UTF-8 Plain Text. Q1 C4 o$ g  x: Y
  385. Duration : 40 min 53 s
    ! |$ v! g# c& G5 s" j
  386. Bit rate : 47 b/s! G5 a1 i7 W2 d. z2 J2 P. u
  387. Count of elements : 429" b$ l' |( p1 E
  388. Stream size : 14.2 KiB (0%)- d9 w. N. q1 R5 l
  389. Title : Traditional
    0 ?$ i( [( t+ i* x
  390. Language : Chinese
    5 c% E, \* P' B/ D4 ?+ e/ {2 i
  391. Default : No
    7 s. r" s- C# E( n2 Q9 ^7 n3 y
  392. Forced : No
复制代码

7 Y; G- X! ], _& ~9 ^3 F" V# C1 U) V$ |% V
% c' a9 I+ W, q) R* B4 o( ~; T. f, s
& H/ a1 `8 W- r1 [* H
2 N( e7 {. q$ D# k+ p- B
' N% t1 T0 l: w
游客,如果您要查看本帖隐藏内容请回复  捐助论坛可免回复查看隐藏内容 详情请点击
发表于 2018-7-10 00:07:33 | 显示全部楼层
难得的IMAX纪录片
发表于 2018-7-10 08:39:26 | 显示全部楼层
再先進的科技,人的道德卻倒退,悲哀啊
发表于 2018-7-10 11:45:36 | 显示全部楼层
终于有不错的纪录片了
发表于 2018-7-15 01:11:16 | 显示全部楼层
这个必须下载
发表于 2018-7-17 18:07:10 | 显示全部楼层
这个必须下载
, W! a0 f% o- U, L  k5 q
发表于 2018-7-30 20:59:39 | 显示全部楼层
辛苦晒!多謝分享!......
发表于 2018-8-10 02:15:39 | 显示全部楼层
感谢楼主分享
发表于 2018-8-22 20:56:41 | 显示全部楼层
谢谢分享资源
发表于 2018-9-25 08:59:58 | 显示全部楼层
这个一定要下载
您需要登录后才可以回帖 登录 | 立即注册

本版积分规则

封号公示|手机版|Archiver|有问题发邮件到admin#(换成@)hd1tj.org|微博|免责申明|HD一条街

GMT+8, 2018-11-18 09:48

快速回复 返回顶部 返回列表