HD一条街论坛

 找回密码
 立即注册
搜索
查看: 161|回复: 4

[1080p] 恋恋风尘 Dust.In.The.Wind.1986.1080p.BluRay.x264-LCHD 7.94G

[复制链接]
发表于 2018-7-8 13:11:53 | 显示全部楼层 |阅读模式

4 l# `$ @1 @/ F7 o; b- o+ m: A; h" b5 H" D% n
◎译  名 恋恋风尘
3 T& p$ U& @6 M9 ]◎片  名 戀戀風塵
0 S. r6 c* t' c: L+ {◎年  代 1986
( [8 w3 G6 P+ v2 X: b' \1 I◎产  地 台湾
+ h) @+ O' h& m- A5 M. H# z6 W◎类  别 剧情/爱情
( P, l7 W$ N( \◎语  言 汉语普通话/粤语/闽南语
, E. T; \2 Y+ K) {/ [$ ~  K◎上映日期 1986(台湾)/1987-09-13(多伦多电影节)/1987-10-15(香港)
. B+ t  s- W8 n% ^- t9 z◎IMDb评分  7.8/10 from 1,663 users8 x% D' \& _/ q) G; k
◎IMDb链接  http://www.imdb.com/title/tt0091406/5 `% D+ Q" [0 Z5 }; D
◎豆瓣评分 8.5/10 from 39,627 users
  I; b: G0 R1 ^. S/ i) ?4 h◎豆瓣链接 https://movie.douban.com/subject/1292330/3 B' B" N. x4 H2 r
◎片  长 109分钟0 x4 `5 I0 A, ~# Z+ C
◎导  演 侯孝贤 Hsiao-hsien Hou
4 v1 w6 ^9 m# K1 @4 g" `. k◎主  演 李天禄 Tianlu Li
* u+ Q, `8 \& n, _      辛树芬 Shufang Chen! v/ \7 k  Z) j, B  T* B7 O
      王晶文 Jingwen Wang( C" G5 G. f4 O, N* {
      柯宇纶 Yue-Lin Ko( d9 B% Y4 d5 _! v
6 D( K9 B9 J* o, |( G7 K6 `
◎简  介
" N- c. f2 V# o5 R4 I4 Y/ d) t
  初中毕业后,因家境不许,15岁的农村少年阿远(王晶文)放弃学业来台北做事,初尝人生的辛苦,却仍为自己的理想努力着。一年后,阿远青梅竹马的恋人阿云(辛树芬)也来到台北,了解到现实的台北同阿远信里所描述的,是两个世界。可是困顿的环境并没减少他们的快乐,因为他们拥有彼此。
% D9 R: B  K$ W, R2 s3 M0 O1 k  阿远服兵役时,因为有每日抵达的书信,孤身在台北的阿云起初并没感到有多孤独。然而日子久了,遥远恋人的纸上诉情总比不过现实生活中鲜活男孩的低声耳语,加上对未来怀有的恐慌,阿云在阿远退伍前选择了嫁作他人妇。伤心虽有,阿远也只能选择抑压。
  1. Video5 U, m% T0 r' b% P4 e8 i
  2. ID : 1
    : R  ~- o0 ?9 P
  3. Format : AVC
    9 o+ [# G" P+ G9 _2 R4 t. P
  4. Format/Info : Advanced Video Codec
    : j: v% ^! j, n# ^8 h$ P1 ?6 c
  5. Format profile : [email protected]* K! Y' I6 F5 @, W
  6. Format settings : CABAC / 4 Ref Frames
    . H1 z- x# x* H0 {3 T" w0 ]
  7. Format settings, CABAC : Yes
    1 `; e+ u0 F# B& R4 `
  8. Format settings, ReFrames : 4 frames$ ?6 C. O& }- L; ~4 w
  9. Codec ID : V_MPEG4/ISO/AVC3 z' t2 W7 R' V3 z6 a  l) ^4 p
  10. Duration : 1 h 50 min% ?1 g; x  g6 a" F# g
  11. Bit rate : 9 697 kb/s2 A9 }3 u; n: x/ r& x) {
  12. Width : 1 920 pixels$ G7 a- {0 ?5 o% U4 T) k% L6 e, i9 s
  13. Height : 1 080 pixels' u0 e. @- B! V- n. I! a
  14. Display aspect ratio : 16:9/ t, t3 T: o0 b: t
  15. Frame rate mode : Constant* M' L; i; B! f* \/ Z  z0 i0 V
  16. Frame rate : 23.976 (24000/1001) FPS
    : A1 M$ f9 [% J$ _
  17. Color space : YUV
    4 T5 G, Q8 g2 w, ?1 }
  18. Chroma subsampling : 4:2:0* K6 h9 @1 X0 ]! |8 f
  19. Bit depth : 8 bits. o% T+ R  O. P& v8 f' v
  20. Scan type : Progressive
    0 N  J+ l) b! G- E9 r! D" i
  21. Bits/(Pixel*Frame) : 0.195
    ! `  o. ~2 ]9 Y* b4 o
  22. Stream size : 7.29 GiB (92%)) q* k! s" B' z% h
  23. Writing library : x264 core 104 r1680 1a6fd47
    + a) \" D; _: N1 E* I" h! W0 I
  24. Encoding settings : cabac=1 / ref=4 / deblock=1:-1:-1 / analyse=0x3:0x113 / me=umh / subme=7 / psy=1 / psy_rd=1.00:0.00 / mixed_ref=1 / me_range=16 / chroma_me=1 / trellis=1 / 8x8dct=1 / cqm=0 / deadzone=21,11 / fast_pskip=1 / chroma_qp_offset=-2 / threads=12 / sliced_threads=0 / nr=0 / decimate=1 / interlaced=0 / constrained_intra=0 / bframes=3 / b_pyramid=2 / b_adapt=2 / b_bias=0 / direct=3 / weightb=1 / open_gop=0 / weightp=2 / keyint=250 / keyint_min=23 / scenecut=40 / intra_refresh=0 / rc_lookahead=40 / rc=2pass / mbtree=1 / bitrate=9697 / ratetol=1.0 / qcomp=0.60 / qpmin=10 / qpmax=51 / qpstep=4 / cplxblur=20.0 / qblur=0.5 / vbv_maxrate=50000 / vbv_bufsize=50000 / ip_ratio=1.40 / aq=1:1.00 / nal_hrd=none
    % A0 I, l6 M0 M: j. L
  25. Language : Chinese
    / j: e% U8 S/ A) W" T/ M% t& s6 i
  26. Default : Yes: `; W$ c# E" Y3 n/ j6 O$ z, g9 X
  27. Forced : Yes* |9 N& |! r5 l" k# K) O

  28. # D) f$ D& Y3 Q4 n, `
  29. Audio  e& \" q8 Q) \# B. y
  30. ID : 2
    6 s: I7 r& ^2 X; S9 Q
  31. Format : AC-33 ?) U1 a- m! m
  32. Format/Info : Audio Coding 3# d+ |# l$ U& M# [, [: j% _
  33. Codec ID : A_AC3+ |. X1 a  f5 U2 w7 c  g
  34. Duration : 1 h 50 min
    # l- d/ F' N4 e# ^/ C% F- {$ A; |
  35. Bit rate mode : Constant
    1 `2 {4 i0 l8 `$ `$ r& O0 B# N
  36. Bit rate : 640 kb/s  ?# e  v$ G9 ], D$ Z/ O; c
  37. Channel(s) : 2 channels
    1 P$ S; d! z9 j6 G4 q( J
  38. Channel positions : Front: L R$ q7 a7 ^8 J. ]. e1 L
  39. Sampling rate : 48.0 kHz. ~2 C* f4 f, J& ?* `& K: n' t% ]
  40. Frame rate : 31.250 FPS (1536 SPF)2 O* [2 K3 B( V3 o, e( o
  41. Bit depth : 16 bits
    % Z% ~: B' c8 G1 {# l! o
  42. Compression mode : Lossy  O- v7 w. H" G! Y9 o, V
  43. Stream size : 504 MiB (6%)
    2 g- v* r9 f2 t
  44. Language : Chinese
    5 c7 l- }" M' U% @- C
  45. Service kind : Complete Main
    2 ~6 m" `# ^2 t8 u
  46. Default : Yes9 U8 ?, L0 ^0 p7 N5 `, Z6 q: \$ a
  47. Forced : Yes: l& P# k* H# S! Y

  48. 6 x; `! i- H! s5 ?6 q2 Z* i/ M
  49. Text
    4 T. c. ]( @  a7 A# O' [
  50. ID : 3* z+ |0 n$ ]$ y$ L2 d- P
  51. Format : UTF-85 l( z5 }0 O! z& r+ j
  52. Codec ID : S_TEXT/UTF8
    ( A1 U) K, I: A$ D
  53. Codec ID/Info : UTF-8 Plain Text
    ' A4 s- l# y  _! L) ^( P( W! ]
  54. Language : English
    9 o7 e5 ~7 _# t; R/ {
  55. Default : Yes
    9 z4 I8 W  K! p$ ^- [) I- |
  56. Forced : No
复制代码
4 ^  W7 U  z0 Z  S# o* @. k8 q
6 f" }9 l# J- j

4 d/ n$ W( W9 p3 O
; `# e. `, j: V& _: q6 v9 E5 G- S8 q4 r: G! C/ c$ S

4 w  y& m( [. k8 m6 D
游客,如果您要查看本帖隐藏内容请回复  捐助论坛可免回复查看隐藏内容 详情请点击
发表于 2018-7-8 19:06:04 | 显示全部楼层
感谢楼主分享这么好的版本
发表于 2018-7-10 03:02:33 | 显示全部楼层
谢谢楼主分享
发表于 2018-7-11 22:39:19 | 显示全部楼层
侯孝贤导演的作品,谢谢分享
发表于 2018-8-8 16:10:35 | 显示全部楼层
侯孝賢導演的作品,感謝分享
您需要登录后才可以回帖 登录 | 立即注册

本版积分规则

封号公示|手机版|Archiver|有问题发邮件到admin#(换成@)hd1tj.org|微博|免责申明|HD一条街 |网站地图

GMT+8, 2018-9-26 03:02

快速回复 返回顶部 返回列表