HD一条街论坛

 找回密码
 立即注册
搜索
查看: 397|回复: 5

[1080p] 恋恋风尘 Dust.In.The.Wind.1986.1080p.BluRay.x264-LCHD 7.94G

[复制链接]
发表于 2018-7-8 13:11:53 | 显示全部楼层 |阅读模式
9 O: z8 S  Y9 G. w1 R. ]$ y) X  X

# m  r; `& y- g5 s1 \* w; a◎译  名 恋恋风尘
% w# c& N6 }; R◎片  名 戀戀風塵$ Y- D/ p; }+ M
◎年  代 1986
* k+ H  R3 [6 W  \◎产  地 台湾
6 p2 W8 `! D4 @; p% ^; Y9 b◎类  别 剧情/爱情- c% a1 z( X. n! ~  b" R
◎语  言 汉语普通话/粤语/闽南语
$ |6 R% ^: E7 S4 A◎上映日期 1986(台湾)/1987-09-13(多伦多电影节)/1987-10-15(香港)
4 J! r$ ?% m% B  k/ a* M; o8 y' ?◎IMDb评分  7.8/10 from 1,663 users$ G  c2 z7 d3 a/ k
◎IMDb链接  http://www.imdb.com/title/tt0091406/  r4 W. _; D; H) l: w) f: M! H
◎豆瓣评分 8.5/10 from 39,627 users
# U# z3 w+ V! x. w◎豆瓣链接 https://movie.douban.com/subject/1292330/) N2 V8 b1 h  J
◎片  长 109分钟( B5 A  @! a$ _0 |4 |
◎导  演 侯孝贤 Hsiao-hsien Hou
) g4 v: ~  u6 C/ C/ J+ f6 Q◎主  演 李天禄 Tianlu Li
$ c$ O" _# Z+ `1 N      辛树芬 Shufang Chen" B/ G6 X$ k1 U& D
      王晶文 Jingwen Wang( r# ~7 @  K; L. f7 `
      柯宇纶 Yue-Lin Ko
8 ~- A+ L3 f; w' L  z5 N! Q. R* p8 P9 l" ~9 f" U$ V8 m, h
◎简  介
& C: K% c$ d4 F! K: \3 Q/ B# m$ g6 n  G
  初中毕业后,因家境不许,15岁的农村少年阿远(王晶文)放弃学业来台北做事,初尝人生的辛苦,却仍为自己的理想努力着。一年后,阿远青梅竹马的恋人阿云(辛树芬)也来到台北,了解到现实的台北同阿远信里所描述的,是两个世界。可是困顿的环境并没减少他们的快乐,因为他们拥有彼此。
6 H6 `) [2 k9 B; P4 t  阿远服兵役时,因为有每日抵达的书信,孤身在台北的阿云起初并没感到有多孤独。然而日子久了,遥远恋人的纸上诉情总比不过现实生活中鲜活男孩的低声耳语,加上对未来怀有的恐慌,阿云在阿远退伍前选择了嫁作他人妇。伤心虽有,阿远也只能选择抑压。
  1. Video! R+ F5 n/ J* o7 ~- D; ?
  2. ID : 1$ C8 p5 o0 h+ X5 A+ @
  3. Format : AVC, C2 M- D" I7 j8 @
  4. Format/Info : Advanced Video Codec
    3 ]- m& \1 \  Q! Z
  5. Format profile : [email protected]
    : `4 P  h8 G0 T' g; n5 `
  6. Format settings : CABAC / 4 Ref Frames( ~# o' R' j4 G! X# n
  7. Format settings, CABAC : Yes
    4 o' ~* f0 ^. }; [
  8. Format settings, ReFrames : 4 frames
    . p1 A- Z; S( k1 S8 Z, ~, y' F
  9. Codec ID : V_MPEG4/ISO/AVC. e1 Q9 E9 I, w0 a3 r' z
  10. Duration : 1 h 50 min
    # v; ~7 |3 I( S2 p8 o" N' m
  11. Bit rate : 9 697 kb/s5 R: S+ V! g" C, W( Q9 v# k
  12. Width : 1 920 pixels
    % C% W! ]+ V* d. F  i! I
  13. Height : 1 080 pixels# E5 H" P8 r7 F) @5 C0 @3 N$ K
  14. Display aspect ratio : 16:9% `2 _" s) g% x: P% J6 q
  15. Frame rate mode : Constant
    3 }2 W6 R1 \: ~0 U9 s* O% d
  16. Frame rate : 23.976 (24000/1001) FPS
    # {& @/ `' `% V$ j
  17. Color space : YUV3 A: f5 ~# ^( @9 i
  18. Chroma subsampling : 4:2:0
    2 {, C3 d/ S! b
  19. Bit depth : 8 bits
    & Q4 H, }, M$ [% }8 a1 }0 L
  20. Scan type : Progressive! m( P! m8 ~  B6 h+ h, [, ~6 x
  21. Bits/(Pixel*Frame) : 0.1950 c( A& G3 A3 y3 C( U) [
  22. Stream size : 7.29 GiB (92%)) R( w1 T. a$ P
  23. Writing library : x264 core 104 r1680 1a6fd47+ p" _( I" m" p
  24. Encoding settings : cabac=1 / ref=4 / deblock=1:-1:-1 / analyse=0x3:0x113 / me=umh / subme=7 / psy=1 / psy_rd=1.00:0.00 / mixed_ref=1 / me_range=16 / chroma_me=1 / trellis=1 / 8x8dct=1 / cqm=0 / deadzone=21,11 / fast_pskip=1 / chroma_qp_offset=-2 / threads=12 / sliced_threads=0 / nr=0 / decimate=1 / interlaced=0 / constrained_intra=0 / bframes=3 / b_pyramid=2 / b_adapt=2 / b_bias=0 / direct=3 / weightb=1 / open_gop=0 / weightp=2 / keyint=250 / keyint_min=23 / scenecut=40 / intra_refresh=0 / rc_lookahead=40 / rc=2pass / mbtree=1 / bitrate=9697 / ratetol=1.0 / qcomp=0.60 / qpmin=10 / qpmax=51 / qpstep=4 / cplxblur=20.0 / qblur=0.5 / vbv_maxrate=50000 / vbv_bufsize=50000 / ip_ratio=1.40 / aq=1:1.00 / nal_hrd=none* a  C1 p+ `+ J; A3 }3 Q
  25. Language : Chinese
    ! [! Z4 u8 |( d9 G1 f% f8 i
  26. Default : Yes
    8 r3 t' r% J+ R3 U$ H0 B5 K
  27. Forced : Yes  x: }' ]) X( v; y8 C- y# o
  28. ) m3 }  C4 j8 F' K, d% R
  29. Audio
    3 J, `5 w+ H# l* g: L3 Q& ]
  30. ID : 2
    ! c! e5 ~! \3 e/ R+ ~3 q6 Q. N
  31. Format : AC-3% o  o, I4 T% W8 P% `3 k
  32. Format/Info : Audio Coding 3% v* ~+ x2 \) E
  33. Codec ID : A_AC3$ G/ Q  I2 K* H' \" I
  34. Duration : 1 h 50 min; c, Q$ k/ J0 h7 w. a
  35. Bit rate mode : Constant
    % p) U: P+ T. x( l, Y9 ~! ]
  36. Bit rate : 640 kb/s
    $ h, T* F2 l  P" v; [
  37. Channel(s) : 2 channels# P" l( `; @" U4 g
  38. Channel positions : Front: L R6 ]! g, X$ f9 \$ ^; z1 c% P3 q
  39. Sampling rate : 48.0 kHz& M5 c4 ~( j2 a- Z4 c) T
  40. Frame rate : 31.250 FPS (1536 SPF)$ H3 ?9 K6 [) L" Q( E/ U4 a
  41. Bit depth : 16 bits
    * z% n& U+ n4 _1 I
  42. Compression mode : Lossy
    ; f7 y% W- j8 Q2 r% ~
  43. Stream size : 504 MiB (6%)
    % o7 H5 O7 j# T* I+ G
  44. Language : Chinese
    - I- G' {3 ]: @! i- U+ }
  45. Service kind : Complete Main2 y. t, i. `( F+ w6 e* \1 m$ n
  46. Default : Yes
    2 x( }. u2 _% p6 `
  47. Forced : Yes4 Z. H" R0 m/ S6 k

  48. , l/ m" X5 I* T- P, O# |) f
  49. Text+ G* L. \. m% k, Q
  50. ID : 3; f, Q: O3 f9 I' x9 M* t( ^
  51. Format : UTF-8) j% m% @4 L9 C& H' C# u
  52. Codec ID : S_TEXT/UTF8$ {  o0 ~) v0 Y
  53. Codec ID/Info : UTF-8 Plain Text: E$ k4 _" \6 K9 C
  54. Language : English1 d" H% R5 t$ e9 K' v9 c. O
  55. Default : Yes6 M/ c! a. c! I, l
  56. Forced : No
复制代码

5 a% [1 u- E' O/ e: t& w# ~! z" }% `. L. U$ E9 \
( F$ N( q. r( s9 C, T  D

8 A" b4 D# ]' v, h
" Z/ R' l& @2 p6 z# H1 d' N
# Q2 q' j( t/ i  p; ?" A
游客,如果您要查看本帖隐藏内容请回复  捐助论坛可免回复查看隐藏内容 详情请点击
发表于 2018-7-8 19:06:04 | 显示全部楼层
感谢楼主分享这么好的版本
发表于 2018-7-10 03:02:33 | 显示全部楼层
谢谢楼主分享
发表于 2018-7-11 22:39:19 | 显示全部楼层
侯孝贤导演的作品,谢谢分享
发表于 2018-8-8 16:10:35 | 显示全部楼层
侯孝賢導演的作品,感謝分享
您需要登录后才可以回帖 登录 | 立即注册

本版积分规则

封号公示|手机版|Archiver|有问题发邮件到admin#(换成@)hd1tj.org|微博|免责申明|HD一条街

GMT+8, 2019-2-22 08:19

快速回复 返回顶部 返回列表