HD一条街论坛

 找回密码
 立即注册
搜索
查看: 168|回复: 1

[1080p] 哆啦A梦:大雄的海底鬼岩城[WOWOW高清重制版][国粤(TVB粤语)日四语]Doraemon Nobita and the Castle of the Undersea Devil HDTV 1080i MPEG-2 4Audio-doraemon 13G

[复制链接]
发表于 2018-7-4 22:56:52 | 显示全部楼层 |阅读模式
引用
片源由a574045075提供,在此感谢!
台配音轨、粤语音轨提取自VCD,TVB粤语取自TVB录制源码,已做调制匹配高清重制版。
如需转载,请注明出处!


                               
登录/注册后可看大图

◎译  名 哆啦A梦:大雄的海底鬼岩城
◎片  名 ドラえもん のび太の海底鬼岩城
◎年  代 1983
◎产  地 日本
◎类  别 科幻/动画/冒险
◎语  言 日语
◎上映日期 1983-03-12(日本)
◎IMDb评分  6.9/10 from 114 users
◎IMDb链接  http://www.imdb.com/title/tt1147509/
◎豆瓣评分 8.3/10 from 2,509 users
◎豆瓣链接 https://movie.douban.com/subject/1458892/
◎片  长 95分钟
◎导  演 芝山努 Tsutomu Shibayama
◎主  演 大山信代 Nobuyo Ohyama
      小原乃梨子 Noriko Ohara
      野村道子 Michiko Nomura
      立壁和也 Kazuya Tatekabe
      肝付兼太 Kaneta Kimotsuki

◎简  介

  暑假临近,大家为露营地点的事而争执。大雄(小原乃梨子 配音)和静香(野村道子 配音)想去海滩,胖虎(立壁和也 配音)和小夫(肝付兼太 配音)则想去爬山。最后,在哆啦A梦(大山羡代 配音)的提议下决定去海底山探险。而到了海底,胖虎和小夫却想总想着去幽灵船寻宝,结果遇到了危险,大家也意外发现海底居然也居住着人类。进而发现亚特兰提斯和姆联邦这两个国家争相进行军备竞赛,得知亚特兰提斯预备发射鬼角弹的事,如果亚特兰提斯发射鬼角弹,那么全世界都会毁灭,因此为了阻止鬼角弹发射,大雄他们决定去亚特兰提斯的百慕大海域阻止这个阴谋。勇敢的少年们能拯救地球吗?
  本片是哆啦A梦剧场版系列的第四部。


                               
登录/注册后可看大图


                               
登录/注册后可看大图


                               
登录/注册后可看大图

引用
General
ID                          : 1 (0x1)
Complete name               : D:\Doraemon Nobita and the Castle of the Undersea Devil HDTV 1080i MPEG-2 4Audio-doraemon.ts
Format                      : MPEG-TS
File size                   : 13.1 GiB
Duration                    : 1 h 35 min
Overall bit rate mode       : Variable
Overall bit rate            : 19.7 Mb/s
Maximum Overall bit rate    : 35.5 Mb/s

Video
ID                          : 4113 (0x1011)
Menu ID                     : 1 (0x1)
Format                      : MPEG Video
Format version              : Version 2
Format profile              : [email protected]
Format settings             : CustomMatrix / BVOP
Format settings, BVOP       : Yes
Format settings, Matrix     : Custom
Format settings, GOP        : Variable
Format settings, picture st : Frame
Codec ID                    : 2
Duration                    : 1 h 35 min
Bit rate mode               : Variable
Width                       : 1 920 pixels
Height                      : 1 080 pixels
Display aspect ratio        : 16:9
Frame rate                  : 29.970 (30000/1001) FPS
Color space                 : YUV
Chroma subsampling          : 4:2:0
Bit depth                   : 8 bits
Scan type                   : Interlaced
Scan order                  : Top Field First
Compression mode            : Lossy
Time code of first frame    : 00:00:00:00
Time code source            : Group of pictures header
GOP, Open/Closed            : Open
Color primaries             : BT.709
Transfer characteristics    : BT.709
Matrix coefficients         : BT.709

Audio #1
ID                          : 4352 (0x1100)
Menu ID                     : 1 (0x1)
Format                      : AAC
Format/Info                 : Advanced Audio Codec
Format version              : Version 2
Format profile              : LC
Muxing mode                 : ADTS
Codec ID                    : 15
Duration                    : 1 h 35 min
Channel(s)                  : 2 channels
Channel positions           : Front: L R
Sampling rate               : 48.0 kHz
Frame rate                  : 46.875 FPS (1024 SPF)
Compression mode            : Lossy
Language                    : Japanese

Audio #2
ID                          : 4353 (0x1101)
Menu ID                     : 1 (0x1)
Format                      : AC-3
Format/Info                 : Audio Coding 3
Codec ID                    : 129
Duration                    : 1 h 35 min
Bit rate mode               : Constant
Bit rate                    : 224 kb/s
Channel(s)                  : 2 channels
Channel positions           : Front: L R
Sampling rate               : 48.0 kHz
Frame rate                  : 31.250 FPS (1536 SPF)
Bit depth                   : 16 bits
Compression mode            : Lossy
Stream size                 : 152 MiB (1%)
Language                    : Chinese
Service kind                : Complete Main

Audio #3
ID                          : 4354 (0x1102)
Menu ID                     : 1 (0x1)
Format                      : AC-3
Format/Info                 : Audio Coding 3
Codec ID                    : 129
Duration                    : 1 h 35 min
Bit rate mode               : Constant
Bit rate                    : 192 kb/s
Channel(s)                  : 2 channels
Channel positions           : Front: L R
Sampling rate               : 48.0 kHz
Frame rate                  : 31.250 FPS (1536 SPF)
Bit depth                   : 16 bits
Compression mode            : Lossy
Stream size                 : 131 MiB (1%)
Language                    : Chinese
Service kind                : Complete Main

Audio #4
ID                          : 4355 (0x1103)
Menu ID                     : 1 (0x1)
Format                      : AC-3
Format/Info                 : Audio Coding 3
Codec ID                    : 129
Duration                    : 1 h 35 min
Bit rate mode               : Constant
Bit rate                    : 192 kb/s
Channel(s)                  : 2 channels
Channel positions           : Front: L R
Sampling rate               : 48.0 kHz
Frame rate                  : 31.250 FPS (1536 SPF)
Bit depth                   : 16 bits
Compression mode            : Lossy
Stream size                 : 131 MiB (1%)
Language                    : Chinese
Service kind                : Complete Main


郑重声明:
本站提供的所有影视综艺作品均是在网上搜集,任何涉及商业盈利目的均不得使用,否则产生的一切后果将由您自己承担!本站将不对本站的任何内容负任何法律责任!该下载内容仅做宽带测试使用,请在下载后24小时内删除。请购买正版!


百度网盘
购买主题 本主题需向作者支付 30 金币 才能浏览
发表于 2018-7-5 22:20:12 | 显示全部楼层
兒子最喜欢的
您需要登录后才可以回帖 登录 | 立即注册

本版积分规则

封号公示|手机版|Archiver|有问题发邮件到admin#(换成@)hd1tj.org|微博|免责申明|HD一条街 |网站地图

GMT+8, 2018-9-26 02:50

快速回复 返回顶部 返回列表