HD一条街论坛

 找回密码
 立即注册
搜索
查看: 353|回复: 16

[内地] 纪录片:中国市长 The.Chinese.Mayor.2015.SUBBED.1080p.AMZN.WEBRip.DD2.0.x264-QOQ 7.75G

[复制链接]
发表于 2018-6-7 17:56:02 | 显示全部楼层 |阅读模式

+ a$ V4 e, {' a/ {1 t" j                               
登录/注册后可看大图

5 e4 G9 P$ d( `8 R$ j, w1 W4 q6 n6 F! Z! P2 c- j
◎译  名 中国市长
! I/ d) F/ X" P" v7 e, a◎片  名 大同3 t/ x3 Y1 R9 Y+ `: {9 E$ M0 _8 G
◎年  代 2015
) ~5 T2 I7 G% H( X+ U◎产  地 中国大陆9 L2 y" N- E" N% ~0 p
◎类  别 纪录片8 p7 W+ Q* U5 [/ E
◎语  言 山西方言" J) i# N6 O+ A* k1 B- H
◎上映日期 2015-01-26(圣丹斯电影节)
0 H1 _, S0 z4 X% g- ]◎IMDb评分  7.6/10 from 367 users) P5 O  d( @9 D9 W/ [
◎IMDb链接  http://www.imdb.com/title/tt4056808/6 w& x) v- Z& |/ }! H
◎豆瓣评分 9.2/10 from 14,852 users; J+ c+ e- f& f$ H" o
◎豆瓣链接 https://movie.douban.com/subject/26276498/$ t! g& @5 l# B& p! C. D7 Y' t
◎片  长 86分钟! W0 N  j0 x3 V- Z/ n( n
◎导  演 周浩 Hao Zhou
2 X/ L' Z# W- {2 D8 B8 m4 Q◎主  演 耿彦波 Yanbo Geng: M% [% e* E5 P( X1 U: I! Y2 }1 e

8 Z+ P6 ?" c* K2 d◎简  介+ |' y7 g; N+ b4 |

6 ?, a. D5 N8 ~  曾经繁华的中国都市大同市,如今屹立在一堆废墟的旁边。这座城市不仅污染严重,还因其陈旧的基础设施和摇摇欲坠的经济前景而濒临瘫痪。但大同市长想要改变这一切,他大胆地宣布了一项试图重塑昔日的辉煌的新计划,要知道这座城市的文明已经有1600年了。, r7 X  d4 e# ~) x5 M8 J6 d" @
  然而,伴随着这项计划的是非常高的成本。数以千计的房屋被推倒,50万居民(占大同市总人口的百分之三十)将在他的打理下被重新安置。这位市长成功与否,完全取决于他是否能让愤怒的工人群体以及越来越忐忑的统治精英冷静下来。纪录片《中国市长》惊人地捕捉到了一个男人,甚至是一个国家疯狂跳跃着进入一个越来越动荡的未来的过程。
/ J$ j  [6 K$ _$ W( u6 F
( C, M# m. e! m8 j◎获奖情况
1 y6 Z3 {+ j+ o4 L: g5 M5 f( L: n# Q  J( x) a- `5 W4 M
  第52届台北金马影展  (2015)
1 J3 {* [( c& x( [  金马奖 最佳纪录片# n; n/ ^8 o, r) M+ O! i$ m

3 {  x- `" {0 Z. |3 A. h  第31届圣丹斯电影节  (2015)
+ l6 |( P5 O: H: U  评审团大奖 世界电影单元纪录片(提名) 周浩& V1 w5 J; q4 y$ ~: a! p9 X

: X) U6 R8 f( y. ?, t8 P/ C- e, ?5 O9 }  第2届豆瓣电影年度榜单  (2015)
8 U% n) z5 y2 }2 Y  评分最高的纪录片(提名)7 ?" l, ^9 A# J' Y4 g& [5 N4 d
' U- p- s( R) T7 l2 f9 f: n8 a
  第6届豆瓣电影鑫像奖  (2016)3 y, A3 c* A) ]* a: x
  鑫豆单元 最佳影片(华语)(提名)
  G! q4 W7 f+ u  鑫豆单元 最佳纪录长片(提名)
  1. Video) j) e5 q8 O+ O8 W. p" {9 T
  2. ID                                       : 19 R+ a/ [0 M& P+ S. @
  3. Format                                   : AVC
    % Z* ?$ s( n9 R2 p( `
  4. Format/Info                              : Advanced Video Codec
    : _" e4 Q5 K6 x* O) ]( L7 G: E
  5. Format profile                           : [email protected]
    + z) N. A. w! [: z8 a
  6. Format settings                          : CABAC / 4 Ref Frames
    1 G# t" \) i8 N$ d% r
  7. Format settings, CABAC                   : Yes$ ]$ J8 v. B/ o% M6 H5 E8 p
  8. Format settings, ReFrames                : 4 frames5 ~6 C8 f0 a' T* h9 S6 Z
  9. Codec ID                                 : V_MPEG4/ISO/AVC
    % r  o- L+ q4 l4 @( o
  10. Duration                                 : 1 h 26 min
    " y+ Y. D6 T. v
  11. Bit rate                                 : 12.7 Mb/s; I3 o# e1 b! ^/ X
  12. Width                                    : 1 920 pixels
    ( s0 n- T5 V  P$ p5 m
  13. Height                                   : 1 080 pixels+ q) m1 D: A+ k) M9 p
  14. Display aspect ratio                     : 16:9
    ) j) u3 N9 Y9 Q
  15. Frame rate mode                          : Constant0 D+ K5 }6 R* T% ]- |/ h
  16. Frame rate                               : 25.000 FPS1 e1 d# q$ Y+ Y$ G/ @
  17. Color space                              : YUV
    8 W( O4 r' w" v4 u8 P* r
  18. Chroma subsampling                       : 4:2:0
    . e. H, l( r. f6 k" A: q- Y
  19. Bit depth                                : 8 bits
    * U5 N1 f0 Q( H9 f: v; S  N
  20. Scan type                                : Progressive4 C. a+ N9 F. [. Z6 ^3 ^7 H5 z
  21. Bits/(Pixel*Frame)                       : 0.244
    6 j; B; j. l+ W5 E9 S3 L
  22. Stream size                              : 7.62 GiB (98%)" w) J% O+ P: b- V8 C6 f2 `1 s
  23. Default                                  : Yes: ~/ ^8 p& n* |; o
  24. Forced                                   : No
    ; w5 [; [  ?* b5 A& |8 E
  25. Color range                              : Limited' K% k* Y3 F: x& F6 t! c
  26. Color primaries                          : BT.709* k* b8 l$ b7 v9 C9 S6 U
  27. Transfer characteristics                 : BT.709* c1 w% Q1 \0 T6 e$ R# b$ z$ M
  28. Matrix coefficients                      : BT.709
      T2 J8 }# Z' I; {
  29. " h4 _) I/ B2 J- E9 v  B
  30. Audio
    + R% n9 }, D( N& M% E( V
  31. ID                                       : 2& Z8 u, \$ [( H1 o, L- I- o& s1 b: R
  32. Format                                   : E-AC-3
    6 ^+ A2 x, y* S1 C
  33. Format/Info                              : Enhanced Audio Coding 3
    & X5 f# ^7 K/ B6 `9 ?
  34. Codec ID                                 : A_EAC3: m! i* E2 _) ?5 \! l% N
  35. Duration                                 : 1 h 26 min5 C+ I; E) P" P  o0 l
  36. Bit rate mode                            : Constant
    * c5 R1 z6 t# P  B& l- ^' q
  37. Bit rate                                 : 224 kb/s
    2 D* F" P3 x* F$ w! l! ]
  38. Channel(s)                               : 2 channels' M& c* G3 f5 q
  39. Channel positions                        : Front: L R0 K! e/ m' v  Y9 l% _
  40. Sampling rate                            : 48.0 kHz! y) K8 C, [/ q+ K8 Q4 \
  41. Frame rate                               : 187.500 FPS (256 SPF)
    ) t5 Z* c+ A4 x0 n2 j; P
  42. Compression mode                         : Lossy! m' }% R  Q- ~' ]
  43. Stream size                              : 138 MiB (2%)/ l1 C4 p5 q; r1 S, l" b
  44. Language                                 : Chinese' i# u: S1 X3 ?8 t% x- I* o, G: q+ D
  45. Service kind                             : Complete Main. k& d  ]5 o7 A- k& r: e
  46. Default                                  : Yes
    & C& ~* H7 j" V! U
  47. Forced                                   : No
    5 F* E5 a1 I6 \- g2 w- y

  48.   w# x$ F/ Y3 z9 L
  49. Text7 }' D$ k/ p) K
  50. ID                                       : 3( T1 s/ \" A1 l$ `% c" O/ e
  51. Format                                   : UTF-8  e. b) ^1 X7 k2 [' Y
  52. Codec ID                                 : S_TEXT/UTF84 I0 _! R0 W! d( L% S2 f( o
  53. Codec ID/Info                            : UTF-8 Plain Text7 s* G& C2 H- g
  54. Duration                                 : 1 h 21 min: @) @2 j+ @5 s! ]
  55. Bit rate                                 : 4 b/s
    4 a% m3 h3 h" V% n
  56. Count of elements                        : 176
    9 G2 J' N; J0 t0 z+ K
  57. Stream size                              : 2.69 KiB (0%)
    - v$ I. ?& R& z, o8 I: O
  58. Language                                 : English  w% y1 l4 n; F8 A
  59. Default                                  : No
      z5 }  g* k4 |& G4 `* S
  60. Forced                                   : No
复制代码
4 Y7 }! R7 H: l

* r; C" U2 r" N: D2 h
6 K  G7 {' M; a) E; ]* B1 ]! T1 p  I
, r5 r/ y' {/ S5 ~$ |6 Z" q! T

) S1 ~7 Z, {/ p% X+ }
游客,如果您要查看本帖隐藏内容请回复  捐助论坛可免回复查看隐藏内容 详情请点击
发表于 2018-6-7 18:18:49 | 显示全部楼层
谢谢楼主的无私奉献。
发表于 2018-6-7 19:29:17 | 显示全部楼层
谢谢楼主分享
发表于 2018-6-8 07:30:05 | 显示全部楼层
看似很悶的電影,但卻獲獎無數,要看看了
发表于 2018-6-9 16:53:10 | 显示全部楼层
看看,评分居然这么高
发表于 2018-6-9 20:10:45 | 显示全部楼层
谢谢楼主分享
发表于 2018-6-9 21:04:07 | 显示全部楼层
这个应该很好看吧
发表于 2018-6-10 11:01:28 | 显示全部楼层
国外对这种题材通常不怎么感冒。
发表于 2018-6-10 19:15:04 | 显示全部楼层
辛苦哂收下了
发表于 2018-6-12 22:41:16 | 显示全部楼层
已经看过低分辨率版本了,但高清要收藏的
您需要登录后才可以回帖 登录 | 立即注册

本版积分规则

封号公示|手机版|Archiver|有问题发邮件到admin#(换成@)hd1tj.org|微博|免责申明|HD一条街 |网站地图

GMT+8, 2018-10-15 20:29

快速回复 返回顶部 返回列表