HD一条街论坛

 找回密码
 立即注册
搜索
查看: 384|回复: 6

[欧美] 纪录片:暗夜摄影记 第一季[自带中文字幕]Shot.in.the.Dark.S01.1080p.NF.WEBRip.DD5.1.x264-SiGMA 14.6G

[复制链接]
发表于 2018-5-18 15:41:29 | 显示全部楼层 |阅读模式
5 f8 e- v- x0 J- Y8 F1 w+ M$ D
                               
登录/注册后可看大图
! K5 L2 b( d  k; \% ]: c

, y1 O6 u: n( G- r! P◎译  名 暗夜摄影记 第一季
" u3 c$ w+ J9 L. J- y4 z2 \5 a◎片  名 Shot in the Dark Season 1
4 ?7 R" R- u% u* @7 @& u◎年  代 20174 @4 U* e1 y5 U) `
◎产  地 美国) A  T/ ~. X6 T5 @4 A( u& K
◎类  别 纪录片/真人秀% r5 E! ?( V& |# R9 @
◎语  言 英语
) @% m# Q1 f) V, P5 p3 o' ^◎上映日期 2017-11-17(美国)1 f% p9 O/ ]$ }/ ~  s1 }( |( r
◎IMDb评分  8.1/10 from 861 users
; r/ v6 g# K% e% e8 t; g◎IMDb链接  http://www.imdb.com/title/tt7644680/
/ }5 b8 f+ ~7 d◎豆瓣评分 /10 from 0 users: N8 q- y4 z# O% Q  K
◎豆瓣链接 https://movie.douban.com/subject/27591713/
0 i% h6 M" K4 E2 N* g6 v2 ?◎集  数 8
- J$ h- c( n' n' z2 _2 u' G" i: g0 \* [" S
◎简  介' n2 m% y( t4 S% y# e* W1 _6 n5 [! C
" K1 S9 t! p8 X4 g6 x
  三位互相競爭的自由特約記者在夜晚走遍街頭,拍攝犯罪現場、火災、意外,以及能賣給新聞媒體的任何消息@HD一条街
  1. Video5 p, z" ?: d; n9 _# W2 N6 ^  q4 X
  2. ID                                       : 16 M/ r* m2 G: c8 r3 A
  3. Format                                   : AVC
    6 \; e) S4 D) \* H0 }# R
  4. Format/Info                              : Advanced Video Codec
    1 m0 P8 u3 ?- K
  5. Format profile                           : [email protected]9 R- a/ ^# {. d* Q2 M
  6. Format settings                          : CABAC / 3 Ref Frames
    & g2 K" }! ?/ Q( v* a0 X0 A
  7. Format settings, CABAC                   : Yes3 R, o# v) i, C$ m0 B/ |5 j
  8. Format settings, ReFrames                : 3 frames
    . U  v$ N% H4 R5 |0 s; P' M
  9. Codec ID                                 : V_MPEG4/ISO/AVC, n4 g6 \9 l# k! [8 y2 X9 F
  10. Duration                                 : 41 min 12 s
    - \' v- e7 Z) ?9 C6 r! d
  11. Bit rate mode                            : Variable2 `/ p' Z( J* a9 k+ r" K7 a) g' i
  12. Bit rate                                 : 7 500 kb/s- ^" X4 E! n  u* P' o) J2 C, i4 E9 @
  13. Maximum bit rate                         : 11.2 Mb/s- y$ l' Y7 c5 B) J
  14. Width                                    : 1 920 pixels
    " z+ S$ ]+ }5 H) c. t
  15. Height                                   : 1 080 pixels% Z, J! R3 J9 N& _$ O
  16. Display aspect ratio                     : 16:9
    * D  U; [, B- e) A  d
  17. Frame rate mode                          : Constant
    8 r2 Z+ b3 Y5 n" B; ^
  18. Frame rate                               : 23.976 (24000/1001) FPS! M; w1 c5 k2 z
  19. Color space                              : YUV8 X3 C  \3 P; r: K: j) z
  20. Chroma subsampling                       : 4:2:0. J2 \1 e/ s/ f9 d9 o( r1 r
  21. Bit depth                                : 8 bits  p* z8 g, L% W1 g3 m, Q
  22. Scan type                                : Progressive
    5 k1 n3 b  @* K& L' i4 x
  23. Bits/(Pixel*Frame)                       : 0.151
    9 H$ ]! v( F. G; U
  24. Stream size                              : 2.14 GiB (95%)
    6 L1 G. G7 _, e' A
  25. Writing library                          : x264 core 148
    * U9 @" |: c, H' I
  26. Encoding settings                        : cabac=1 / ref=3 / deblock=1:0:0 / analyse=0x1:0x111 / me=umh / subme=10 / psy=1 / psy_rd=1.00:0.00 / mixed_ref=1 / me_range=24 / chroma_me=1 / trellis=2 / 8x8dct=0 / cqm=0 / deadzone=21,11 / fast_pskip=1 / chroma_qp_offset=-2 / threads=8 / lookahead_threads=1 / sliced_threads=0 / nr=0 / decimate=1 / interlaced=0 / bluray_compat=0 / stitchable=1 / constrained_intra=0 / bframes=2 / b_pyramid=0 / b_adapt=2 / b_bias=0 / direct=3 / weightb=1 / open_gop=0 / weightp=2 / keyint=48 / keyint_min=25 / scenecut=0 / intra_refresh=0 / rc_lookahead=48 / rc=2pass / mbtree=1 / bitrate=7500 / ratetol=1.0 / qcomp=0.50 / qpmin=6 / qpmax=51 / qpstep=4 / cplxblur=20.0 / qblur=0.5 / vbv_maxrate=11250 / vbv_bufsize=15000 / nal_hrd=vbr / filler=0 / ip_ratio=1.40 / aq=1:1.007 }0 N+ R8 U! p- {8 v: Q& S( N* l- T
  27. Default                                  : Yes
    & P4 D0 S- D; H2 [7 n
  28. Forced                                   : No" y* W* a* H7 L* @6 Y

  29. 5 ^6 v( O4 f, J; b
  30. Audio" i( Z3 o) l* @8 ~3 U
  31. ID                                       : 2
    - o% V' G, u3 N# L# t+ @
  32. Format                                   : AC-3
    6 D! k) M1 ^/ @! r0 G& a7 v6 o
  33. Format/Info                              : Audio Coding 3$ O! k- R7 p7 g" q
  34. Codec ID                                 : A_AC3
    ! {3 `7 w$ G$ t  M
  35. Duration                                 : 41 min 12 s
    6 w* K2 J2 |$ [( T6 z
  36. Bit rate mode                            : Constant
    # m  w9 |! q  s; {+ n, M
  37. Bit rate                                 : 384 kb/s% h0 C9 v  x2 `8 ?
  38. Channel(s)                               : 6 channels
    * Y: A' M& Y( t7 I
  39. Channel positions                        : Front: L C R, Side: L R, LFE$ X) A: f4 w8 ]0 b
  40. Sampling rate                            : 48.0 kHz
    8 _  F- i2 M. X: l+ S
  41. Frame rate                               : 31.250 FPS (1536 SPF), p( O+ |& s, X  Y$ H
  42. Bit depth                                : 16 bits: a* o4 M( N) c3 b. A, Q7 p4 ]$ r
  43. Compression mode                         : Lossy
    7 b+ C, J8 ~' x0 r. P8 m
  44. Stream size                              : 113 MiB (5%)/ @, Y) ]% ~% R# C& S- w
  45. Language                                 : English
    6 V9 P. P# e" x  m% L& u
  46. Service kind                             : Complete Main) i) M4 c5 j: [6 Y3 e
  47. Default                                  : Yes3 T) _" _& q& ^' k% }8 Z* N9 V
  48. Forced                                   : No( {# a. A, f) v

  49.   X- z! m, `* }( ~3 V+ K6 E3 s
  50. Text #1' U" |5 h8 P7 N3 H; J+ t
  51. ID                                       : 3
    # Z( k. d/ \5 D7 l. {6 A* @$ ]
  52. Format                                   : UTF-88 W- z& J( K3 m
  53. Codec ID                                 : S_TEXT/UTF8
    - c8 a# o; y) B8 o6 Q
  54. Codec ID/Info                            : UTF-8 Plain Text
    9 W3 {1 D* L( X1 r/ u. G
  55. Duration                                 : 33 min 14 s
    5 o5 r1 J, a) ]3 I$ b9 S1 E7 z. J
  56. Bit rate                                 : 4 b/s+ X) j: d# |! I! S  g
  57. Count of elements                        : 36
    ; G6 P% p$ C! r  W% }
  58. Stream size                              : 1.14 KiB (0%)5 b1 U2 ?" _" R, K& _( [
  59. Title                                    : Forced9 @6 `, u( U" p: z  s- _. i% |
  60. Language                                 : English
    : r( B7 w+ ~$ p7 g
  61. Default                                  : Yes# `$ n" d9 J* x- F
  62. Forced                                   : Yes( f. I, ^/ O  T( ]6 O# L. C
  63. ' j7 M2 p: A, S" |$ O. |7 s* b  s
  64. Text #2# [7 g( K* n# K- p/ x' A+ \9 d
  65. ID                                       : 44 o1 v, Q9 A8 D" o  M" @) x
  66. Format                                   : UTF-8$ I7 o1 h, K( Z  j% M  O
  67. Codec ID                                 : S_TEXT/UTF85 I; ]- O6 w- V
  68. Codec ID/Info                            : UTF-8 Plain Text
    8 t/ s& @, e) n, J0 h
  69. Duration                                 : 39 min 59 s
    7 u5 U8 @& p  [  x3 |  M& T. Q- L* W
  70. Bit rate                                 : 73 b/s
    ) [+ H1 y6 C$ D/ [
  71. Count of elements                        : 519
    * p0 z$ p- d6 V3 m7 `7 U6 q
  72. Stream size                              : 21.6 KiB (0%)
    6 X: Q( u1 h7 l4 v+ H' G! O
  73. Title                                    : SDH
    : M9 q& M. O) H$ t
  74. Language                                 : English
    2 X1 q; l$ z. {6 z2 d2 W# |' v3 t# J% v9 ?
  75. Default                                  : No( d7 y# V, O- x9 [4 T
  76. Forced                                   : No
    9 u% ?% |8 I* I* c) ?4 i9 u

  77.   T" x3 H2 P; t9 h8 H: x
  78. Text #38 s- S/ l  `. D  N
  79. ID                                       : 5
    1 f4 K6 Y9 p  A8 m" Z7 U4 O' k
  80. Format                                   : UTF-8# z/ t& J# w2 }, @1 \, N9 J9 A
  81. Codec ID                                 : S_TEXT/UTF8& ^* o3 u$ C/ [9 ^! }
  82. Codec ID/Info                            : UTF-8 Plain Text1 _. R9 R6 a4 g% ]& v3 q. ^4 u# C
  83. Duration                                 : 40 min 40 s
    9 P) Q' N2 J( t0 y. e
  84. Bit rate                                 : 70 b/s0 ~3 T4 D6 M/ L  u. \- y- f. ]: b: J
  85. Count of elements                        : 499
    ( O' I  x& A. ~6 ^
  86. Stream size                              : 21.2 KiB (0%)
    $ L9 ^' }' X; j$ M: j
  87. Language                                 : Spanish
    5 C: h/ z* ~8 A, D
  88. Default                                  : No( N% X2 J4 \4 B" E, y* K/ V
  89. Forced                                   : No
    $ b- C& a0 ~1 l

  90. 5 T/ S) M: s9 v* a; v% O
  91. Text #47 l% N" Z( U; ], A! Z. {
  92. ID                                       : 64 |( @4 Z' b5 U/ u$ b  @3 F+ @8 j) d
  93. Format                                   : UTF-8/ O+ r! y6 L; w2 b0 ~. D! P
  94. Codec ID                                 : S_TEXT/UTF8
    3 X# E: N/ w! U# Z
  95. Codec ID/Info                            : UTF-8 Plain Text$ M+ k) l* V  q7 `* A6 r3 R! ~( h
  96. Duration                                 : 40 min 34 s3 Y9 e% K* S" }! b, ?
  97. Bit rate                                 : 67 b/s
    ' [1 D# }& X' T7 a9 N
  98. Count of elements                        : 5003 ~9 R! ?$ F) l" z# S
  99. Stream size                              : 20.1 KiB (0%)
    5 M2 t$ l. Z% J; Y8 \) Q1 `
  100. Language                                 : French
    5 [5 ~! F% D  b  X! Y5 M
  101. Default                                  : No
    1 e- Y* F7 Y3 \$ a2 C8 B
  102. Forced                                   : No
    ; ^) J7 X2 ]4 @
  103. ! H( e# ?. `  [  D6 Z
  104. Text #58 H  a$ E+ Z+ \$ F- d' L
  105. ID                                       : 7) r' B$ Z+ `7 m9 B) V% K
  106. Format                                   : UTF-8& B8 {& ^8 k- N& b! D( b
  107. Codec ID                                 : S_TEXT/UTF8
    ) O( D2 d( R, T- J! J
  108. Codec ID/Info                            : UTF-8 Plain Text
    / o: `: x6 p# [$ o( f  E; W3 C
  109. Duration                                 : 40 min 40 s# Q( V. Q# y8 B4 v/ p
  110. Bit rate                                 : 64 b/s9 @6 h& s9 A' N2 x. G/ f+ `
  111. Count of elements                        : 518! \! x+ H2 \# E: b2 z. l
  112. Stream size                              : 19.3 KiB (0%)# v  A8 t! ^/ y# d" v
  113. Title                                    : Simplified
    * w- @- j# F! ~0 `# U
  114. Language                                 : Chinese
    2 e" O' o' I! b* y
  115. Default                                  : No
    % G# i% K5 l4 ?8 r
  116. Forced                                   : No
    & b/ E/ E' G2 O2 j9 S% l
  117. / M/ L8 _8 T: }2 H5 ^2 g' H& _
  118. Text #6' {2 _; J6 e+ N" w. R9 @
  119. ID                                       : 8" B7 q4 Y9 h  b5 i( H4 H+ z3 N
  120. Format                                   : UTF-8' O+ ^! f" Q& P- H, j7 ^, a
  121. Codec ID                                 : S_TEXT/UTF8, H/ z% i/ W% r7 W
  122. Codec ID/Info                            : UTF-8 Plain Text% g* ~/ _$ u9 n1 V; {, V, X
  123. Duration                                 : 40 min 40 s
    9 ~$ v$ `8 e* `2 |: u
  124. Bit rate                                 : 63 b/s
    1 g2 @+ B: T% g; P
  125. Count of elements                        : 519
    + d1 M( U6 @9 @3 _- _  O3 Y
  126. Stream size                              : 19.0 KiB (0%)3 {/ o5 s3 ^1 B$ u4 H2 f5 |4 J5 \
  127. Title                                    : Traditional
    ) X3 R5 ?7 {$ Z# `
  128. Language                                 : Chinese
    + m, J0 X0 G" D* M
  129. Default                                  : No
    6 Z, D# K8 y7 q; ~5 Y+ e$ d  C
  130. Forced                                   : No
复制代码
6 m/ H2 b% k& A( v) T1 b7 B2 z& h

8 X, q% q: ?2 G" [( w+ ]9 L. `1 N/ c
$ @) A0 @4 h" n6 D* ?
: e/ A# [. W! q, \5 y
1 U8 x% Q+ ^: S5 L

+ R( \& `0 O1 v6 K' }5 c) p0 W" M* m; e8 W& c4 f
6 ?0 l2 d. W5 b5 C7 A
游客,如果您要查看本帖隐藏内容请回复  捐助论坛可免回复查看隐藏内容 详情请点击
发表于 2018-5-18 16:13:06 | 显示全部楼层
最喜欢看记录片了,谢谢啊
发表于 2018-5-28 15:43:02 | 显示全部楼层
先收下谢楼主
发表于 2018-5-28 22:53:28 | 显示全部楼层
好看的电影或纪录片!在HD一条街真的应有尽有!一切归功于我们的楼主大大的无私分享!谢谢啦。
发表于 2018-5-31 12:32:25 | 显示全部楼层
这个没看过,谢谢分享
发表于 2018-6-14 18:02:15 | 显示全部楼层
感谢分享~~~
发表于 2018-8-22 14:27:54 | 显示全部楼层
谢谢分享资源
您需要登录后才可以回帖 登录 | 立即注册

本版积分规则

封号公示|手机版|Archiver|有问题发邮件到admin#(换成@)hd1tj.org|微博|免责申明|HD一条街

GMT+8, 2019-2-22 08:50

快速回复 返回顶部 返回列表