HD一条街论坛

 找回密码
 立即注册
搜索
查看: 128|回复: 6

[欧美] 纪录片:暗夜摄影记 第一季[自带中文字幕]Shot.in.the.Dark.S01.1080p.NF.WEBRip.DD5.1.x264-SiGMA 14.6G

[复制链接]
发表于 2018-5-18 15:41:29 | 显示全部楼层 |阅读模式

3 R( v, j( U  p, j                               
登录/注册后可看大图
* r+ V. _) |7 G4 N, g
+ o7 f3 M8 e+ X/ B& H3 Y" e
◎译  名 暗夜摄影记 第一季! P6 A( C! D- B5 |5 A' H
◎片  名 Shot in the Dark Season 1
+ d( m5 f! N4 n# F) w+ D" m) c7 b◎年  代 2017
! [6 W, ^' m5 B( P' i: W! m- R& e◎产  地 美国
8 `0 E& V' S- k; Y6 T; \9 w! n1 r◎类  别 纪录片/真人秀9 q: |  h. g- |) @. G2 T
◎语  言 英语  d* M# Z" Y# Y! x6 P3 \: l2 {6 C
◎上映日期 2017-11-17(美国)
' [2 m0 P4 I/ n! w◎IMDb评分  8.1/10 from 861 users, ^8 a2 ?, {& p" ~
◎IMDb链接  http://www.imdb.com/title/tt7644680/
; I* F% l+ j7 @0 X◎豆瓣评分 /10 from 0 users
9 v' _8 C% N5 a) S6 v* G6 T2 M6 H◎豆瓣链接 https://movie.douban.com/subject/27591713/
1 R. w9 \" I: _* S( R$ p: T* M◎集  数 8
: F, [1 x5 _2 I! u7 F
. D0 G  g, F& X$ \1 G& g◎简  介0 D; d. z3 K) Z8 \, u7 j
! `. n2 w3 A- t
  三位互相競爭的自由特約記者在夜晚走遍街頭,拍攝犯罪現場、火災、意外,以及能賣給新聞媒體的任何消息@HD一条街
  1. Video" s" F0 _: d' v1 [8 o
  2. ID                                       : 1. b3 I, D: c$ R9 V- G( d/ W0 ~
  3. Format                                   : AVC
    # t4 o2 z: ^# g+ O! z/ q& f0 W! Z
  4. Format/Info                              : Advanced Video Codec  _) X5 n' Z; s, L, ?& x
  5. Format profile                           : [email protected]
    ' u8 L; |$ ?6 q/ F$ d2 x+ ?
  6. Format settings                          : CABAC / 3 Ref Frames
    - ~7 k3 u) L2 E8 P8 t6 I
  7. Format settings, CABAC                   : Yes- S" S" o0 H' \
  8. Format settings, ReFrames                : 3 frames
    * o, e& W- \; y2 e4 A) H
  9. Codec ID                                 : V_MPEG4/ISO/AVC) S4 E" q" |% `$ e, k
  10. Duration                                 : 41 min 12 s
    1 I* m* S$ C6 D& _8 R; C
  11. Bit rate mode                            : Variable
    ) O5 E, [0 |, S* Y% ]4 k# ^  p4 T
  12. Bit rate                                 : 7 500 kb/s
    2 I) M1 c% ~) i: G; n1 M. u
  13. Maximum bit rate                         : 11.2 Mb/s. p+ c+ w$ t; ~# z/ ?
  14. Width                                    : 1 920 pixels2 [! h% X# Z0 R' ], b* ?
  15. Height                                   : 1 080 pixels
    3 l# [4 x0 Y- H
  16. Display aspect ratio                     : 16:9. N/ `- O7 j- H  p8 `* a1 ^5 M3 B
  17. Frame rate mode                          : Constant
    - @8 w) K. u! {3 T+ x+ o" M, n6 C
  18. Frame rate                               : 23.976 (24000/1001) FPS- V/ q. r. k/ p
  19. Color space                              : YUV' L+ _# e: e1 A/ K/ v( X4 n, D3 {- m
  20. Chroma subsampling                       : 4:2:0
    # {6 q' O2 h& o" p
  21. Bit depth                                : 8 bits! {9 Z4 Q4 p% z6 d
  22. Scan type                                : Progressive1 U- a% a7 g1 a
  23. Bits/(Pixel*Frame)                       : 0.151
    0 O) Q) h! G7 j' T6 B0 P7 Z
  24. Stream size                              : 2.14 GiB (95%)
    & m( l, r7 z$ R. y5 E
  25. Writing library                          : x264 core 148
    $ p) h9 ^$ G" r0 J2 L+ h: a- ?5 R
  26. Encoding settings                        : cabac=1 / ref=3 / deblock=1:0:0 / analyse=0x1:0x111 / me=umh / subme=10 / psy=1 / psy_rd=1.00:0.00 / mixed_ref=1 / me_range=24 / chroma_me=1 / trellis=2 / 8x8dct=0 / cqm=0 / deadzone=21,11 / fast_pskip=1 / chroma_qp_offset=-2 / threads=8 / lookahead_threads=1 / sliced_threads=0 / nr=0 / decimate=1 / interlaced=0 / bluray_compat=0 / stitchable=1 / constrained_intra=0 / bframes=2 / b_pyramid=0 / b_adapt=2 / b_bias=0 / direct=3 / weightb=1 / open_gop=0 / weightp=2 / keyint=48 / keyint_min=25 / scenecut=0 / intra_refresh=0 / rc_lookahead=48 / rc=2pass / mbtree=1 / bitrate=7500 / ratetol=1.0 / qcomp=0.50 / qpmin=6 / qpmax=51 / qpstep=4 / cplxblur=20.0 / qblur=0.5 / vbv_maxrate=11250 / vbv_bufsize=15000 / nal_hrd=vbr / filler=0 / ip_ratio=1.40 / aq=1:1.00
    ; r! {/ p, t+ U
  27. Default                                  : Yes
    ! \& |2 k/ P, [9 D6 n% w' h
  28. Forced                                   : No
    * K' ?# ?2 M* ?" E  c0 h! S2 r: [# l

  29. . U# V4 }& Q3 ^7 }6 T- Y
  30. Audio+ k- g$ f7 ]4 |" T5 J4 r$ s
  31. ID                                       : 2: p$ h# O, q# |. Z+ X/ O; ~: E
  32. Format                                   : AC-3
    4 Q, E& G5 E7 s, r' _( r; K
  33. Format/Info                              : Audio Coding 3
    3 D/ `7 v  e8 M* b: k& A5 Z
  34. Codec ID                                 : A_AC36 J: x2 A+ M, k/ G
  35. Duration                                 : 41 min 12 s" F# i- q4 K3 J4 ^8 A
  36. Bit rate mode                            : Constant
    8 h& M/ Z. r$ s9 z
  37. Bit rate                                 : 384 kb/s- S+ b; b; L) u2 ^$ ^4 J0 z* @6 }
  38. Channel(s)                               : 6 channels
    & t' W! C+ _& G6 h0 b& Q
  39. Channel positions                        : Front: L C R, Side: L R, LFE
    ' r4 ^8 T2 o1 x% X
  40. Sampling rate                            : 48.0 kHz
    9 D+ x1 m: ]* M/ Z& s: u6 T
  41. Frame rate                               : 31.250 FPS (1536 SPF)1 h% ~0 \( j7 L) x3 p3 j0 p* j$ l% i
  42. Bit depth                                : 16 bits
    ) Q$ x% T8 j2 B/ H& ]" v* S' U
  43. Compression mode                         : Lossy
    + [$ J6 f2 C6 r# A& x: l
  44. Stream size                              : 113 MiB (5%)) B" t# ^$ A6 g6 G  {
  45. Language                                 : English. v) z4 m2 y" `% |
  46. Service kind                             : Complete Main
    " K4 _' [8 ?" t% F# r6 |( D( I6 ^
  47. Default                                  : Yes
    % ~7 u$ Z, r+ n, @3 a
  48. Forced                                   : No0 K0 a5 m5 N! _/ d" r/ y
  49.   H# X8 j% K3 F3 E) {9 q2 z3 y; M
  50. Text #11 }, c' G, X3 h
  51. ID                                       : 3
    + H& h7 b7 D9 C5 _8 x, y
  52. Format                                   : UTF-8" P1 G6 ^- `6 h6 ]3 Z2 S; e
  53. Codec ID                                 : S_TEXT/UTF8$ n  A2 D% k- |: U* J8 V
  54. Codec ID/Info                            : UTF-8 Plain Text
    8 p) h8 _. K- T/ f. \0 M! g
  55. Duration                                 : 33 min 14 s; a0 Z" H' B, Z- F
  56. Bit rate                                 : 4 b/s
    0 d9 r' ^! u/ c" f' U! o
  57. Count of elements                        : 36
    7 S# ?. E/ o: |+ I; ?) A! ]
  58. Stream size                              : 1.14 KiB (0%)
    9 P% c7 C; i( K
  59. Title                                    : Forced0 X$ {: p+ m/ o; _
  60. Language                                 : English
    0 M6 I- H9 C, g+ a8 P
  61. Default                                  : Yes
    $ X' d) b3 n) d! X1 E3 J
  62. Forced                                   : Yes
    " [! j8 B) u5 k& c+ ]! Z

  63. $ e+ h6 b$ c0 ?3 G# D
  64. Text #2
      _7 i( K" f* A, H& H3 c! P
  65. ID                                       : 41 g2 }% [4 A. p) q
  66. Format                                   : UTF-8, \/ i* z, C8 D$ X
  67. Codec ID                                 : S_TEXT/UTF8
    " [8 b. ?2 \# R- U/ n5 V9 _; F; G
  68. Codec ID/Info                            : UTF-8 Plain Text& p( _7 T0 P6 t2 ~8 G
  69. Duration                                 : 39 min 59 s0 I/ q  G8 H1 b6 S9 P, V' K! l
  70. Bit rate                                 : 73 b/s: a) P2 c; W- h2 B
  71. Count of elements                        : 5193 ?1 V# c) C. E9 }; ~/ p6 ?8 K
  72. Stream size                              : 21.6 KiB (0%)
    4 ~! {( E- P! Z- t! t
  73. Title                                    : SDH
    ; v- \# O$ g3 y) @8 d- q; y! u
  74. Language                                 : English% t1 |6 ^! ]  j; i! I
  75. Default                                  : No
    7 t  v0 ?' }! |1 L9 Y
  76. Forced                                   : No; }% U4 `$ s( Q6 G  Y; c/ l3 n* O1 n

  77. 9 m  A2 v" O9 j6 v2 Z" {
  78. Text #3  r, p8 N. h5 v8 b' \" J+ `
  79. ID                                       : 5
    * ?6 D* y4 c) V! {- w% O6 r$ ?
  80. Format                                   : UTF-8
    * N* ~! s) y/ I0 k& I7 A8 D% S
  81. Codec ID                                 : S_TEXT/UTF8! P6 H" h% o! j. h# w0 g
  82. Codec ID/Info                            : UTF-8 Plain Text
    / E+ c2 V+ d  e1 L. I
  83. Duration                                 : 40 min 40 s
    % ^) p) w4 @, _$ r7 @+ T8 H
  84. Bit rate                                 : 70 b/s/ j/ H6 }( v2 B2 s: W
  85. Count of elements                        : 4991 X* r1 l: F" m4 `; _
  86. Stream size                              : 21.2 KiB (0%)
    2 N# l# I& a) a# {9 `3 {
  87. Language                                 : Spanish
    5 K) q* a3 |5 s. k6 @, t$ C
  88. Default                                  : No
    : C* q: M9 f; W# k6 {9 t2 F; n: C" F
  89. Forced                                   : No
    + c% W/ y  k. d- z. [
  90. $ Y! p8 Z" u2 Z* ?0 e# e+ j0 k
  91. Text #49 E% b( A. C" f. R4 o5 n5 j; V4 c: F4 A
  92. ID                                       : 6+ G" M( g$ b0 `, ?! O
  93. Format                                   : UTF-8
    ) h; O% d: x8 w# q6 u& l
  94. Codec ID                                 : S_TEXT/UTF8( ~8 P  P3 y5 f+ X: E; n
  95. Codec ID/Info                            : UTF-8 Plain Text
    ! T/ j% W$ v: [' Z8 C* M* D
  96. Duration                                 : 40 min 34 s8 c1 m$ r( M. z8 R" R! t
  97. Bit rate                                 : 67 b/s
    - k0 U& j8 Y* l
  98. Count of elements                        : 500
    " j" B4 b; N; Q3 i; [! U% F
  99. Stream size                              : 20.1 KiB (0%)$ W  V2 L+ e4 F4 ]% _
  100. Language                                 : French
    ! A* K# @; Z+ H' Z9 E1 B
  101. Default                                  : No
    $ f6 ~2 U. ~5 t6 v2 j
  102. Forced                                   : No
    7 t8 `  F) {' B  Q
  103. / c# z' c" {8 L$ @
  104. Text #5( }2 u* _' B2 S) N6 ~$ n
  105. ID                                       : 70 J4 W* b0 u; L: J2 N$ b% R& N# M4 i
  106. Format                                   : UTF-8
    6 z+ w% q% C+ ^
  107. Codec ID                                 : S_TEXT/UTF8
    ; N* W0 }2 \5 |
  108. Codec ID/Info                            : UTF-8 Plain Text' d. l& w" r: @( |
  109. Duration                                 : 40 min 40 s
    % G4 l  t/ Z# ~( n
  110. Bit rate                                 : 64 b/s
    9 Y0 {* c9 G) u( ?: |4 E
  111. Count of elements                        : 5181 a7 L5 D2 z& ?$ n0 {% U* ~; F8 O" O
  112. Stream size                              : 19.3 KiB (0%)
    . y' U( ^' D* K# M; y- ?( [
  113. Title                                    : Simplified( p+ }% g( p% a3 ]2 z( Q
  114. Language                                 : Chinese9 j4 d, P6 Q8 Y4 L# @( w
  115. Default                                  : No9 o6 B4 s8 h5 j8 ^2 }
  116. Forced                                   : No2 Y. G" U, Z9 K* x
  117. 3 E" d; r9 R( ^" F
  118. Text #6
    % \* R1 U! `* P2 k- X' B, G, t
  119. ID                                       : 8# j6 r( o. f6 Y1 r. V
  120. Format                                   : UTF-8
    - l; ~  u8 K' I8 Z: f( l  P/ e& v
  121. Codec ID                                 : S_TEXT/UTF81 r9 r) N; A" ^) h- d  p- S6 l2 V
  122. Codec ID/Info                            : UTF-8 Plain Text
    9 q7 l0 Y/ w7 S7 {
  123. Duration                                 : 40 min 40 s: c6 f" r" }( f3 ^( ?* T- e! W- T. R( b
  124. Bit rate                                 : 63 b/s
    1 t& _9 @( P( }+ Y) U+ o
  125. Count of elements                        : 519
    2 o. F0 n: m; m$ e' f3 H+ u4 _1 O: y
  126. Stream size                              : 19.0 KiB (0%)
    " y$ [- P8 l( E& ]
  127. Title                                    : Traditional
    , J. b% s: U6 z5 r' [
  128. Language                                 : Chinese
    - s4 B1 O6 Y  y* ^
  129. Default                                  : No/ b) r2 ^# H1 C) S
  130. Forced                                   : No
复制代码

! \; {9 k+ z3 l
% ?% n. w# a* M/ f8 l: ^" a: K8 i# g/ K3 W. s) D9 v

, y. m4 O4 q' N8 w* O; J
: F: @  d5 f- h; \+ ^- L4 i4 a; m+ r- `. _& r

4 g7 h' }1 W; i! U8 G7 e# F4 r  g: D  w" _( @, u
6 d9 G; D. ?$ q4 ^
游客,如果您要查看本帖隐藏内容请回复  捐助论坛可免回复查看隐藏内容 详情请点击
发表于 2018-5-18 16:13:06 | 显示全部楼层
最喜欢看记录片了,谢谢啊
发表于 2018-5-28 15:43:02 | 显示全部楼层
先收下谢楼主
发表于 2018-5-28 22:53:28 | 显示全部楼层
好看的电影或纪录片!在HD一条街真的应有尽有!一切归功于我们的楼主大大的无私分享!谢谢啦。
发表于 2018-5-31 12:32:25 | 显示全部楼层
这个没看过,谢谢分享
发表于 2018-6-14 18:02:15 | 显示全部楼层
感谢分享~~~
发表于 2018-8-22 14:27:54 | 显示全部楼层
谢谢分享资源
您需要登录后才可以回帖 登录 | 立即注册

本版积分规则

封号公示|手机版|Archiver|有问题发邮件到admin#(换成@)hd1tj.org|微博|免责申明|HD一条街 |网站地图

GMT+8, 2018-9-22 11:51

快速回复 返回顶部 返回列表