HD一条街论坛

 找回密码
 立即注册
搜索
查看: 213|回复: 6

[欧美] 纪录片:暗夜摄影记 第一季[自带中文字幕]Shot.in.the.Dark.S01.1080p.NF.WEBRip.DD5.1.x264-SiGMA 14.6G

[复制链接]
发表于 2018-5-18 15:41:29 | 显示全部楼层 |阅读模式

3 ]' J. I! U! S( }  R; ~* q6 k                               
登录/注册后可看大图
' V8 A+ W8 j/ |6 G, ^1 @5 C
. z* `/ p! W5 X$ M5 S$ @
◎译  名 暗夜摄影记 第一季
, C2 U: g) J% p◎片  名 Shot in the Dark Season 1
5 J: C, Q+ U( z+ J6 e# h( F2 n9 N◎年  代 2017" A3 g- w5 U8 _$ o( ]% f) V# I
◎产  地 美国
1 \& f: s/ ?7 H7 i) G9 R, _◎类  别 纪录片/真人秀
! R) m) o9 j- f& @) ~◎语  言 英语
; Z) B$ \$ T: e+ D' {◎上映日期 2017-11-17(美国)
. [. z' ~- k" x7 h◎IMDb评分  8.1/10 from 861 users; W% C1 v5 X9 m4 f
◎IMDb链接  http://www.imdb.com/title/tt7644680/
: K$ H! G* t. S" P( C* J" I  t◎豆瓣评分 /10 from 0 users
: I, ?3 U0 j9 N6 N8 E/ b* a6 D◎豆瓣链接 https://movie.douban.com/subject/27591713/
* j, f+ z3 _1 V; v' N◎集  数 8+ W0 i( y: m5 l6 t

% c! I5 ]+ J, L3 @3 [  G◎简  介9 W8 A4 P: Y# h( q# w

- ]# s" r. o+ d5 y. D2 \8 s/ p  三位互相競爭的自由特約記者在夜晚走遍街頭,拍攝犯罪現場、火災、意外,以及能賣給新聞媒體的任何消息@HD一条街
  1. Video8 w7 e4 W: f# s  O
  2. ID                                       : 1& w9 v  W( r. u
  3. Format                                   : AVC
    ) h1 \5 p( a  H8 l$ W9 Q% n
  4. Format/Info                              : Advanced Video Codec1 B2 h; e! ~& n1 g& [
  5. Format profile                           : [email protected]
    9 I+ N  W9 k1 O/ v* L
  6. Format settings                          : CABAC / 3 Ref Frames5 T) z$ [3 B- l/ j! X
  7. Format settings, CABAC                   : Yes) o+ {) g- {+ g7 V$ r
  8. Format settings, ReFrames                : 3 frames
    - M. V' Y( Y9 m& N6 z
  9. Codec ID                                 : V_MPEG4/ISO/AVC
    , d2 T9 x8 k) \. }' y
  10. Duration                                 : 41 min 12 s
    & B1 w; ]7 q0 t
  11. Bit rate mode                            : Variable& F: F5 J6 A- z2 S# @
  12. Bit rate                                 : 7 500 kb/s( N1 j7 \7 Z" H% Y
  13. Maximum bit rate                         : 11.2 Mb/s9 K3 v0 t5 T7 {- K8 E" Q4 M
  14. Width                                    : 1 920 pixels8 e- i* a1 c; |7 ]5 {6 ^6 s1 U
  15. Height                                   : 1 080 pixels' p& v: v, A' F, @3 m- p! }
  16. Display aspect ratio                     : 16:9' @" z/ z* W5 a; X
  17. Frame rate mode                          : Constant) F7 Q! k. a* l
  18. Frame rate                               : 23.976 (24000/1001) FPS
    6 J) N( s' R  o# }7 |' r
  19. Color space                              : YUV
    7 |$ D" p9 ?! ?6 G& Z# w
  20. Chroma subsampling                       : 4:2:0) M* E4 a( S% \# ]
  21. Bit depth                                : 8 bits
    / X/ H# ~, t7 _; g3 H* I
  22. Scan type                                : Progressive
    / B0 q! a6 V1 [" B  w- o3 B
  23. Bits/(Pixel*Frame)                       : 0.151+ d- `) @3 g" `6 u( j2 z+ o! k
  24. Stream size                              : 2.14 GiB (95%). m4 K( h  P  X& r
  25. Writing library                          : x264 core 148
    ; f6 {2 Q2 j& ]) q# Q
  26. Encoding settings                        : cabac=1 / ref=3 / deblock=1:0:0 / analyse=0x1:0x111 / me=umh / subme=10 / psy=1 / psy_rd=1.00:0.00 / mixed_ref=1 / me_range=24 / chroma_me=1 / trellis=2 / 8x8dct=0 / cqm=0 / deadzone=21,11 / fast_pskip=1 / chroma_qp_offset=-2 / threads=8 / lookahead_threads=1 / sliced_threads=0 / nr=0 / decimate=1 / interlaced=0 / bluray_compat=0 / stitchable=1 / constrained_intra=0 / bframes=2 / b_pyramid=0 / b_adapt=2 / b_bias=0 / direct=3 / weightb=1 / open_gop=0 / weightp=2 / keyint=48 / keyint_min=25 / scenecut=0 / intra_refresh=0 / rc_lookahead=48 / rc=2pass / mbtree=1 / bitrate=7500 / ratetol=1.0 / qcomp=0.50 / qpmin=6 / qpmax=51 / qpstep=4 / cplxblur=20.0 / qblur=0.5 / vbv_maxrate=11250 / vbv_bufsize=15000 / nal_hrd=vbr / filler=0 / ip_ratio=1.40 / aq=1:1.005 h. ^6 d. C* T* P0 Q
  27. Default                                  : Yes- [  f7 B$ K1 g
  28. Forced                                   : No
    : K! y4 @2 d8 j& o; E: c
  29. , z9 D' U5 a! H. t9 x
  30. Audio
    4 b7 d  v  |+ T. i/ ^
  31. ID                                       : 2
    4 u$ `9 W0 ~6 t8 s8 p; e$ j: p
  32. Format                                   : AC-3
    1 d' ]9 M+ d; k; ]' |6 x  [
  33. Format/Info                              : Audio Coding 30 d9 I3 [0 u/ o& R7 `
  34. Codec ID                                 : A_AC3  ~6 j2 r# J2 k. g- h' o
  35. Duration                                 : 41 min 12 s0 m( f% E! q& |+ E* ?$ g! r' i
  36. Bit rate mode                            : Constant
    " }" m# @( G2 U& U4 ]/ w) d1 }
  37. Bit rate                                 : 384 kb/s+ O7 q% {* o$ ~! }
  38. Channel(s)                               : 6 channels; P! Y* E( ?: j) p% [
  39. Channel positions                        : Front: L C R, Side: L R, LFE
    1 W7 m; B" _) }* C
  40. Sampling rate                            : 48.0 kHz! [' W- g5 i4 {1 G# m
  41. Frame rate                               : 31.250 FPS (1536 SPF)5 t9 a, R& A, ]+ Z1 a* [
  42. Bit depth                                : 16 bits
    9 A/ Z) P# ~3 j$ V, U0 `3 Z
  43. Compression mode                         : Lossy1 b. _3 N. L) m" L1 {
  44. Stream size                              : 113 MiB (5%)
    * X+ D& u- }7 f% |9 H
  45. Language                                 : English8 S- d) i9 B5 x- N: \
  46. Service kind                             : Complete Main
    - B: N: i( a) U+ M+ [
  47. Default                                  : Yes
    ' D8 i2 N+ R6 B' y/ g& _3 \& L
  48. Forced                                   : No0 u8 s( W6 h, c4 E9 p
  49. 8 K4 l9 q" w" J
  50. Text #1
    1 l1 k9 V) g4 ?9 K, a
  51. ID                                       : 3& c, o5 T, I' f5 _4 N) n) H
  52. Format                                   : UTF-8) P' ^, {6 _, _5 y
  53. Codec ID                                 : S_TEXT/UTF8/ E+ V1 a& w; L0 ~) b
  54. Codec ID/Info                            : UTF-8 Plain Text
    " X! [, Z- s8 _* t+ J5 t5 p, b9 x8 Z1 |
  55. Duration                                 : 33 min 14 s" ~% B& n0 F. \+ F  C% O0 ~7 A. m. i/ f
  56. Bit rate                                 : 4 b/s( ?6 t3 L1 x" E% p
  57. Count of elements                        : 36
    6 z' [& q0 x' @
  58. Stream size                              : 1.14 KiB (0%)* K% t5 [9 F5 s! }! X
  59. Title                                    : Forced
    , z1 W* g( S7 ]8 m
  60. Language                                 : English1 F7 s) b! s% S2 B8 g1 S
  61. Default                                  : Yes9 [1 O+ k9 O6 G
  62. Forced                                   : Yes
    % q2 C) ?, h& \& w3 o

  63. ' S) W0 D& U% h& p. N% q. l3 p. j
  64. Text #2+ Z, W# F# C! w! ^
  65. ID                                       : 4
    ( s+ _& E& f3 f+ H# s
  66. Format                                   : UTF-80 C; n3 K! D- z/ l% e9 g
  67. Codec ID                                 : S_TEXT/UTF8
    ( U: V7 P# T. Q: s  A4 e) z
  68. Codec ID/Info                            : UTF-8 Plain Text4 b, ~% H; d6 v8 x4 q
  69. Duration                                 : 39 min 59 s
    ; ?+ U% \  V* y2 |3 d5 O
  70. Bit rate                                 : 73 b/s' K. j( E: ^: F2 G& {
  71. Count of elements                        : 519
    7 ?; B! `. u' u5 `& i1 J
  72. Stream size                              : 21.6 KiB (0%)6 R+ F0 J, E0 |( i( w$ d7 b6 f
  73. Title                                    : SDH3 v; t) `4 C6 T
  74. Language                                 : English
    $ N8 Q$ {8 ?( r# I; y6 Q3 Y
  75. Default                                  : No& ]: c8 a4 ~- d: M7 O& e
  76. Forced                                   : No5 i8 L) c# O8 ~" n& o9 _

  77. & m, r4 |/ ]7 F  w; n
  78. Text #3
    ! ]4 _/ Z7 ~- ]9 p' Z
  79. ID                                       : 5
    4 m* t0 G) z2 ]' b) a' z0 }
  80. Format                                   : UTF-8
    ! f! o7 S5 o3 o) X5 P) ~; ?7 h
  81. Codec ID                                 : S_TEXT/UTF8
    * q' h) [* r6 `
  82. Codec ID/Info                            : UTF-8 Plain Text
    % q. [2 n, X& H4 d. P2 ?7 d
  83. Duration                                 : 40 min 40 s
    7 q; Q& G+ {9 I9 F
  84. Bit rate                                 : 70 b/s, ~: `: P" r6 L6 b1 R9 z5 c& P7 x
  85. Count of elements                        : 499/ n+ J* V4 O! [
  86. Stream size                              : 21.2 KiB (0%)# ]/ j9 n1 |( p5 Z4 {
  87. Language                                 : Spanish9 s8 ?* g# I% r7 M- U
  88. Default                                  : No" H- d' E( _, P" e
  89. Forced                                   : No
    ' j) W: _: ?+ L

  90. $ i. g% D: [) f( s
  91. Text #4
    : Q8 ~! @4 @" \4 @# d! {3 d
  92. ID                                       : 69 c. R# B! z, J, }
  93. Format                                   : UTF-8
    7 l. b5 [4 D) T: S* |
  94. Codec ID                                 : S_TEXT/UTF8
    ( C1 `. ~8 q2 S0 k5 T9 S
  95. Codec ID/Info                            : UTF-8 Plain Text
    & h. u# S* x4 Z& \* R7 a2 A' E3 W
  96. Duration                                 : 40 min 34 s+ b) v6 P- ]6 ?5 t, m
  97. Bit rate                                 : 67 b/s
    + ^- f6 W' q7 |, Q
  98. Count of elements                        : 500
    & L0 E: F. p  S4 A6 M# i4 D
  99. Stream size                              : 20.1 KiB (0%)
    8 s. D/ |: L( }  g2 `
  100. Language                                 : French1 z: L# X2 j2 E( y* x% `1 V6 i2 D
  101. Default                                  : No
    3 x0 I& {7 R; S" x6 _
  102. Forced                                   : No& @" x- b4 o4 |' z6 g

  103. ) S% d: H9 C2 F# P% Z5 [6 J( x
  104. Text #5
    4 R# b$ h; F/ T8 z7 u) B
  105. ID                                       : 7: @' Y. W, w: p
  106. Format                                   : UTF-8
    8 M/ m3 V7 S7 P
  107. Codec ID                                 : S_TEXT/UTF8
    2 ]* p7 ~. O% o9 o% B
  108. Codec ID/Info                            : UTF-8 Plain Text* d* B9 W! k# i  r6 ?3 ]0 |, |
  109. Duration                                 : 40 min 40 s! z; U/ _( Q- {$ |8 K# Q0 F. E. k
  110. Bit rate                                 : 64 b/s
    & \( J* s" M  V& n  V3 N5 x
  111. Count of elements                        : 5187 R3 Q, j; J5 n4 s. C/ a0 ?
  112. Stream size                              : 19.3 KiB (0%)
    ( s: R+ q- l& a; z( o
  113. Title                                    : Simplified
    ; f6 i9 v6 L+ C; h! N
  114. Language                                 : Chinese: B' E3 u# t/ {2 Z( S
  115. Default                                  : No) I" u7 A% X) i! ~* E! z% h
  116. Forced                                   : No
    6 ^  p: ~9 {* E2 E; {
  117. 6 ~- X' q* m* O9 L1 U" z9 B* a. q2 @: |
  118. Text #6
    / B3 l8 [* c9 _: j* @8 a
  119. ID                                       : 8
    : z2 L8 `( C) @; l' M
  120. Format                                   : UTF-8+ M! I: a) T. l9 c7 S7 D& D2 N4 k) E
  121. Codec ID                                 : S_TEXT/UTF8% H( b) c0 b9 _
  122. Codec ID/Info                            : UTF-8 Plain Text
    6 ?2 I( E. @0 h, z3 A
  123. Duration                                 : 40 min 40 s. }4 v& C$ W" B. E1 _, [) m3 S
  124. Bit rate                                 : 63 b/s
    * Y7 B! {: I8 ?, w
  125. Count of elements                        : 519
    0 i0 F, N  Z$ s% A2 u' P# Z
  126. Stream size                              : 19.0 KiB (0%)
    ! N; k$ y' w9 [* F% t
  127. Title                                    : Traditional
    5 v$ t5 c. E1 ^; a
  128. Language                                 : Chinese
    9 H7 V) _# y; [8 O/ K- t
  129. Default                                  : No
    : l" v7 I: ^7 y1 M8 v; c
  130. Forced                                   : No
复制代码

# u0 U$ Y, Z) }' o- `1 [; ]: s' U
' ^/ O/ C. k+ l; w1 \8 A/ b8 b; I. X+ C/ J( j8 s/ @- e

# [, D. U9 O! R% T/ e
, h$ u! u" }/ n( O7 m3 S- K$ ]' |$ {% ]. {
" x: Y% \+ B' _
  H1 _( X2 i& h% e
; Y2 a3 {+ d; c- i
游客,如果您要查看本帖隐藏内容请回复  捐助论坛可免回复查看隐藏内容 详情请点击
发表于 2018-5-18 16:13:06 | 显示全部楼层
最喜欢看记录片了,谢谢啊
发表于 2018-5-28 15:43:02 | 显示全部楼层
先收下谢楼主
发表于 2018-5-28 22:53:28 | 显示全部楼层
好看的电影或纪录片!在HD一条街真的应有尽有!一切归功于我们的楼主大大的无私分享!谢谢啦。
发表于 2018-5-31 12:32:25 | 显示全部楼层
这个没看过,谢谢分享
发表于 2018-6-14 18:02:15 | 显示全部楼层
感谢分享~~~
发表于 2018-8-22 14:27:54 | 显示全部楼层
谢谢分享资源
您需要登录后才可以回帖 登录 | 立即注册

本版积分规则

封号公示|手机版|Archiver|有问题发邮件到admin#(换成@)hd1tj.org|微博|免责申明|HD一条街

GMT+8, 2018-11-18 10:16

快速回复 返回顶部 返回列表