HD一条街论坛

 找回密码
 立即注册
搜索
查看: 14|回复: 1

[1080P] 亲爱的白人们 第一季[自带中文字幕]Dear.White.People.S01.1080p.NF.WEBRip.DD5.1.x264-QOQ 19.96G

[复制链接]
发表于 2018-5-18 11:14:40 | 显示全部楼层 |阅读模式

+ j( [$ t3 H6 a- G7 p) J5 \* T: R
  x5 j8 k' v3 @◎译  名 亲爱的白人们 第一季/亲爱的白人(台)  \- Q: d) @$ Z9 m2 C7 A
◎片  名 Dear White People Season 1
8 V; d& g# `+ A◎年  代 20170 D7 v0 v8 V3 \7 \5 d0 `
◎产  地 美国4 z3 N( O9 j  A, F* J
◎类  别 喜剧8 X" [: v$ z  M* g" D6 J6 N
◎语  言 英语! l7 L. T1 Z( [) Y5 X, e$ J; d
◎上映日期 2017-04-28(美国)
5 C3 t# i0 Q: L' b3 r; ^; g  {: L* V◎IMDb评分  6.3/10 from 14,589 users7 c8 _% Y, h1 d8 x
◎IMDb链接  http://www.imdb.com/title/tt5707802/# K& @: t/ F" O# i! H# N2 Y) I8 p
◎豆瓣评分 8.1/10 from 137 users
+ u* p( ~, ^% N) d◎豆瓣链接 https://movie.douban.com/subject/26787150/, @, l: {0 L: X& A
◎集  数 10% _/ n# {+ L8 D4 g, |) d9 a% t
◎导  演 蒂娜·马布里 Tina Mabry / 巴里·詹金斯 Barry Jenkins / 贾斯汀·西米恩 Justin Simien- V2 v/ Y3 b) g( \1 Y$ W
◎主  演 约翰·帕特里克·阿梅多利 John Patrick Amedori
' q0 @" v# o% u" J      马克·理查德森二世 Marque Richardson II
+ }) ~# A" G0 t- L      凯特琳·卡弗 Caitlin Carver
; ]5 P" L' a+ v: b$ g      奥巴·巴巴图德 Obba Babatundé
7 k+ I, E5 d% A" W      Antoinette Robertson
7 q/ x, _1 u( J9 l7 O5 u      Brandon P Bell
& |$ v$ |. Y! f3 O; u1 ?+ n5 s6 m      Logan Browning1 o/ `$ K9 i3 v9 k% {0 I
      Ashley Blaine Featherson7 h7 F5 _. a$ a0 [- J
      Jeremy Tardy
1 v; y3 ]* V3 I8 q% K
2 e' O7 A9 z# k- Z6 Y◎简  介5 Q* ^" q/ f4 e* q4 b# q: f- e
) @4 X5 }. b- ]# d5 w
  Netflix宣布拍摄根据电影改篇《亲爱的白人们 Dear White People》的同名半小时喜剧,直接给了10集预订。《亲爱的白人们》导演及编剧Justin Simien,将负责为剧集版写剧本,以及执导首集。. x- |# |. }. f4 [" z+ {6 O
  Brandon P. Bell继续饰演电影中的角色Troy Fairbanks,是训导主任的迷人儿子,主修政治学,争取成为Winchester大学中首位学生主席。他为了理想可以把自己的梦想放在一边,即使这会令他的个人及私人生活难以分离。
0 k1 a& h4 [3 s  Logan Browning饰演Samantha White,在常春藤名校中主修电影,以及有自己的广播节目「亲爱的白人们 Dear White People」,令到她在这校中有其一言之处。8 ]  H5 i( x& l
  Antoinette Robertson扮演Coco Conners,一个身材火辣的经济学专业学生,为了迎合Winchester的口味,舍弃自己天然的头发,而整天带着一顶白人主流观点好看的假发。不受黑人主题派对(the blackface party)的影响,她直接谴责Samantha White,她那所谓入门级黑色愤怒和她那自以为好事的《亲爱的白人们》电台节目。  V, K8 d& v. K' `
  DeRon Horton扮演Lionel Higgins,自称是书呆子,最近因为是学校唯一一个报道震惊Winchester的黑人主题派对的第一手资料的学生记者,成为不寻常的英雄。虽然如此,但是他还有更大的挑战,就是他是一个同性恋。非裔美国人文化对同性恋有难以逾越的鸿沟。8 D9 S8 @* g' N& o& T) T; m7 `4 ~$ G* ^
  John Patrick Amedori扮演Gabe,Samantha的平等权利战友。他爱着Samantha,希望跟她有进一步的发展,但是他觉得Samantha种族政治运动的风潮运动的推展,使他两的关系越来越远。* _( m& N; ]8 x- f; M# a0 y. {4 F; m
  Ashley Blaine Featherson扮演Joelle Brooks,解密高手,也是Samantha最好的朋友。她聪明、有趣、迷人,但是却甘愿躲在Samantha背后,让Samantha人生闪耀。不过后来,却发现自己更想要那样的闪耀人生,开始妒忌Samantha。
! P7 T/ O4 W1 n7 B, j! e* X) \  Marque Richardson扮演Reggie Green,该角色在电影版也由他饰演。他是一名计算机科学专业学生,也是Samantha的左右手。# j3 N% I$ _3 A% M* @" ^& L
  剧集17年下半年开始拍摄,制片公司是Lionsgate ,他们为Netflix制作了大热剧《女子监狱 Orange Is The New Black》。《女子监狱》第四季在美国时间6月17日放出。, D3 ^7 O! V8 C: h

# J7 z, L: r5 _% n+ z1 O0 H◎获奖情况& n7 q7 V/ s, q0 @0 Q$ y

% R+ `1 j5 D& u" j. y3 h  第27届哥谭独立电影奖  (2017)0 W# o: q- U% F% W
  最佳突破剧集(提名)
  1. Video" n& P# M" n, S
  2. ID                                       : 1
    : `+ i. ^  f& ^
  3. Format                                   : AVC2 B" a3 A9 y' U8 Z
  4. Format/Info                              : Advanced Video Codec
    9 R0 q( a' J  F& q& {9 m
  5. Format profile                           : [email protected]; s" A  Z6 {: f) {; q# x: y2 Z) Q3 h
  6. Format settings                          : CABAC / 4 Ref Frames
    4 [/ |0 v$ D$ z5 }! w' G
  7. Format settings, CABAC                   : Yes3 H' C2 d# ?( r- v" M0 o. \  J! V
  8. Format settings, ReFrames                : 4 frames
    - ?8 x2 e+ N1 M+ O7 u6 F1 z$ q2 }
  9. Codec ID                                 : V_MPEG4/ISO/AVC
    ( Z# H3 T1 k& T& v$ w
  10. Duration                                 : 28 min 10 s  K4 P2 |! K7 R: \5 `( y! c/ j
  11. Bit rate                                 : 11.0 Mb/s% D$ N5 p+ c4 |& h, v( J
  12. Width                                    : 1 920 pixels  x4 x! P/ ?- X/ o+ j
  13. Height                                   : 960 pixels0 _  F% p% Q6 T" \
  14. Display aspect ratio                     : 2.000
    4 x8 B' N5 {( N& r) S, h, I5 L+ q
  15. Frame rate mode                          : Constant( [5 F0 I: F7 c' z* \
  16. Frame rate                               : 23.976 (24000/1001) FPS6 }5 X. Z- g0 m# k# V
  17. Color space                              : YUV
    # o! N2 `( t: a8 I% Y, p( D2 Q
  18. Chroma subsampling                       : 4:2:0
    1 Q8 e9 ]/ w) D( V" P
  19. Bit depth                                : 8 bits
    , D! Y3 o9 D/ u( Y: [/ Z8 }! C; `
  20. Scan type                                : Progressive
    : H5 ]7 @$ o( C% T
  21. Bits/(Pixel*Frame)                       : 0.2494 \1 E$ d, ?) r7 E3 J- w8 V! S
  22. Stream size                              : 2.17 GiB (97%)$ e2 E8 P/ K6 x
  23. Writing library                          : x264 core 148 r2744 b97ae06  j/ l5 j; R6 l7 m  J( O
  24. Encoding settings                        : cabac=1 / ref=4 / deblock=1:-3:-3 / analyse=0x3:0x133 / me=umh / subme=10 / psy=1 / psy_rd=1.00:0.00 / mixed_ref=1 / me_range=48 / chroma_me=1 / trellis=2 / 8x8dct=1 / cqm=0 / deadzone=21,11 / fast_pskip=0 / chroma_qp_offset=-2 / threads=12 / lookahead_threads=2 / sliced_threads=0 / nr=0 / decimate=0 / interlaced=0 / bluray_compat=0 / constrained_intra=0 / bframes=9 / b_pyramid=2 / b_adapt=2 / b_bias=0 / direct=3 / weightb=1 / open_gop=0 / weightp=2 / keyint=240 / keyint_min=23 / scenecut=40 / intra_refresh=0 / rc=crf / mbtree=0 / crf=17.0 / qcomp=0.60 / qpmin=0 / qpmax=69 / qpstep=4 / ip_ratio=1.40 / pb_ratio=1.30 / aq=3:0.80
    4 s3 O# W2 n# e1 l( n- D
  25. Language                                 : English7 X3 U% l" X/ f. a
  26. Default                                  : Yes
    ) ^7 }8 ?* x  t5 E
  27. Forced                                   : No
    9 G, l* h9 T8 y5 H, |

  28. * s1 C3 i2 z" j& m6 G+ F
  29. Audio
    # K: u, `' P3 S: H) b* P
  30. ID                                       : 2) t4 w  @( F. ?. q( |
  31. Format                                   : AC-3
    ! V1 u2 z3 [, t; ?+ u
  32. Format/Info                              : Audio Coding 3
      B5 S9 t' [" C2 C* @: g. k& }* [: S. Z
  33. Codec ID                                 : A_AC3
    + Z& Y0 U3 s# ]. w6 X* q
  34. Duration                                 : 28 min 10 s, d& v  Y) h0 U1 |" T
  35. Bit rate mode                            : Constant
    $ Z6 ~# |' L9 T( {9 }
  36. Bit rate                                 : 384 kb/s8 c8 ~% R$ _- z& B# b5 ]( _) U1 ?  _
  37. Channel(s)                               : 6 channels/ X2 C) Y- T$ U* m) x" \
  38. Channel positions                        : Front: L C R, Side: L R, LFE5 v6 S# E9 T0 w$ ^: k. Q
  39. Sampling rate                            : 48.0 kHz% o  f6 U* k9 S6 A
  40. Frame rate                               : 31.250 FPS (1536 SPF)3 U0 \: |, m1 ^$ J
  41. Bit depth                                : 16 bits
    - X+ @/ W$ [( X7 |8 e0 U: Z; @
  42. Compression mode                         : Lossy$ A* l( p" E0 W" T
  43. Stream size                              : 77.4 MiB (3%)" A) X' [% @+ `2 V  d; F7 O
  44. Service kind                             : Complete Main& \1 A) H7 ~) f6 H: m  u
  45. Default                                  : Yes. z: K; y' v9 t7 q- R1 p% @
  46. Forced                                   : No  r. e% y5 O- I4 n* I
  47. , |0 D0 Z: b8 O2 B& o
  48. Text #1
    , M6 i& O7 k" j6 [9 R
  49. ID                                       : 3
    0 ?) n, I1 M$ \1 h
  50. Format                                   : UTF-84 c: N( V  i6 K) d% [) @$ U
  51. Codec ID                                 : S_TEXT/UTF8
    0 l* h" }, L& {
  52. Codec ID/Info                            : UTF-8 Plain Text
    " h* ]) _2 U4 X5 t! Y7 y8 h
  53. Duration                                 : 27 min 16 s  s/ S4 k, {. W. a/ ~2 Q
  54. Bit rate                                 : 97 b/s
    ( N2 F2 O6 l: O4 Q
  55. Count of elements                        : 588* Q3 ?6 b6 u* [, A. w" ?
  56. Stream size                              : 19.5 KiB (0%)+ m/ g8 p4 x* `) P
  57. Language                                 : English
    ; a6 I- q, a3 D# }( U& X
  58. Default                                  : No9 o. O4 b$ ]" R& v) W1 ?
  59. Forced                                   : No
    ! k* h2 `0 Z. a# k9 ^4 ]! C

  60. ' N8 K7 F, f9 B, y
  61. Text #2
    7 H- _/ k2 `2 m7 x
  62. ID                                       : 4
    $ }/ w9 v9 P$ ]
  63. Format                                   : UTF-8& _* B1 [0 h  z$ W4 M( [0 i2 l9 g4 g
  64. Codec ID                                 : S_TEXT/UTF83 p$ n2 ]4 S, h& B
  65. Codec ID/Info                            : UTF-8 Plain Text/ f8 Y% \( M' x3 {6 x  v) S
  66. Duration                                 : 27 min 33 s7 u! H% k# B! o7 r) f) k" ^
  67. Bit rate                                 : 90 b/s0 v" v. L6 F* M7 m+ [4 X
  68. Count of elements                        : 4175 p' ^  U* g8 V$ u$ K8 s8 a
  69. Stream size                              : 18.2 KiB (0%)
    ) u: \' {* _2 R  f% w9 G
  70. Language                                 : French
    + C. T7 x2 C6 O
  71. Default                                  : No4 L9 E) A3 b- q$ ~. h
  72. Forced                                   : No$ C! h: {- i( I( s# v5 N  j

  73. 7 q5 c3 O/ {# w& O2 _. e
  74. Text #3
    . B8 F  H8 q! V' T7 q/ q
  75. ID                                       : 5
    : f. Z' E: j5 b( l* s+ k
  76. Format                                   : UTF-8
    3 X3 x9 k- J; X9 y
  77. Codec ID                                 : S_TEXT/UTF8
    % j! o( ~, A* ?9 U
  78. Codec ID/Info                            : UTF-8 Plain Text
    $ F3 _& q2 @/ R- h  s
  79. Duration                                 : 27 min 21 s- j( o2 J+ c, |8 i
  80. Bit rate                                 : 77 b/s3 B& @& w$ k* T: a+ a5 }
  81. Count of elements                        : 407) J) c" a; ]" D( l
  82. Stream size                              : 15.4 KiB (0%)
    9 i- P9 J: c; x5 k2 T- y( S
  83. Language                                 : Spanish
    # m9 S0 T$ l: z& u
  84. Default                                  : No( O1 P" Q; X( i# l  V. l  m* P
  85. Forced                                   : No0 [5 F; ^9 y6 I4 }; f' {8 G

  86. # P  J9 `$ P5 z* [# q
  87. Text #4# n/ R% h; C: ~2 {6 W5 ?# f# p5 v
  88. ID                                       : 6  a$ ~4 H" I- H7 d
  89. Format                                   : UTF-8" |8 i3 {1 O$ ~( G7 q! i  G$ `7 q! q
  90. Codec ID                                 : S_TEXT/UTF89 x7 m4 d/ d& G' v
  91. Codec ID/Info                            : UTF-8 Plain Text# _/ Q6 s( ]. E: ~5 }
  92. Duration                                 : 27 min 37 s
    3 k: W# J4 y' U+ o9 a& k/ m
  93. Bit rate                                 : 72 b/s% E5 Y  J- B$ f
  94. Count of elements                        : 420
    6 M+ Q  r' `, g8 l3 B2 D
  95. Stream size                              : 14.6 KiB (0%)
    ! O9 D. `4 r& P* T
  96. Title                                    : Simplified
    : e' T. v/ X; u( y/ n5 p+ R
  97. Language                                 : Chinese
    * k- a- L1 a3 G8 K  u, n) ?# {
  98. Default                                  : No
    ; U* H  W4 |  w2 f, I. A
  99. Forced                                   : No
    . F4 ~7 P7 R# A% g" X4 c% c

  100. : w1 X' `9 m* O" K
  101. Text #5
    4 H+ }; `) p. M+ z" `
  102. ID                                       : 7' m( T* h) m) n/ z
  103. Format                                   : UTF-85 _) l" e' _* P2 ?) y
  104. Codec ID                                 : S_TEXT/UTF8- @2 m2 Z/ L$ V! ?/ m) `" s
  105. Codec ID/Info                            : UTF-8 Plain Text
    , j5 z  [6 H( J. A7 a# T# q' L
  106. Duration                                 : 27 min 37 s
    8 w2 n! F3 H7 v* H' N: w
  107. Bit rate                                 : 82 b/s1 I) ]  i7 T) ]% Y
  108. Count of elements                        : 419
    / e( X$ l$ {3 i* T( U8 S: C
  109. Stream size                              : 16.7 KiB (0%)0 X1 p1 c% e7 F; _# X- W
  110. Title                                    : Traditional
    7 N# l: ~6 K- \! H- N# f* r
  111. Language                                 : Chinese
    0 c; @0 f& p/ Q( e
  112. Default                                  : No
    8 y" K; V+ K% u/ s1 j
  113. Forced                                   : No
复制代码

% j) l, J2 P- Q2 K: p8 m7 T+ `. E1 t
( H. E  O: ]! w: J5 k- ^
9 E5 _8 G! m. R. A' [* B4 |$ Y" D, Z2 k6 ?( q5 f$ S; j( H
( |6 x. _  r* \; D% {8 \) s) E

# K/ I9 W: w( N, r0 e( W
游客,如果您要查看本帖隐藏内容请回复  捐助论坛可免回复查看隐藏内容 详情请点击
发表于 2018-5-18 14:07:57 | 显示全部楼层
喜欢约翰·帕特里克·阿梅多利主演的电视剧
您需要登录后才可以回帖 登录 | 立即注册

本版积分规则

封号公示|手机版|Archiver|有问题发邮件到admin#(换成@)hd1tj.org|微博|免责申明|HD一条街 |网站地图

GMT+8, 2018-7-18 22:33

快速回复 返回顶部 返回列表