HD一条街论坛

 找回密码
 立即注册
搜索
查看: 310|回复: 1

[欧美] 纪录片:苦艾草[自带中文字幕]Wormwood.S01.1080p.NF.WEBRip.DDP5.1.x264-QOQ 16G

[复制链接]
发表于 2018-5-18 11:06:19 | 显示全部楼层 |阅读模式

8 u0 o5 j, v- q) R$ p3 Z* g# Q9 T5 W7 l2 Y7 x8 l6 h
◎译  名 苦艾草/苦艾/苦蒿之谜4 H. u+ S: q& P/ B5 \* z
◎片  名 Wormwood
3 Y9 z6 h  S: n6 l◎年  代 2017
" v7 V7 U5 D/ ^6 ~) i+ Z% `) p5 z◎产  地 美国
8 M0 q! F& g( _3 [+ o◎类  别 传记/纪录片
# k- [- q9 }. y8 r9 Z, _$ ?6 c◎语  言 英语
( N; R( _- s; z◎上映日期 2017-09-06(威尼斯电影节)/2017-12-15(美国)
; D: _3 R( B: J/ Y0 L: K! `◎IMDb评分  7.1/10 from 2,101 users
# N0 h1 x9 G4 z7 c* e◎IMDb链接  http://www.imdb.com/title/tt7306056/
, c/ Q6 u9 }' T/ n2 S8 G8 j2 N% g◎豆瓣评分 /10 from 0 users
; c# q& h) G. I/ o$ ^◎豆瓣链接 https://movie.douban.com/subject/27125676/) F$ g5 z+ `. t3 I4 r
◎集  数 6
# x- i1 H) a3 W8 N" ?! P# {# A◎导  演 埃罗尔·莫里斯 Errol Morris
) F& P, p# W4 k0 O* B$ [" u◎主  演 彼得·萨斯加德 Peter Sarsgaard
. {  M0 `' O6 O  j( q, \0 \( g      蒂姆·布雷克·尼尔森 Tim Blake Nelson
2 h5 P7 [% ~' a- F; }' {# ~  N      莫莉·帕克 Molly Parker
! d7 _+ C  M8 g5 {0 j9 `      约翰·道曼 John Doman- s* u$ f& e, [# U9 I$ y
      杰克·奥康耐 Jack O'Connell
; d2 K/ |5 m# m5 r2 D6 g      斯科特· 谢泼德 Scott Shepherd
# n: ]3 y2 \' I. E3 X      鲍勃·巴拉班 Bob Balaban
9 J; T+ W2 l3 H$ U      凯莉·巴雷特 Kelli Barrett) k  S. t* o/ s7 }, f" p3 h" r5 k6 i
      克里斯蒂安·卡玛戈 Christian Camargo; w, f! P% L! N9 {; Y
      迈克尔·切鲁斯 Michael Chernus
0 e4 Z0 a! |! J& r      蔡斯·凯利 Chance Kelly
" @6 E# D4 B/ b# L/ V' `3 {      吉米·辛普森 Jimmi Simpson
) \' w( M1 o( c0 v0 j5 I& }" E! g8 W9 a7 a7 r% C- {
◎简  介% l. r: Y9 m9 w
6 K6 Q+ ^" N6 z9 ^
  在这部杂揉各种类型的故事中,埃洛·莫里斯探讨一位美国科学家神秘死亡一案。他在冷战时期卷入名为“心灵控制计划”的机密计划。
- V* l$ O; V: a( [
; ]# m9 A8 E! y- S- o8 ~3 G( D◎获奖情况
  T/ ^8 y; }8 L# [" B# K6 I0 L
+ v4 s/ Q8 z# o" e. m  `  第70届美国导演工会奖  (2018)
' @5 l& f3 c; E+ \( B  最佳纪录片导演(提名) 埃罗尔·莫里斯
  1. Video
    % f. ?* D3 K2 @$ a8 |
  2. ID                                       : 1
    # @1 h" j; l% G4 a! U! @0 z6 ?$ X! F
  3. Format                                   : AVC
    / H1 O  R# |- r( I
  4. Format/Info                              : Advanced Video Codec8 e' o& ^6 T8 N  H+ z) i  Y0 {
  5. Format profile                           : [email protected]0 P% v! _/ \: \9 Q
  6. Format settings                          : CABAC / 4 Ref Frames
    ) l# f# W/ O6 P
  7. Format settings, CABAC                   : Yes
    & B+ I' i. g% X6 _( t& }% d# ^7 n* d
  8. Format settings, ReFrames                : 4 frames: r0 j* I. Y, S! i$ @& |$ J
  9. Codec ID                                 : V_MPEG4/ISO/AVC8 ~% u7 E' E+ S% g, o; b
  10. Duration                                 : 47 min 27 s
      `! ]0 x: z+ ~# k# ~: g
  11. Bit rate                                 : 8 423 kb/s
    & b. X3 p. O! e' g+ h( i
  12. Width                                    : 1 920 pixels1 Q% G9 ^& C* \- T8 E
  13. Height                                   : 1 080 pixels/ H4 m) y7 k) N3 |) R2 l  M2 j
  14. Display aspect ratio                     : 16:9
    / A4 s0 \8 G" Q5 z8 l# f
  15. Frame rate mode                          : Constant
      u! _& L- \0 Y
  16. Frame rate                               : 23.976 (23976/1000) FPS5 I. @: {9 p# s1 J; n4 ]
  17. Color space                              : YUV
    3 `1 V5 e" i0 b
  18. Chroma subsampling                       : 4:2:0
      n. g* ]1 t' v+ O& |+ d
  19. Bit depth                                : 8 bits4 O9 z' S$ j" P' Q: \
  20. Scan type                                : Progressive8 K7 K3 _- k* k4 U
  21. Bits/(Pixel*Frame)                       : 0.169. K; L8 G$ r6 c' q, j' l1 h6 c: w" ]* c
  22. Stream size                              : 2.79 GiB (95%)
    7 j" ?. @* z' J, i5 t% a8 {5 C
  23. Writing library                          : x264 core 152 r2851 ba24899+ D& P8 x; B% _% v
  24. Encoding settings                        : cabac=1 / ref=4 / deblock=1:-3:-3 / analyse=0x3:0x133 / me=umh / subme=11 / psy=1 / psy_rd=1.00:0.00 / mixed_ref=1 / me_range=64 / chroma_me=1 / trellis=2 / 8x8dct=1 / cqm=0 / deadzone=21,11 / fast_pskip=0 / chroma_qp_offset=-2 / threads=12 / lookahead_threads=3 / sliced_threads=0 / nr=0 / decimate=0 / interlaced=0 / bluray_compat=0 / constrained_intra=0 / bframes=16 / b_pyramid=2 / b_adapt=2 / b_bias=0 / direct=3 / weightb=1 / open_gop=0 / weightp=2 / keyint=250 / keyint_min=23 / scenecut=40 / intra_refresh=0 / rc=crf / mbtree=0 / crf=15.3 / qcomp=0.65 / qpmin=0 / qpmax=69 / qpstep=4 / ip_ratio=1.40 / pb_ratio=1.10 / aq=3:0.70: S1 N9 Z  f$ G6 J; v4 O0 q
  25. Language                                 : English2 x' @4 B, m$ \0 _) m
  26. Default                                  : Yes
    - V7 i1 u) K" E* Z
  27. Forced                                   : No
    4 u9 j: @$ a7 B( g4 {; g4 s

  28. 6 n6 H2 I6 ~( i
  29. Audio
    - Y3 {% I) I5 [, w3 N( S
  30. ID                                       : 2
    * K  @, ^5 m& e% [1 N% K$ j
  31. Format                                   : E-AC-3: q4 s; e& L* @. a  c
  32. Format/Info                              : Enhanced Audio Coding 3
    ) U" K& a: G; |% Y
  33. Format profile                           : E-AC-3+Atmos / E-AC-3
    ! ]; u$ j- C- u- u7 Q1 ^
  34. Codec ID                                 : A_EAC3
    0 A0 n0 V% C+ \' Y9 \
  35. Duration                                 : 47 min 5 s
    8 `: e* n( w6 O3 P
  36. Bit rate mode                            : Constant
    , M, n  \7 i6 @7 P5 Z1 |
  37. Bit rate                                 : 448 kb/s. `( v4 m" Q% D5 ]% M. P
  38. Channel(s)                               : 15 objects / 6 channels# H! @: m. ?/ W8 ~2 V6 X
  39. Channel positions                        : 15 objects / Front: L C R, Side: L R, LFE
    1 }5 M% L; A1 A0 h) A) W
  40. Sampling rate                            : 48.0 kHz. {+ e% o! n+ u4 ], ]
  41. Frame rate                               : 187.500 FPS (256 SPF)
    6 J, m/ x$ c8 v4 g1 H9 }9 d
  42. Compression mode                         : Lossy. f% ^4 ^* c- e2 G! A5 Y
  43. Stream size                              : 151 MiB (5%)
    , r8 q( H; N% b: }" w5 ^
  44. Language                                 : English
    ( U5 R6 h2 p4 W% t- x
  45. Service kind                             : Complete Main7 J% y$ R) W$ h* W; {( Q7 H. l
  46. Default                                  : Yes
    ( y. A/ \5 s! T+ i! F
  47. Forced                                   : No
    - K3 {/ G6 a3 q! ~* B* b

  48. ! p. b" ^- U3 K' F
  49. Text #1$ P/ J" u- G9 B. f
  50. ID                                       : 3
      P( k" |) Z0 h) e0 F, w
  51. Format                                   : UTF-8
    1 c! O+ ^/ J& [* i8 \8 h3 ~* M, R
  52. Codec ID                                 : S_TEXT/UTF8
    1 h8 \- Y7 Y/ o2 u7 J/ Z) r( f( j! w
  53. Codec ID/Info                            : UTF-8 Plain Text0 p3 j) c$ K5 n1 J. k  k% ~0 u2 s5 u" \
  54. Duration                                 : 46 min 40 s. G/ p3 J6 F( R* u" i
  55. Bit rate                                 : 62 b/s
    ! F! S) @# t* [" }! T
  56. Count of elements                        : 568
    $ _. O4 C: z; _9 r2 d  s
  57. Stream size                              : 21.4 KiB (0%)' Y' v( d, W3 M' A: s
  58. Title                                    : SDH
    " H) J0 {4 M+ D+ R+ q+ Y
  59. Language                                 : English- D- x" O( I# [! B3 ~9 d! Q% d. L" B
  60. Default                                  : No4 n/ K) @( x1 i# O
  61. Forced                                   : No9 {" i3 C2 C# q& ]

  62. 3 |7 u+ U; C2 {
  63. Text #2
    % f1 i1 O% w& f
  64. ID                                       : 4
    % _# `6 H2 _$ ?9 G1 A
  65. Format                                   : UTF-8! h* H6 B# G8 e3 v0 A( _' t
  66. Codec ID                                 : S_TEXT/UTF85 O2 S2 Q# y3 P3 Z. \
  67. Codec ID/Info                            : UTF-8 Plain Text/ a) i# b9 p; K8 C8 E* o
  68. Duration                                 : 43 min 27 s
    ( Y: X$ j, h) t0 E( F  R
  69. Bit rate                                 : 65 b/s
    / N" w" {# J3 u0 M" I, U
  70. Count of elements                        : 563
    . k, l( z( k3 s% L7 c
  71. Stream size                              : 20.8 KiB (0%)
    # V0 c6 ^# _! i+ J+ o
  72. Language                                 : Spanish4 F. i" Y! Q% t% {" N) A) w2 ^3 V+ x
  73. Default                                  : No
    " Z6 ~4 z' z/ Q# P
  74. Forced                                   : No6 M$ i$ B8 f* V7 d9 n/ I

  75. ( s7 U* Z$ E. @* k. {3 A6 @  d
  76. Text #3
    - T2 J; c' C& j% b+ f' O
  77. ID                                       : 5
    ( `1 v: P" ~; v: W
  78. Format                                   : UTF-8
    ; g) `5 c7 t9 W2 D( a
  79. Codec ID                                 : S_TEXT/UTF8
    ! l) w0 e2 f! h( f' K' h
  80. Codec ID/Info                            : UTF-8 Plain Text
    5 Z/ E( g; H/ ?! {1 J; E0 J6 p. l
  81. Duration                                 : 43 min 27 s- M' E6 K' Y. ~7 G" z% I% v. a, q% V) W" W
  82. Bit rate                                 : 62 b/s
    & z; Y% e8 }4 J, y/ l5 ]+ [) M/ n+ ]
  83. Count of elements                        : 552
    & B  S( b$ y! G6 O  x
  84. Stream size                              : 20.0 KiB (0%)! R: m2 g8 K- M- R7 ]
  85. Language                                 : French
    ) G3 k$ ]4 Y9 s& S" t
  86. Default                                  : No
    ' j" }4 p: R* x! Q4 C
  87. Forced                                   : No: R, p) Y) q- N( Q- Y: t

  88. $ G' H+ W$ \: h4 u
  89. Text #4
    + }( o. J4 ]8 ]% ^+ J1 A- o5 I4 f: ]
  90. ID                                       : 6
    . d8 }9 t' `9 L5 T  B3 [, X5 u8 j
  91. Format                                   : UTF-8. N8 D( O+ x" I
  92. Codec ID                                 : S_TEXT/UTF8
    ' m) A, h1 J( X3 F6 S( ?, i6 O
  93. Codec ID/Info                            : UTF-8 Plain Text
    3 A$ c, |, P# e; g8 L( B7 Q! Z
  94. Duration                                 : 43 min 27 s
    * Q2 Q# L1 K, i' e/ ?
  95. Bit rate                                 : 55 b/s7 y9 p; p: m" i& a
  96. Count of elements                        : 568
    5 X# U1 G. U) p- E
  97. Stream size                              : 17.8 KiB (0%)
    " L9 z- i- c7 C7 k8 `8 F' L
  98. Language                                 : Chinese1 f: }: s: F! k) g+ V! k  B7 @
  99. Default                                  : No
    4 M% x+ r( `# ~! B
  100. Forced                                   : No3 N  M' X+ Z( t
  101. 5 p8 x" q' ^, {) ?: }5 o6 h: |' R( ?
  102. Text #54 _( Q& _% U: c- s" C3 _) M: ]
  103. ID                                       : 75 ?6 S! g( O, a% |- F: X' ^# f" Y
  104. Format                                   : UTF-8) f  Y. h/ i- N! m4 U" a4 \2 ~' A
  105. Codec ID                                 : S_TEXT/UTF8
    # r- t8 }* z1 l
  106. Codec ID/Info                            : UTF-8 Plain Text
    * r3 c% y" P3 W1 b, g* @
  107. Duration                                 : 43 min 27 s
    , Y# l; i: l4 N3 O
  108. Bit rate                                 : 56 b/s
    0 t8 _- V3 w, B& f+ w$ f/ m8 a, ~! p
  109. Count of elements                        : 568
    ! [4 k4 f$ v( j. g
  110. Stream size                              : 17.9 KiB (0%)
    ' T4 K6 L, o3 C% R6 p3 g/ i
  111. Language                                 : Chinese8 g/ A( Y& z. ]8 u5 v
  112. Default                                  : No
    * P4 M+ B3 K. J' A3 w7 X% J
  113. Forced                                   : No
复制代码

" ?3 a) P2 {& S% u8 F. Y) U; e2 E+ W$ N- Z
, z2 c( N- {. S2 ~& a

- [2 c! c; Z; Y2 l! C" L/ h5 _6 _4 K0 q; ]4 o) C
+ s. S! V+ V8 `1 T, w2 F

- t* c; k$ _# p: v- p* H5 q+ ]  u) g2 F; @. q  W+ ?+ t

9 o$ z! p3 x; Y; O: C
游客,如果您要查看本帖隐藏内容请回复  捐助论坛可免回复查看隐藏内容 详情请点击
您需要登录后才可以回帖 登录 | 立即注册

本版积分规则

封号公示|手机版|Archiver|有问题发邮件到admin#(换成@)hd1tj.org|微博|免责申明|HD一条街

GMT+8, 2019-2-22 08:58

快速回复 返回顶部 返回列表