HD一条街论坛

 找回密码
 立即注册
搜索
查看: 109|回复: 0

[欧美] 纪录片:苦艾草[自带中文字幕]Wormwood.S01.1080p.NF.WEBRip.DDP5.1.x264-QOQ 16G

[复制链接]
发表于 2018-5-18 11:06:19 | 显示全部楼层 |阅读模式

" ~6 ^" p: R5 X; |6 [4 s$ m
. U0 f+ D, h* s# D◎译  名 苦艾草/苦艾/苦蒿之谜: N% L6 F, ]4 u  x1 b
◎片  名 Wormwood$ V& r. ^6 a7 b) I3 x
◎年  代 2017
: s2 r; o1 {3 L, O; l  `9 N◎产  地 美国3 Y4 B, d$ V1 J
◎类  别 传记/纪录片: J% ?7 l5 S1 O& T: |( k
◎语  言 英语
6 V; i- z  y  U* ^4 y" c◎上映日期 2017-09-06(威尼斯电影节)/2017-12-15(美国)% K( X1 K. b6 H
◎IMDb评分  7.1/10 from 2,101 users
* x0 A! }: ^2 v( R8 j* A8 m( E◎IMDb链接  http://www.imdb.com/title/tt7306056/
9 n, J3 s6 r) v  L◎豆瓣评分 /10 from 0 users! f3 K3 ?* p) M7 @" U% d- x2 N; f
◎豆瓣链接 https://movie.douban.com/subject/27125676/
6 F/ X. f& _# `  a$ Y0 B◎集  数 6
; y3 a, S  g  D! a9 M9 I◎导  演 埃罗尔·莫里斯 Errol Morris* }2 j) O6 Z6 y" t: p+ N, ?4 d
◎主  演 彼得·萨斯加德 Peter Sarsgaard
7 U5 }7 @' I# V( Q/ H      蒂姆·布雷克·尼尔森 Tim Blake Nelson
( }9 Y. G" b  D# o0 @      莫莉·帕克 Molly Parker
) [" w3 x& P7 B3 S2 P, g( I0 v      约翰·道曼 John Doman
. Q; x' ?/ I: F; V      杰克·奥康耐 Jack O'Connell
. Q/ _3 i6 b  ]. Y      斯科特· 谢泼德 Scott Shepherd
# _9 q2 A/ M" C: f      鲍勃·巴拉班 Bob Balaban
& S/ H+ v, k* ~      凯莉·巴雷特 Kelli Barrett; g$ H% x/ U0 l
      克里斯蒂安·卡玛戈 Christian Camargo
9 ~$ N) X6 I, N  J- o      迈克尔·切鲁斯 Michael Chernus& L+ W" Q; n% S9 _6 I  z2 F, l
      蔡斯·凯利 Chance Kelly
8 M( W9 I* y( \. R6 Q7 a. N$ |      吉米·辛普森 Jimmi Simpson  i  ~0 Y: u) a3 k$ T. v

9 y+ Z8 h# j) r2 u$ W4 {5 J9 S◎简  介% e8 [4 K0 |, |2 X, @8 z

4 G# C2 b+ w1 v/ C) o  D9 z% \6 d  在这部杂揉各种类型的故事中,埃洛·莫里斯探讨一位美国科学家神秘死亡一案。他在冷战时期卷入名为“心灵控制计划”的机密计划。
( h5 ^8 d# v8 L5 m
2 _; i) H; O/ ?" |◎获奖情况8 y2 A$ H  ^4 q& H+ o, \
0 e2 L5 \# V, O5 u8 R0 h4 n
  第70届美国导演工会奖  (2018)' x! K4 v$ t) L/ c& G  d3 e: I
  最佳纪录片导演(提名) 埃罗尔·莫里斯
  1. Video
    : ^: ]* a& Y& F9 [* S
  2. ID                                       : 1
    ! v9 q8 s; e$ k" f. R
  3. Format                                   : AVC$ ?0 F9 W6 t7 c$ J* v' I
  4. Format/Info                              : Advanced Video Codec; F5 w! T1 f; V
  5. Format profile                           : [email protected]
    2 A( p, F! g1 W7 U3 H' b
  6. Format settings                          : CABAC / 4 Ref Frames
    & U* e- w5 R  j
  7. Format settings, CABAC                   : Yes
    4 y! a0 X$ ~6 d
  8. Format settings, ReFrames                : 4 frames3 P1 I, W; Y& \# K/ x
  9. Codec ID                                 : V_MPEG4/ISO/AVC
    , x  L3 P8 k5 d
  10. Duration                                 : 47 min 27 s2 r; F  @3 |3 X% _4 j# M) z* |0 I
  11. Bit rate                                 : 8 423 kb/s' `8 W! d+ y* N% z9 L! z, e
  12. Width                                    : 1 920 pixels8 m1 p9 N' q9 Z6 g
  13. Height                                   : 1 080 pixels
    + w+ Z  ?. O7 b2 }
  14. Display aspect ratio                     : 16:9
    4 @- I4 _+ }( r1 j1 N
  15. Frame rate mode                          : Constant
    - c0 ~0 j( i1 R) Z1 P- f* Z! y
  16. Frame rate                               : 23.976 (23976/1000) FPS
    . n. @9 p( u- q3 l9 j: M1 Z/ R
  17. Color space                              : YUV/ J; U# {8 u5 L
  18. Chroma subsampling                       : 4:2:0) P6 i- a; s* \0 s1 R0 K
  19. Bit depth                                : 8 bits; x) m" U$ X& R, ~8 @8 a: j
  20. Scan type                                : Progressive
    0 x1 p7 o1 C( _: E/ d) N6 ?
  21. Bits/(Pixel*Frame)                       : 0.169" Q, v0 z$ M* S
  22. Stream size                              : 2.79 GiB (95%)
    ' S8 k9 d' {% |3 w' l
  23. Writing library                          : x264 core 152 r2851 ba24899
    ( y) @; f& n$ ?3 O" [# ?% Z
  24. Encoding settings                        : cabac=1 / ref=4 / deblock=1:-3:-3 / analyse=0x3:0x133 / me=umh / subme=11 / psy=1 / psy_rd=1.00:0.00 / mixed_ref=1 / me_range=64 / chroma_me=1 / trellis=2 / 8x8dct=1 / cqm=0 / deadzone=21,11 / fast_pskip=0 / chroma_qp_offset=-2 / threads=12 / lookahead_threads=3 / sliced_threads=0 / nr=0 / decimate=0 / interlaced=0 / bluray_compat=0 / constrained_intra=0 / bframes=16 / b_pyramid=2 / b_adapt=2 / b_bias=0 / direct=3 / weightb=1 / open_gop=0 / weightp=2 / keyint=250 / keyint_min=23 / scenecut=40 / intra_refresh=0 / rc=crf / mbtree=0 / crf=15.3 / qcomp=0.65 / qpmin=0 / qpmax=69 / qpstep=4 / ip_ratio=1.40 / pb_ratio=1.10 / aq=3:0.70
    5 [- g) v; e8 f) t) S4 K. e
  25. Language                                 : English
    : R+ Z% n. P1 P1 T& K6 K  \
  26. Default                                  : Yes
    6 k2 R$ }$ l  X5 W# W
  27. Forced                                   : No
    8 J: s5 v: M# {- w4 s2 ?

  28. & E3 O$ w# b( z1 r1 l( y2 ^
  29. Audio
    " K; z2 f8 m0 S/ X
  30. ID                                       : 2
    # n' x9 ^2 h4 s; Z
  31. Format                                   : E-AC-36 N0 k, B& `0 }7 \/ I- f
  32. Format/Info                              : Enhanced Audio Coding 3
    . }! s) L, t. p$ g
  33. Format profile                           : E-AC-3+Atmos / E-AC-3
    + O% `) f3 e! K. g
  34. Codec ID                                 : A_EAC3( k1 V3 z5 J  ~- X+ Z  Y
  35. Duration                                 : 47 min 5 s1 I9 E5 x. ~' n9 ?# P
  36. Bit rate mode                            : Constant8 |  P9 {2 `$ [) D; y* |. x2 E6 V
  37. Bit rate                                 : 448 kb/s: ?$ J% u" G7 Z( I1 @6 B
  38. Channel(s)                               : 15 objects / 6 channels* x9 v( w' a7 q  W+ w- g  D
  39. Channel positions                        : 15 objects / Front: L C R, Side: L R, LFE
    1 I- G$ ]% c" u2 I! X* r
  40. Sampling rate                            : 48.0 kHz
    : J/ b, \2 C, d; }, m
  41. Frame rate                               : 187.500 FPS (256 SPF)( E3 k/ ]+ c# k6 U5 E
  42. Compression mode                         : Lossy
    / }- L" K9 {$ m* F; s
  43. Stream size                              : 151 MiB (5%)
    ! ?4 W' U6 M8 `% O
  44. Language                                 : English
    . C+ O( S! [4 F8 G% S
  45. Service kind                             : Complete Main
    - ^8 h& R' y) o$ _7 \  t( D! e  z; }
  46. Default                                  : Yes8 b4 J7 T, U9 {3 g( F
  47. Forced                                   : No
    $ {7 p9 v7 {1 r& H5 J8 ^

  48. 2 t. c$ G4 W! R" F$ T4 @
  49. Text #1$ l/ k9 L" C$ D* X1 v
  50. ID                                       : 39 f! q/ p" e1 _0 m
  51. Format                                   : UTF-8
    ! j7 g: _9 a) q6 M
  52. Codec ID                                 : S_TEXT/UTF86 o* c3 [4 i5 |( Q, q8 u# Y+ _
  53. Codec ID/Info                            : UTF-8 Plain Text7 {6 b% Q1 ^, ], G
  54. Duration                                 : 46 min 40 s: ]; i, z3 G4 G
  55. Bit rate                                 : 62 b/s" }2 \8 f" Z, u# W
  56. Count of elements                        : 568
    " s/ J( L+ u% t
  57. Stream size                              : 21.4 KiB (0%)
    ) g) x; q' c, Z7 W8 Z! k, u
  58. Title                                    : SDH
    ; a+ R- G3 \: w
  59. Language                                 : English) y- X- x9 }8 H+ [  A; U
  60. Default                                  : No( M& T6 b! [& g, \' g
  61. Forced                                   : No; @9 o4 w( z& c8 p; t; D$ W3 @
  62. ( p9 J5 y7 k& v% m& S
  63. Text #2/ Z3 q& x% E+ }& F% G! e6 @
  64. ID                                       : 4
    9 y0 |/ a8 U0 J) J; X/ Q- f4 K- Q
  65. Format                                   : UTF-8
    6 f0 Y- C  I1 J
  66. Codec ID                                 : S_TEXT/UTF8
    4 i5 `: }) d+ y8 @2 ~
  67. Codec ID/Info                            : UTF-8 Plain Text) [/ z' _4 V* P" M: N
  68. Duration                                 : 43 min 27 s! h" u2 s" b+ ?( e) V" x8 w- @
  69. Bit rate                                 : 65 b/s
    + Z1 E1 V5 Q6 m6 \( K, F
  70. Count of elements                        : 563
    ) ?7 ]3 e* G, ]: q, u( l6 b
  71. Stream size                              : 20.8 KiB (0%)
    2 f3 x7 O* `3 w$ R0 P
  72. Language                                 : Spanish, o2 y% P7 Q  e/ J- s, ^9 ]9 o
  73. Default                                  : No3 ^, ^8 n2 v5 w& t+ G% L3 t
  74. Forced                                   : No) [! W' i8 f* n3 y- X2 J5 ]
  75.   G7 i' O6 S  _0 q1 F, S3 G; L
  76. Text #33 g2 m1 _- I% y
  77. ID                                       : 50 }) z9 X( m. V6 n% G  E2 I
  78. Format                                   : UTF-8% e; i0 j' c4 s1 o: S+ \
  79. Codec ID                                 : S_TEXT/UTF8
    * L# _+ Q, l- a1 }/ k. F
  80. Codec ID/Info                            : UTF-8 Plain Text+ K9 R2 a- _* h8 k8 m4 I  p
  81. Duration                                 : 43 min 27 s5 J( N8 }( a/ U
  82. Bit rate                                 : 62 b/s
    * H3 t! K" w6 Z+ O  J( h! H" @
  83. Count of elements                        : 552
    ; d' d. Z3 p7 T
  84. Stream size                              : 20.0 KiB (0%)
    ( G" F. I3 O9 I' o1 M9 {4 r
  85. Language                                 : French
    ' L5 f5 c1 |6 K# o' O
  86. Default                                  : No
    + z- j& j- r) ]# i7 Y1 ~
  87. Forced                                   : No
    ! C! J, R+ U9 a& U/ l7 i
  88. 6 d  z3 u. e9 P4 W
  89. Text #4! u1 _2 X* }# @0 R5 t, z( P
  90. ID                                       : 6
    6 d7 f* Z' p1 ~: l
  91. Format                                   : UTF-8+ N) n, V) c) ~) m; y2 D9 n
  92. Codec ID                                 : S_TEXT/UTF80 N+ M* K4 _2 \3 D; C- B
  93. Codec ID/Info                            : UTF-8 Plain Text6 ]- e. Z8 M/ j. L" j
  94. Duration                                 : 43 min 27 s1 w! A2 P6 ?2 L9 n5 {3 G
  95. Bit rate                                 : 55 b/s3 ?7 G" D# N3 l7 B
  96. Count of elements                        : 568
    ' ^5 A. X* H5 o7 {2 x
  97. Stream size                              : 17.8 KiB (0%)9 @* N- O! k4 V' {' o
  98. Language                                 : Chinese
    4 _2 H. d! s# c# e% G9 B
  99. Default                                  : No
    * R5 d/ _: s! q; x9 c/ z' Y
  100. Forced                                   : No0 N/ j+ K4 D9 T* t; U) L6 k
  101. ( O3 o' d9 C; y
  102. Text #5/ c1 H; I2 [* [/ H2 ]9 b
  103. ID                                       : 7" y% \5 a0 g- o) |9 I
  104. Format                                   : UTF-8
    % J! a/ \5 D* D  _& X" C
  105. Codec ID                                 : S_TEXT/UTF8
    / L# y+ Y- P# F- N7 J' ~4 c- G
  106. Codec ID/Info                            : UTF-8 Plain Text+ Z, M7 O" }/ }1 J4 f3 m
  107. Duration                                 : 43 min 27 s+ B' c+ W/ k  Z9 t7 o
  108. Bit rate                                 : 56 b/s
    6 |/ M* S( B# r8 Z
  109. Count of elements                        : 568
    ' W6 u' U1 J" ^5 e8 h  Q: z
  110. Stream size                              : 17.9 KiB (0%)
    ; p% I) p$ w) Q" ^$ x* v  I
  111. Language                                 : Chinese
    $ n3 H* B/ ~, N# R) }* D0 V
  112. Default                                  : No0 ~* z0 Z( v: d$ {# z# O
  113. Forced                                   : No
复制代码

+ w5 u2 {( k( d
! U4 }9 o' q# S# J( b. l) i* f/ R, |$ W
2 z2 L2 T4 I+ @( l9 }8 V

$ S, k" J( [3 d! \& J: ~7 ?
9 a3 v  k- I" K, d2 o
) Y4 P7 ~9 R& f' g( _" t! A
/ Z& k/ z9 Q  h+ Z6 j# l$ k, t: u! ^7 J) E
游客,如果您要查看本帖隐藏内容请回复  捐助论坛可免回复查看隐藏内容 详情请点击
您需要登录后才可以回帖 登录 | 立即注册

本版积分规则

封号公示|手机版|Archiver|有问题发邮件到admin#(换成@)hd1tj.org|微博|免责申明|HD一条街 |网站地图

GMT+8, 2018-9-22 23:35

快速回复 返回顶部 返回列表