HD一条街论坛

 找回密码
 立即注册
搜索
查看: 349|回复: 5

[欧美] 纪录片:主厨的餐桌 第四季[自带中文字幕]Chefs.Table.S04.1080p.NF.WEBRip.DD5.1.x264-AJP69 5.33G

[复制链接]
发表于 2018-5-18 10:57:03 | 显示全部楼层 |阅读模式
9 \( X8 d8 Y8 w0 c& P

4 O6 H% [8 D8 u& G* `+ C◎译  名 主厨的餐桌 第四季/主厨的餐桌:甜点篇9 f1 Y8 Y' ]6 `4 ~( C
◎片  名 Chef's Table Season 4* ]1 C) C; Z% O; O# Y1 U
◎年  代 2018! P& X2 ?% p* t6 M3 s5 S8 ~+ _
◎产  地 美国* `) C' D1 z4 a8 H" _
◎类  别 纪录片
* c, e9 i7 @% ?◎语  言 英语
! F9 x8 j9 {! K9 k1 n/ J◎上映日期 2018-04-13(美国)
" f+ u3 H0 d2 E4 \- r9 Z◎IMDb评分  7.2/10 from 83 users% \' n: @1 S( n
◎IMDb链接  http://www.imdb.com/title/tt8079644/1 F$ m" ~9 k: }" w
◎豆瓣评分 8.7/10 from 426 users' }3 y$ T0 T" o
◎豆瓣链接 https://movie.douban.com/subject/26743594/
6 _, f4 t4 w" b$ t# y1 d◎集  数 4
! k2 v: r% t4 C! L9 L! l. u* u◎片  长 45分钟
  l* k) A* M: D◎导  演 布莱恩·麦金恩 Brian McGinn / 大卫·贾柏 David Gelb
- T3 e2 L' ~3 n0 {◎主  演 Christina Tosi
8 p# W2 M8 C$ I4 g" j  ^( I      Corrado Assenza
/ ~; F/ h9 y2 G' D( ]2 x      Jordi Roca
5 ]3 x) W3 Z! d      Will Goldfarb
# B5 {/ G! a1 @6 |: _+ y; g
5 `5 ^- l- B. J( d4 X◎简  介
! m/ c* H: C, X9 P7 \1 p& P* d0 m* R/ |# E
  《主厨的餐桌:甜点篇》将聚集世界上最优秀的烘焙师们。
  1. Video
    2 o, J" @: Z1 @4 @, s: L4 X
  2. ID                                       : 1) H: V5 G7 H% m3 i  G$ C5 X1 i6 h$ m
  3. Format                                   : AVC) f. @! V+ q. |$ Q
  4. Format/Info                              : Advanced Video Codec1 E, e4 M5 Z6 q: Q
  5. Format profile                           : [email protected]
    " D, ?3 e' R' |' f) [/ U3 Z/ V8 N# s
  6. Format settings                          : CABAC / 3 Ref Frames- T' L6 F& R2 X
  7. Format settings, CABAC                   : Yes
    ) c/ q2 B& Z/ Z9 i/ D7 P* f, C7 {
  8. Format settings, ReFrames                : 3 frames
    ; L+ w* ~3 }4 g1 j) ?
  9. Codec ID                                 : V_MPEG4/ISO/AVC
    ( s0 c) w' X' d8 Y2 r
  10. Duration                                 : 45 min 47 s
    1 w9 g0 [8 {0 O* \: c
  11. Bit rate mode                            : Variable
    2 z+ j$ `6 w) n1 X% G$ R
  12. Bit rate                                 : 4 870 kb/s
    / B8 c6 K6 y6 t' T
  13. Maximum bit rate                         : 7 305 kb/s+ f1 s. U; |# f
  14. Width                                    : 1 920 pixels( J, A4 f+ R# \. `: [; `
  15. Height                                   : 1 080 pixels
    % t* |& q2 c; V* O8 g3 s
  16. Display aspect ratio                     : 16:9
    ! R& j5 I& g" P2 u1 }
  17. Frame rate mode                          : Constant% c3 c% ~1 N7 A7 d2 m
  18. Frame rate                               : 23.976 (24000/1001) FPS! q& w/ {! u, d- a. n4 D
  19. Color space                              : YUV
    # ?7 p  v3 J- j+ I- H* y4 E
  20. Chroma subsampling                       : 4:2:0, W9 F9 b7 B- Z! i
  21. Bit depth                                : 8 bits
    : Z6 h2 G2 e9 a
  22. Scan type                                : Progressive, E& T0 q& C- W
  23. Bits/(Pixel*Frame)                       : 0.098. b4 C+ l' x, V4 e7 j
  24. Stream size                              : 1.52 GiB (92%)6 k% ?6 t- T. f( Z/ _" d
  25. Writing library                          : x264 core 148 r2715 7e75228
    + Y# e5 y4 y5 q1 ~0 k. D1 P
  26. Encoding settings                        : cabac=1 / ref=3 / deblock=1:0:0 / analyse=0x1:0x111 / me=umh / subme=10 / psy=1 / psy_rd=1.00:0.00 / mixed_ref=1 / me_range=24 / chroma_me=1 / trellis=2 / 8x8dct=0 / cqm=0 / deadzone=21,11 / fast_pskip=1 / chroma_qp_offset=-2 / threads=8 / lookahead_threads=1 / sliced_threads=0 / nr=0 / decimate=1 / interlaced=0 / bluray_compat=0 / stitchable=1 / constrained_intra=0 / bframes=2 / b_pyramid=0 / b_adapt=2 / b_bias=0 / direct=3 / weightb=1 / open_gop=0 / weightp=2 / keyint=48 / keyint_min=25 / scenecut=0 / intra_refresh=0 / rc_lookahead=48 / rc=2pass / mbtree=1 / bitrate=4870 / ratetol=1.0 / qcomp=0.50 / qpmin=6 / qpmax=51 / qpstep=4 / cplxblur=20.0 / qblur=0.5 / vbv_maxrate=7305 / vbv_bufsize=9740 / nal_hrd=vbr / filler=0 / ip_ratio=1.40 / aq=1:1.008 x6 a: |0 G& L8 j
  27. Default                                  : Yes
    ; @6 }: [' d* F' B/ j% L
  28. Forced                                   : No7 p6 k8 ?: c, V! U3 D% k
  29.   T4 I1 Q. G9 _
  30. Audio& @  |0 G; u7 m' C
  31. ID                                       : 2
    ' j3 q9 G. T  z
  32. Format                                   : AC-32 G  z2 D7 E' n
  33. Format/Info                              : Audio Coding 3
    1 H% _/ h- s/ N. e! R6 T
  34. Codec ID                                 : A_AC3
    + S' O! b+ d- K9 L4 u8 |4 K7 `- W
  35. Duration                                 : 45 min 47 s5 w: s/ b, \" i9 Z+ q: _
  36. Bit rate mode                            : Constant0 a5 [, W' j) l
  37. Bit rate                                 : 384 kb/s
    2 ?: I, b& y. b2 @9 @/ ]2 Y+ Q
  38. Channel(s)                               : 6 channels
    5 f& T( y4 |; @5 r4 D# @0 @9 ^
  39. Channel positions                        : Front: L C R, Side: L R, LFE( F# b; M$ |5 Z0 m6 R4 e/ a7 J& ~0 s
  40. Sampling rate                            : 48.0 kHz/ o+ T1 R' _* n/ c* o0 q
  41. Frame rate                               : 31.250 FPS (1536 SPF)4 e* z7 M; X7 j: W$ l0 n  {
  42. Bit depth                                : 16 bits1 @, P8 s) S# K# T+ k
  43. Compression mode                         : Lossy
    " y, S- [2 N* z* Q  j) t4 [; }
  44. Stream size                              : 126 MiB (7%)
    : ~  v7 q% t6 U( j0 R
  45. Title                                    : English- ?0 i4 `& U+ _6 J
  46. Language                                 : English5 n& E' R. N8 Q) h3 b
  47. Service kind                             : Complete Main/ @) u9 e  T$ X) ~+ X1 C2 l- y% P
  48. Default                                  : Yes: g: T' O5 Q6 k0 O6 y
  49. Forced                                   : No) F) I' ?0 w5 ^0 f" i0 y2 a
  50. 3 y! U. s2 j) h" K- x
  51. Text #1; C  |: X: |/ ?7 g2 w9 W
  52. ID                                       : 3
    2 a; y9 W5 U0 f- R9 y
  53. Format                                   : UTF-8- l% a" D' i9 l8 v/ _3 R
  54. Codec ID                                 : S_TEXT/UTF8
    ! W: R# s( t6 r3 w  M" S
  55. Codec ID/Info                            : UTF-8 Plain Text6 Q4 \- J6 E" G; b
  56. Duration                                 : 31 s 990 ms
    ( D" q0 m% a3 D
  57. Bit rate                                 : 22 b/s( ]/ P/ R+ @4 K% X
  58. Count of elements                        : 6
    8 @* ^, o- R" z* b, H7 G
  59. Stream size                              : 88.0 Bytes (0%), U4 _) R: s' ?- a) n
  60. Title                                    : Forced% c* l% K; C  A) y  u$ V% a
  61. Language                                 : English/ a- n1 W) ~4 C  O% T  M
  62. Default                                  : Yes
    / f  i' \* d- M5 q( k
  63. Forced                                   : Yes0 `: n4 I& p. n; Q+ E
  64. " n4 Z$ J' _' {4 g8 ?: w, @; F
  65. Text #2
    + d2 [+ z2 J" \- K' s) b3 {! ^
  66. ID                                       : 4
    9 f' H) [- E. F$ M: S3 u3 y0 e
  67. Format                                   : UTF-8
    + u% s5 c& \* M, a# q
  68. Codec ID                                 : S_TEXT/UTF84 a* b, y( C) W: t& n* |
  69. Codec ID/Info                            : UTF-8 Plain Text
    / O9 ~' n: t. {9 |7 J" b
  70. Duration                                 : 41 min 57 s$ _$ [3 k$ \5 S; F+ `/ W8 ]
  71. Bit rate                                 : 72 b/s
      x2 f# E; H/ k" `: o$ i8 B. a3 X
  72. Count of elements                        : 426
    / Q4 c  D7 B" N
  73. Stream size                              : 22.4 KiB (0%)
    . d3 X) C% B/ g1 ^% d3 |
  74. Title                                    : SDH
    9 n5 a9 b% k7 ?/ W# _
  75. Language                                 : English
    ! k6 o" u: d- u& C  J
  76. Default                                  : No: J8 ?' x7 h- E) |. t* `
  77. Forced                                   : No& q4 [+ a0 B$ F7 u- J1 N

  78. 9 U( m% Y' i" b. [! d5 G
  79. Text #3  `6 v' v/ M% g$ ]
  80. ID                                       : 56 b; @' a* l" P/ w* b: W# k4 X
  81. Format                                   : UTF-8
    - l! M4 s6 r7 x' j- f1 o
  82. Codec ID                                 : S_TEXT/UTF8* d8 Z6 Z9 `& ?+ y8 W2 A
  83. Codec ID/Info                            : UTF-8 Plain Text  f" h3 _) P1 ]/ s: t
  84. Duration                                 : 41 min 57 s
    ; M; N0 T' F) y) k% F
  85. Bit rate                                 : 99 b/s
    " m( Y+ J4 t$ A8 y1 N  f
  86. Count of elements                        : 446" |& T0 B" z9 b. D1 o; A" _
  87. Stream size                              : 30.7 KiB (0%)
    % v7 L1 B1 g+ J% V+ ?
  88. Language                                 : Arabic( T+ F- T" d5 M0 X
  89. Default                                  : No0 p9 Z6 ]9 `+ E' \# }) q
  90. Forced                                   : No% g0 P# U6 R& P! @

  91. 8 J, d7 m4 Q7 R$ `
  92. Text #43 O; F) V0 i5 Z+ n( c1 ~6 [
  93. ID                                       : 6& J/ m) r9 k4 m3 b
  94. Format                                   : UTF-8
    ' y8 M" C. h, \5 \" J
  95. Codec ID                                 : S_TEXT/UTF8# A. `1 W5 ]/ |8 E
  96. Codec ID/Info                            : UTF-8 Plain Text
    " U7 x9 U2 D2 O7 q% x5 U
  97. Duration                                 : 41 min 57 s
    1 n- s5 e9 j" }; O% c4 a- |; \
  98. Bit rate                                 : 63 b/s; d; n1 e" }3 e  l4 h$ U3 A5 {0 P. p
  99. Count of elements                        : 431
    % g$ Y/ E5 S( Z: p
  100. Stream size                              : 19.6 KiB (0%)' {* d/ m* x1 O( s9 V
  101. Language                                 : Danish
    $ E! F3 x1 w3 t1 i) ^
  102. Default                                  : No
    6 c( V( G7 n, ?2 [" |, F7 P% V
  103. Forced                                   : No5 |& Y) Z+ ~; L5 S. c$ |! j6 M
  104. , M' u9 Z2 A5 T! i% {/ |: }( [
  105. Text #5
    ! o* I4 F5 W' Q, K$ e. Y5 t6 e8 L
  106. ID                                       : 7) U4 \6 J2 Y2 R
  107. Format                                   : UTF-8
    ) B+ U1 l" z' t( I- T. t4 @
  108. Codec ID                                 : S_TEXT/UTF8
    8 S, W6 `  {8 P
  109. Codec ID/Info                            : UTF-8 Plain Text
    & G: W5 I+ S1 }5 f1 v6 \' b' G1 C/ N
  110. Duration                                 : 41 min 57 s5 H# H0 d! D- k# ?
  111. Bit rate                                 : 66 b/s! W/ b9 k- w, M6 W' g4 y0 t
  112. Count of elements                        : 445, n0 E6 b! s% Z% N: c! I
  113. Stream size                              : 20.5 KiB (0%)
    , M( v6 ~% [% a& k* A; R6 U
  114. Language                                 : German$ S+ M/ Z' v7 t& F! p* }- d
  115. Default                                  : No
    6 [4 |) |# v4 Y! ?# }* ?- g% A, A
  116. Forced                                   : No/ K) I) s9 d( c4 R

  117. 2 S* H+ Z- |) c
  118. Text #6
    9 U; V/ F  A5 }4 ^
  119. ID                                       : 8: ~" y. S. l, q1 o3 ~$ K
  120. Format                                   : UTF-84 h2 Q( z& Q, \
  121. Codec ID                                 : S_TEXT/UTF8
    : o0 X5 S; p, A  m- w
  122. Codec ID/Info                            : UTF-8 Plain Text$ [9 N  Q4 ]% k% Z3 p! D* @2 [
  123. Duration                                 : 41 min 57 s
    ' x* r' s" Y- D. y$ {, Z/ H: d
  124. Bit rate                                 : 111 b/s0 f! O  C- I) c& ?5 J% P1 u' Y
  125. Count of elements                        : 4765 \) W8 W0 {8 ]* k% Q, o: b
  126. Stream size                              : 34.4 KiB (0%)
    5 I: V5 \' K. ^4 A6 w; {  G0 W4 G
  127. Language                                 : Greek
    4 z" Y2 n! f% I( m# V2 \
  128. Default                                  : No
    5 G4 |' I9 p3 c9 c& }
  129. Forced                                   : No
    5 X3 d+ m" J! C7 ^& R

  130. & ?% b! {3 w) O' J4 S
  131. Text #7
    % N7 Z/ u5 F' k( s3 }* y8 f$ m
  132. ID                                       : 95 T# x. p! X4 ^8 x% w) p7 I
  133. Format                                   : UTF-8
    & V/ R1 B& B7 i& c; s; p, w
  134. Codec ID                                 : S_TEXT/UTF8
    / p# ]# v' Z$ f  v5 K) R* t* p; T8 a
  135. Codec ID/Info                            : UTF-8 Plain Text
    / e" w1 L3 y- t4 ~
  136. Duration                                 : 41 min 57 s
    4 I) S6 [3 s1 |9 @: }  D
  137. Bit rate                                 : 69 b/s
    ( u, v5 `  W; j) O7 d$ a$ G" `- q( w
  138. Count of elements                        : 443- v3 @) X$ h" m; ]" M
  139. Stream size                              : 21.3 KiB (0%)
    $ Q* c" R  Y" A, {( Z
  140. Language                                 : Spanish
    % x# k1 L$ c7 f; V; W. O+ b* Z
  141. Default                                  : No6 n1 U4 g3 i3 @5 L* H7 U
  142. Forced                                   : No
    ; B2 s: M# n/ {4 M: X4 d

  143. 7 N7 Q* ^2 x+ a/ v" v3 f! q
  144. Text #89 D3 u8 q" `7 g1 U+ j4 H
  145. ID                                       : 10
    0 i4 U8 v: y8 O
  146. Format                                   : UTF-80 |) q* R* M9 v( w1 I* v) S
  147. Codec ID                                 : S_TEXT/UTF8
    0 K9 t3 s) b& J/ @* b/ |
  148. Codec ID/Info                            : UTF-8 Plain Text
    . B3 R1 @3 r' E" T' D( o9 D
  149. Duration                                 : 41 min 57 s  Z1 p* s! E) {
  150. Bit rate                                 : 68 b/s
    0 ?7 j, p! [5 s4 s+ A3 K
  151. Count of elements                        : 443
    / g% a2 H3 t: B7 S! |4 U  m
  152. Stream size                              : 21.0 KiB (0%)
    7 A/ J% t4 W; Z: h; V/ P1 }
  153. Title                                    : European! {" B+ e1 l! ~" u* n
  154. Language                                 : Spanish8 \6 {2 g8 O% B4 f% `; [
  155. Default                                  : No
    5 B: V+ e8 h. c
  156. Forced                                   : No
    , A0 L; a) p8 v, I1 k

  157. # `; S9 ]2 U# A$ a
  158. Text #9
    7 q7 n" O1 ^& X; L7 }9 t' P. Z
  159. ID                                       : 113 q( H! _' d5 a! g
  160. Format                                   : UTF-8
    / w& I+ s/ o3 ~/ Y, V, a- T
  161. Codec ID                                 : S_TEXT/UTF8- u; [. f( I7 d, C2 T3 ~2 Q/ j/ k
  162. Codec ID/Info                            : UTF-8 Plain Text
    - u: Y4 b: a/ t6 f
  163. Duration                                 : 41 min 57 s& f' _0 p- j2 w- @
  164. Bit rate                                 : 63 b/s  d5 R5 d, H. z
  165. Count of elements                        : 405
    + u3 U) Q/ c7 s9 a2 G
  166. Stream size                              : 19.5 KiB (0%)! s4 @$ F5 h1 i0 J( q9 y
  167. Language                                 : Finnish
    ' E$ M  @& s) J( z8 b
  168. Default                                  : No  F; Y$ B. z9 f  Z( @3 o
  169. Forced                                   : No7 N& j' G( x) d. J3 [
  170. & }' \; q& L) x: U. u* n  j
  171. Text #10
      h: F2 U+ F& G
  172. ID                                       : 12" S6 j) R$ b0 i- @5 J9 p3 P& m
  173. Format                                   : UTF-8+ p; p, I2 u0 [" H: \7 V
  174. Codec ID                                 : S_TEXT/UTF8- D: E; M' V' J& V1 H9 U
  175. Codec ID/Info                            : UTF-8 Plain Text. y4 ~+ b9 c! y
  176. Duration                                 : 41 min 57 s
    # C9 g6 A3 B% W* H) h
  177. Bit rate                                 : 71 b/s& C& Q6 d$ S4 |1 F* I: l
  178. Count of elements                        : 439
    ! M& Q' Z4 `; ^! v" R! l. _
  179. Stream size                              : 21.9 KiB (0%)
    ' s1 [1 y/ a& a$ W+ z1 c. x
  180. Language                                 : French4 K/ W: c% x% ]+ i. \$ v8 l9 l
  181. Default                                  : No- Y& N5 R: v9 L* R5 h4 s0 n
  182. Forced                                   : No
    ! i. h+ I# ^7 b) u' u3 a4 I$ o

  183. # L2 H/ D0 _' `8 C5 r
  184. Text #11
    6 ^$ @% A. ^9 v8 N5 K3 ?
  185. ID                                       : 13
    & {5 r  i, q! @& j7 Y
  186. Format                                   : UTF-8
    6 x& V7 m' t+ O
  187. Codec ID                                 : S_TEXT/UTF8: [$ S/ n8 r0 M
  188. Codec ID/Info                            : UTF-8 Plain Text6 ~, {. A1 k4 k: B
  189. Duration                                 : 41 min 57 s
    1 N) H+ |' O$ J% B; L8 j. X
  190. Bit rate                                 : 92 b/s
    & e  \+ @) A4 U" r" D9 j' e* [
  191. Count of elements                        : 452; Z) B1 A; ^' `0 O. I/ I% p9 e1 ]& P
  192. Stream size                              : 28.4 KiB (0%)
    4 D6 d/ B& ^: O( ]) f+ ?( E
  193. Language                                 : Hebrew) J: O8 U8 q7 q) e5 l9 O
  194. Default                                  : No9 H; S) n; b  A( [& N# v
  195. Forced                                   : No
    ) @0 X  _2 I( J8 {8 O& v4 N# y

  196. % t! F- b" s% K1 o6 m- [& R
  197. Text #129 y  P* ]. o3 P" [2 K; j
  198. ID                                       : 14- w" w1 f0 d. S) E" `9 c
  199. Format                                   : UTF-8' i/ [8 w% D% ]: j
  200. Codec ID                                 : S_TEXT/UTF84 d- C. V. _2 ^: |
  201. Codec ID/Info                            : UTF-8 Plain Text
    - j, b/ A# u* i! A7 E* T
  202. Duration                                 : 41 min 57 s9 g! |% U2 H5 B8 k
  203. Bit rate                                 : 68 b/s/ p4 o* X1 \! T
  204. Count of elements                        : 444
    2 \+ ]4 Z6 ~, @6 p! \
  205. Stream size                              : 20.9 KiB (0%)) E$ v  ]# X+ p; p5 {$ c' G
  206. Language                                 : Italian& E- ]% j& S7 d0 ]9 t- y" G
  207. Default                                  : No+ O8 `$ z! E, z* n7 M
  208. Forced                                   : No
    8 A: O3 a8 q% F

  209. 1 g5 v6 t  l2 l3 P' {" @9 L7 X2 g* a7 z
  210. Text #13" s3 b+ `, E% E3 C5 |2 z
  211. ID                                       : 15
    ) b: c* w: ]; Y6 q( d7 T8 M
  212. Format                                   : UTF-8
    # j4 s5 [& G6 x& ^- S% a: v3 H
  213. Codec ID                                 : S_TEXT/UTF8
    / a5 }$ G. G) G, D* O$ j5 v8 P
  214. Codec ID/Info                            : UTF-8 Plain Text% |0 n8 S; c9 o3 M
  215. Duration                                 : 41 min 57 s0 V& ^1 Z! E: u9 _5 |/ @: F
  216. Bit rate                                 : 56 b/s; a! x, s: P+ r+ \
  217. Count of elements                        : 433* E3 Y  }" W( A# w3 q$ {6 x5 `" M
  218. Stream size                              : 17.5 KiB (0%)
    # T% ^  Z  _$ k* f5 n
  219. Language                                 : Japanese
    2 n1 ^* @5 i' l# ^
  220. Default                                  : No; R" p# L1 ]6 ]3 y- S% Q3 V( F. p
  221. Forced                                   : No
    7 X, }+ Z& r6 ~

  222. . f) d2 A( y) u+ I
  223. Text #147 \# \8 |% }  B! M
  224. ID                                       : 16; \8 B8 p! Z9 d: S7 k: g
  225. Format                                   : UTF-80 ?7 a6 W& B3 F: `4 F( r
  226. Codec ID                                 : S_TEXT/UTF8" `- P/ C! @4 x. n
  227. Codec ID/Info                            : UTF-8 Plain Text
    7 p( I5 U+ d' n$ S& I
  228. Duration                                 : 41 min 57 s
    : e: Q2 `8 c. n8 n' i. q. B" {
  229. Bit rate                                 : 62 b/s" U) N3 Z$ T; y' X. U( @
  230. Count of elements                        : 452
    . _7 \7 j% Q/ |0 h$ x9 B
  231. Stream size                              : 19.3 KiB (0%)! T4 s7 y2 _& o# b
  232. Language                                 : Korean
    - Q) s) ]1 T* b$ U
  233. Default                                  : No
    # ~& X# d* w8 v- z1 y6 ^) ^' Z4 h5 r
  234. Forced                                   : No( _7 b5 B$ K  B, s$ C7 {

  235. + c* C5 h, i; P9 h* ]9 K( g& x0 b
  236. Text #15
    & j9 D9 M3 a, m) p0 K$ F% F- ^
  237. ID                                       : 17
    ; A& ?* `! ~5 f. \& n
  238. Format                                   : UTF-8$ u+ c1 q: ~* H/ L( L0 {7 G
  239. Codec ID                                 : S_TEXT/UTF8
    ; B% h8 b6 B7 p' x0 h
  240. Codec ID/Info                            : UTF-8 Plain Text
    7 I0 S4 z1 T/ ?
  241. Duration                                 : 41 min 57 s! M! h7 t$ m; k' ~! V
  242. Bit rate                                 : 67 b/s; G" t4 i$ L8 e4 @  h( m9 A
  243. Count of elements                        : 441
    . Q9 i7 A/ `2 a; V6 U4 f6 @
  244. Stream size                              : 20.6 KiB (0%)2 }, V& G! S& J! k& H9 c5 ~
  245. Language                                 : Norwegian Bokmal8 R! O4 ]$ g, I# n
  246. Default                                  : No1 g9 T7 i) A' u/ I6 \
  247. Forced                                   : No
    + N, J1 Y( d  z

  248. : y/ a5 B. D  t7 g
  249. Text #16
    6 L8 X% \3 b" W4 U
  250. ID                                       : 18  Q2 P5 a' y6 ^$ F
  251. Format                                   : UTF-84 i, i+ q; k# K0 v2 x+ k3 p) q
  252. Codec ID                                 : S_TEXT/UTF8* M( r  n' g& G- b5 K
  253. Codec ID/Info                            : UTF-8 Plain Text' {, N  w/ _/ o9 x: m8 J! U
  254. Duration                                 : 41 min 57 s
    : h2 W1 ]: s$ W9 ^$ D& A# y
  255. Bit rate                                 : 56 b/s
    3 c# O! k5 Z/ @' s' W3 o
  256. Count of elements                        : 474
      T! i4 [4 ?4 S. c& c$ n) Y" `  f
  257. Stream size                              : 17.4 KiB (0%)
    % H0 ?$ D" M$ j8 [
  258. Language                                 : Dutch) N" [7 n. Y  h% {: X0 s
  259. Default                                  : No2 j( u+ j- h+ M9 E9 f4 |' K5 n/ T
  260. Forced                                   : No
    ; _( i7 f7 e/ g  a6 ]" c

  261. 5 e. Z' V* j4 M
  262. Text #17
    8 U! u  u7 m( g' x
  263. ID                                       : 194 O$ C2 g3 p3 {
  264. Format                                   : UTF-8! h. E# G4 |* n' `+ ?, ]. \
  265. Codec ID                                 : S_TEXT/UTF8
    - G2 T! i: A) b  ?
  266. Codec ID/Info                            : UTF-8 Plain Text3 I5 x. F2 ?: _4 r* p+ m* m7 Y( b' E
  267. Duration                                 : 41 min 57 s
    / m* \, N& Z: W1 C( Y# \
  268. Bit rate                                 : 64 b/s( x6 b4 h0 y$ w. C7 e
  269. Count of elements                        : 444! I3 Z# S6 M5 ~& h5 f
  270. Stream size                              : 19.7 KiB (0%). z) i3 z+ o3 O! N
  271. Language                                 : Polish' a3 S8 t7 z- W
  272. Default                                  : No
    " {3 ^  V# C2 V+ H- f# f- U
  273. Forced                                   : No
    ( W% ]5 Q; Y/ K! ^4 U( ]' Z1 U
  274. : C* T9 r) {$ P& l
  275. Text #184 Q+ |8 I* m7 d/ t3 d' E
  276. ID                                       : 206 }8 P* `/ L! X8 B7 ^3 ?* U
  277. Format                                   : UTF-8
    + D) q6 {4 a" m  o, ]" N! C/ X* W$ K
  278. Codec ID                                 : S_TEXT/UTF8
    ' h& G8 y0 x+ X. x2 T7 q: Z& F, |+ L
  279. Codec ID/Info                            : UTF-8 Plain Text
    ! G# i- O% t8 O8 p4 A1 S
  280. Duration                                 : 41 min 57 s
    ( V( e( y4 H, M) U
  281. Bit rate                                 : 72 b/s( I9 \4 l# s1 o2 P: e2 s; {
  282. Count of elements                        : 444+ a  g4 c+ d/ F, k
  283. Stream size                              : 22.1 KiB (0%)6 \' u! Z! w# I% C, i
  284. Language                                 : Portuguese
    $ [2 L4 B" g; H* F
  285. Default                                  : No
    % f3 Q" }: f5 C/ ~8 H1 [
  286. Forced                                   : No
    1 _4 W' h4 f' y* R& b+ M8 ]

  287. + \$ P% e  x& L
  288. Text #19
    ! L3 ~. s' n4 X$ ?
  289. ID                                       : 21
    # z: R7 d! |. l  ?
  290. Format                                   : UTF-86 E7 A  C7 a7 D
  291. Codec ID                                 : S_TEXT/UTF8
    % y* I1 r5 x# I* O
  292. Codec ID/Info                            : UTF-8 Plain Text
    . }2 }. i$ T2 Z6 r0 C
  293. Duration                                 : 41 min 57 s3 m5 S" ^8 P; _3 p- E' z0 x- X
  294. Bit rate                                 : 64 b/s
    / T7 m9 j2 n7 ^# d, h; O$ V1 u
  295. Count of elements                        : 447: ~! ?: i; u* b2 h
  296. Stream size                              : 19.8 KiB (0%)+ [  X% f5 O4 ?5 Q. \
  297. Title                                    : Brazilian
    ' o! r0 o6 x' k
  298. Language                                 : Portuguese
    ! x& j1 P, ?4 h" y
  299. Default                                  : No
    ( W& ~  P9 m4 v! i$ W7 Y3 G+ v  i2 q
  300. Forced                                   : No
    3 n# b& u, t% @8 R3 f+ I

  301. & `/ ~1 g6 |. ~& J& b
  302. Text #20, @2 a# K3 j# v: W! |+ D
  303. ID                                       : 22
    ) {' x  F8 v3 V. D+ {0 A# ~
  304. Format                                   : UTF-8
    * ?9 `4 b8 w" [6 ?
  305. Codec ID                                 : S_TEXT/UTF8
    , j, `' k: ?7 Q' o
  306. Codec ID/Info                            : UTF-8 Plain Text
    % m1 t" O& Z* H5 I( S
  307. Duration                                 : 41 min 57 s  u4 c2 h6 `2 j
  308. Bit rate                                 : 68 b/s$ B4 ~" c* b* m+ \% O  C
  309. Count of elements                        : 441* f# h* f7 U7 I
  310. Stream size                              : 21.0 KiB (0%)  G* r# z  Z8 o/ C% ~6 m
  311. Language                                 : Romanian4 Y9 X, x1 B& a9 F# M: n
  312. Default                                  : No4 L9 s& [7 p9 b; h4 l4 r
  313. Forced                                   : No
    & i' D$ N; P( o3 T
  314. & S( T8 P( a% s. ~' I4 I8 h: G( B
  315. Text #21' r, q/ ~. P0 `8 m) Z) O3 `# a
  316. ID                                       : 23
    . j! M2 N6 B, @3 x% `
  317. Format                                   : UTF-8/ v7 j5 e7 b; z
  318. Codec ID                                 : S_TEXT/UTF8# [# q/ Y2 m% B$ J) l6 c# A( o* g
  319. Codec ID/Info                            : UTF-8 Plain Text
    0 z3 J: I& {1 T0 P0 C) r
  320. Duration                                 : 41 min 57 s
    ( b# M) P9 R$ O+ w( T
  321. Bit rate                                 : 61 b/s
    % J9 x* s- ~! O9 C7 x4 X! \. x4 O
  322. Count of elements                        : 444+ ?% o6 U, W1 S. a, H( I
  323. Stream size                              : 19.0 KiB (0%); ^6 m( x' d6 f9 D6 j5 }3 g
  324. Language                                 : Swedish: Z5 y# s' l( ^% a3 v
  325. Default                                  : No' r: |" |+ x6 L& o- P
  326. Forced                                   : No# K$ {! K  |. ^4 {3 |

  327. + Y6 C) M& O4 d1 I$ s* K# C
  328. Text #22+ j4 [$ X) d0 G7 s  ~9 k
  329. ID                                       : 24
    2 d- \! z1 z7 e$ M
  330. Format                                   : UTF-8
    * a; r/ k* d# _. j$ L7 ^6 G6 B
  331. Codec ID                                 : S_TEXT/UTF8+ ^0 w& f5 e, B" W& s4 [8 q. b& o' W
  332. Codec ID/Info                            : UTF-8 Plain Text
    5 d8 [6 L3 `3 w4 h8 c$ A
  333. Duration                                 : 41 min 57 s
    + ?! W/ K/ }1 l5 Q# z9 }
  334. Bit rate                                 : 157 b/s
    ( }, e1 z% C+ s  U9 Y2 H- R
  335. Count of elements                        : 453/ K" N( x$ S+ R3 p& }
  336. Stream size                              : 48.4 KiB (0%)
    1 Z. O9 w, w9 g0 h# ]- P
  337. Language                                 : Thai% t* W& `9 r. Q: M+ j
  338. Default                                  : No. ~% T: l) I& {3 q+ D
  339. Forced                                   : No
    ! }6 A6 D! v  |9 w
  340. ! L) |1 t3 T# Y, u, ]' }. h
  341. Text #23
    0 g5 u4 z. `1 R0 i
  342. ID                                       : 25
    0 W. g1 z- q$ ~5 H$ U" {! i9 m
  343. Format                                   : UTF-8
    7 Q4 J: c$ F2 ]% S  ]3 m7 T+ J
  344. Codec ID                                 : S_TEXT/UTF8
    ! O' O5 y5 {  o! }/ S
  345. Codec ID/Info                            : UTF-8 Plain Text1 l' e8 S( f% s$ l- Q, ]
  346. Duration                                 : 41 min 57 s
    5 Z; ~0 [3 b+ @
  347. Bit rate                                 : 64 b/s4 G" e& l: [1 G2 D
  348. Count of elements                        : 447
    5 n% I" Z! E3 t) W0 w4 [, x
  349. Stream size                              : 19.8 KiB (0%)' M; _! @) d  f7 G+ b$ t
  350. Language                                 : Turkish# \2 y4 _2 |- r& I0 m4 }% g
  351. Default                                  : No* t, g; b4 j$ r' m/ e- w& T
  352. Forced                                   : No
    1 X& p  g& E1 I. Y0 V$ }8 H6 B

  353. ; n% }/ B/ e- u
  354. Text #24
    : g  Y! H& |) i1 c5 G. m1 U% Y
  355. ID                                       : 26
    - X$ Y/ N8 u4 A1 ~% R  w
  356. Format                                   : UTF-84 A! W# r) q* I) P
  357. Codec ID                                 : S_TEXT/UTF8, A$ y% n0 F- G( J
  358. Codec ID/Info                            : UTF-8 Plain Text$ r9 r8 |* [0 i5 D
  359. Duration                                 : 41 min 57 s/ W7 j6 w# R/ l2 Z; k
  360. Bit rate                                 : 86 b/s
    / i# X% Q$ |/ D) x8 ~; e/ g+ y- E5 w
  361. Count of elements                        : 451
    1 A6 O8 S& R% R  S$ k
  362. Stream size                              : 26.7 KiB (0%)
    ) f+ |2 L% \4 k+ H% Q  S, q* P# y
  363. Language                                 : Vietnamese9 o, J$ N7 R- D& C- p" _5 M% Y
  364. Default                                  : No
    1 W2 b; i9 L) z7 m5 Q4 t
  365. Forced                                   : No; b# q0 Y# S" U/ y) P) [, c
  366. 4 _" f3 `  `: p+ y6 _' ?8 d
  367. Text #25  i5 p2 K; s4 v9 |: h
  368. ID                                       : 27
    8 B4 f+ ]* Y% w: Z9 n# J
  369. Format                                   : UTF-8. ]- [. ?( z6 }9 l
  370. Codec ID                                 : S_TEXT/UTF8
    6 }& t5 T2 C2 _8 n- }  ?) a7 s- _
  371. Codec ID/Info                            : UTF-8 Plain Text
    7 {: t3 C5 t$ E/ Q- _# I
  372. Duration                                 : 41 min 57 s
    5 c& W- b0 j: y1 q) Y7 k$ p' j
  373. Bit rate                                 : 52 b/s
    5 M* _9 ^4 \/ v
  374. Count of elements                        : 4528 r  J7 B! i4 B5 r+ N, p
  375. Stream size                              : 16.2 KiB (0%)
    , }# Y1 N& e+ ~
  376. Title                                    : Simplified0 [  r2 Q1 B/ S
  377. Language                                 : Chinese
    2 S# x( M. U$ b% ?0 E8 Y4 F& g
  378. Default                                  : No; _) E  _, D3 s+ e
  379. Forced                                   : No3 a' }5 j% z) O# ~

  380. # j/ d, H2 i+ R: [6 p3 w
  381. Text #26
    9 X' y  d2 j+ h0 c/ l# u6 E
  382. ID                                       : 28
    7 f8 e/ J0 l* O1 W
  383. Format                                   : UTF-8
    4 h0 K3 d, F: T/ h2 c
  384. Codec ID                                 : S_TEXT/UTF8
    ) o" I, W0 |* h
  385. Codec ID/Info                            : UTF-8 Plain Text5 O  ~2 R$ Y* `
  386. Duration                                 : 41 min 57 s; `' W# T  c: \$ y/ r- Q8 b
  387. Bit rate                                 : 51 b/s
    % F5 @$ x3 W# L9 m) f$ M( B' V
  388. Count of elements                        : 452
    ( z+ {0 P& C) i+ {# X" w# P! E
  389. Stream size                              : 15.9 KiB (0%)
    6 y' R9 q: x6 Y% \
  390. Title                                    : Traditional
    + j  e" t0 D, o+ x. L
  391. Language                                 : Chinese
    / V/ q  s1 c- ?6 N
  392. Default                                  : No
    - ?% b! ~6 c( w  S" T
  393. Forced                                   : No
复制代码

/ b/ i* |( u' Z  w" b" F- s  M2 C  ^4 [6 f

  ?  r+ `% t" ?. r2 C4 F3 e" ~* D  Y9 S* r1 ?# |) y: y0 l: |; l

! ?* f8 H- w& _. v" c
' D0 @$ g3 @6 f* t; @( c! H$ Y. e
游客,如果您要查看本帖隐藏内容请回复  捐助论坛可免回复查看隐藏内容 详情请点击
发表于 2018-5-22 13:35:52 | 显示全部楼层
楼主辛苦了
发表于 2018-6-26 14:25:20 | 显示全部楼层
一直就是喜欢这题材
发表于 2018-8-22 14:30:22 | 显示全部楼层
谢谢分享资源
发表于 2018-10-1 10:09:45 | 显示全部楼层
来看看甜点,喜欢,谢谢分享
发表于 2018-10-26 12:27:43 | 显示全部楼层
谢谢分享资源
您需要登录后才可以回帖 登录 | 立即注册

本版积分规则

封号公示|手机版|Archiver|有问题发邮件到admin#(换成@)hd1tj.org|微博|免责申明|HD一条街

GMT+8, 2019-2-22 07:43

快速回复 返回顶部 返回列表