HD一条街论坛

 找回密码
 立即注册
搜索
查看: 121|回复: 3

[欧美] 纪录片:主厨的餐桌 第四季[自带中文字幕]Chefs.Table.S04.1080p.NF.WEBRip.DD5.1.x264-AJP69 5.33G

[复制链接]
发表于 2018-5-18 10:57:03 | 显示全部楼层 |阅读模式
2 p9 k" u+ k6 i8 V

( C; s/ L, ?  o" i3 q◎译  名 主厨的餐桌 第四季/主厨的餐桌:甜点篇7 m: O, e7 I/ b0 {7 i# ~% z' Y
◎片  名 Chef's Table Season 41 ]* h! D# ^6 Y1 Y2 e2 w
◎年  代 2018
( n, f  N' c4 _◎产  地 美国
  a- F; q& Z* \( j" P. j◎类  别 纪录片- H/ m5 N- F5 \! z' h9 l
◎语  言 英语
8 y9 ~8 e0 _0 ]" H$ g; Q◎上映日期 2018-04-13(美国)0 G/ y0 {5 q' \" M
◎IMDb评分  7.2/10 from 83 users& O* [$ D: c8 h+ V8 f
◎IMDb链接  http://www.imdb.com/title/tt8079644/0 j9 y$ |2 h. F8 P8 \) \
◎豆瓣评分 8.7/10 from 426 users" x1 r) K$ V9 _( F) ]$ [
◎豆瓣链接 https://movie.douban.com/subject/26743594/
- [/ t. a6 Z( y0 p% n7 m◎集  数 4
# I/ e- F& ~$ d+ ]◎片  长 45分钟: X% e# d/ D8 I& ?0 w. n: `
◎导  演 布莱恩·麦金恩 Brian McGinn / 大卫·贾柏 David Gelb
/ H2 r7 V6 b& P0 R: w2 ~% \◎主  演 Christina Tosi
2 h+ X* ], X: |  B; R      Corrado Assenza
- u1 f+ C/ m3 e      Jordi Roca3 Y  s3 C2 ]& O) h$ {1 c9 h/ E9 e
      Will Goldfarb
) _8 e  O: i* U3 S, m0 V: j" _3 Q- |" Z6 t7 Q2 S2 E
◎简  介
, K" `5 u( `# G9 }* F$ }' _; G& Q! e9 d! R& B
  《主厨的餐桌:甜点篇》将聚集世界上最优秀的烘焙师们。
  1. Video( t1 M' x% X/ P: Z* X) i
  2. ID                                       : 1
    0 i, O: e* s7 N
  3. Format                                   : AVC
    0 {( W. s% L7 K0 D) r" {" _& A
  4. Format/Info                              : Advanced Video Codec- T- }3 W" y9 U# y+ m
  5. Format profile                           : [email protected]1 c9 ]- k* [. \+ [& U4 H
  6. Format settings                          : CABAC / 3 Ref Frames
    ' r3 @- @) ?4 v9 Q+ f: W( E; ?
  7. Format settings, CABAC                   : Yes$ B1 i' c  S8 ^9 o* k% @/ g
  8. Format settings, ReFrames                : 3 frames
    . o! h: a, s- z3 M& F* ]( m7 ?' P
  9. Codec ID                                 : V_MPEG4/ISO/AVC
    : W: a5 ]$ r! J, n: g8 |  m0 v3 X4 k8 {
  10. Duration                                 : 45 min 47 s
    9 b/ [, l2 Z  n4 g( W
  11. Bit rate mode                            : Variable* @- S* p1 l) w1 S0 U9 r
  12. Bit rate                                 : 4 870 kb/s  d0 i& i/ x2 D- g3 ]! \
  13. Maximum bit rate                         : 7 305 kb/s
    . _) E/ W% n3 i+ V4 f
  14. Width                                    : 1 920 pixels/ q5 {; N4 _" r
  15. Height                                   : 1 080 pixels0 N; Q  u' K" v3 U7 D: x- p
  16. Display aspect ratio                     : 16:9: ~( U6 i* |! ~' n' D
  17. Frame rate mode                          : Constant
    ! v- d) x% d- p3 u- v
  18. Frame rate                               : 23.976 (24000/1001) FPS; v1 q5 |$ g& `. v
  19. Color space                              : YUV
    ; a' _' W$ ?! e6 Z
  20. Chroma subsampling                       : 4:2:0+ |6 r/ c6 u# |! m/ }% s  g, J
  21. Bit depth                                : 8 bits
    8 ^$ y# {. V! @
  22. Scan type                                : Progressive
    - Y- R8 B' T7 N' s
  23. Bits/(Pixel*Frame)                       : 0.098
    5 e0 D6 T& J1 j: j% J
  24. Stream size                              : 1.52 GiB (92%)! j, X, I( @; J' X  T7 F1 Q
  25. Writing library                          : x264 core 148 r2715 7e752289 e+ H8 G+ L( l4 Q& [' F8 n
  26. Encoding settings                        : cabac=1 / ref=3 / deblock=1:0:0 / analyse=0x1:0x111 / me=umh / subme=10 / psy=1 / psy_rd=1.00:0.00 / mixed_ref=1 / me_range=24 / chroma_me=1 / trellis=2 / 8x8dct=0 / cqm=0 / deadzone=21,11 / fast_pskip=1 / chroma_qp_offset=-2 / threads=8 / lookahead_threads=1 / sliced_threads=0 / nr=0 / decimate=1 / interlaced=0 / bluray_compat=0 / stitchable=1 / constrained_intra=0 / bframes=2 / b_pyramid=0 / b_adapt=2 / b_bias=0 / direct=3 / weightb=1 / open_gop=0 / weightp=2 / keyint=48 / keyint_min=25 / scenecut=0 / intra_refresh=0 / rc_lookahead=48 / rc=2pass / mbtree=1 / bitrate=4870 / ratetol=1.0 / qcomp=0.50 / qpmin=6 / qpmax=51 / qpstep=4 / cplxblur=20.0 / qblur=0.5 / vbv_maxrate=7305 / vbv_bufsize=9740 / nal_hrd=vbr / filler=0 / ip_ratio=1.40 / aq=1:1.009 _1 i5 c3 F3 o. V6 }
  27. Default                                  : Yes' f' ~- \  U; ~2 L  Q/ V! L
  28. Forced                                   : No$ G: R9 x+ w; T. L( b- v
  29. / a" J- Q" ^% U3 [8 [' y1 h
  30. Audio/ f! c: Z5 P" A- Q( o4 g  h
  31. ID                                       : 2
    1 T2 T  v9 L" j2 z! S
  32. Format                                   : AC-3
    5 v+ V: v8 o! n8 d! I( @4 Y7 W- S
  33. Format/Info                              : Audio Coding 3! Z' ]8 e6 }" K/ w" y' q: F; S6 V
  34. Codec ID                                 : A_AC33 i6 t8 \# U7 y. o
  35. Duration                                 : 45 min 47 s
    # }; [9 f* B0 L6 c& \% i  ?/ }
  36. Bit rate mode                            : Constant- s8 K) M- E, e/ l, m
  37. Bit rate                                 : 384 kb/s5 z; E" L5 X9 i+ F( U
  38. Channel(s)                               : 6 channels
    ! p* R+ o" R5 H! P2 p4 S6 i
  39. Channel positions                        : Front: L C R, Side: L R, LFE
    * J" F: U9 W" s$ r7 m0 G
  40. Sampling rate                            : 48.0 kHz
    & K( X, g* I4 M" ^
  41. Frame rate                               : 31.250 FPS (1536 SPF)7 `! o( ~, h) R1 B3 Y( M
  42. Bit depth                                : 16 bits
    - p7 l; ]# Z  L$ j
  43. Compression mode                         : Lossy" C1 h6 h- S  J
  44. Stream size                              : 126 MiB (7%)4 u5 W* i& m& U) Q
  45. Title                                    : English) G7 ?' n# n2 I5 W$ b& j$ L
  46. Language                                 : English. ]% Q1 Q) V  {% z: F2 X
  47. Service kind                             : Complete Main
    3 }2 M8 h8 j0 u
  48. Default                                  : Yes
    9 K! |0 r0 y; @$ c$ j& Q
  49. Forced                                   : No
    3 s$ J9 }5 s6 j
  50. " R5 K" x3 b& L
  51. Text #1
    * m" ?# q! a6 B0 {) X! A& x% @
  52. ID                                       : 3: n  m+ ^+ I7 J
  53. Format                                   : UTF-8* }5 ]3 S3 O/ q
  54. Codec ID                                 : S_TEXT/UTF8" K* }* C2 S1 {
  55. Codec ID/Info                            : UTF-8 Plain Text: ?% ~4 J" B( b# B9 V! S
  56. Duration                                 : 31 s 990 ms7 z$ I0 {4 ^+ A3 [
  57. Bit rate                                 : 22 b/s" v! W+ d* s. ~1 C: o
  58. Count of elements                        : 6
    0 H* v0 L: C6 j
  59. Stream size                              : 88.0 Bytes (0%)
    # a2 \& \# u  c& s& H
  60. Title                                    : Forced0 x' a: i9 h! ], D& }* B8 Q
  61. Language                                 : English' P( p0 o0 L6 I; q$ U) z) n, z* e
  62. Default                                  : Yes( P4 P( c( G, L1 `8 K, o; ?& h& U0 A
  63. Forced                                   : Yes
    ; `9 X/ F$ q+ ^6 F( {6 e
  64. - q* T! v6 E7 [% v* M: b
  65. Text #2
    1 x5 i" O8 o! e% w+ O3 ~+ h
  66. ID                                       : 4
    ) Z& u: V1 ]! u# d  |" @" C/ L$ E: W9 z2 u
  67. Format                                   : UTF-80 s& i2 L5 k* o2 d) U/ a
  68. Codec ID                                 : S_TEXT/UTF8& l* v  ^& N( B5 {
  69. Codec ID/Info                            : UTF-8 Plain Text  v9 j7 I; S1 I$ e. d; O
  70. Duration                                 : 41 min 57 s9 |, _4 e) g3 Q
  71. Bit rate                                 : 72 b/s& V2 y$ l/ n# }( H0 {" x6 q# E
  72. Count of elements                        : 426
    " ^& |% f6 B0 w
  73. Stream size                              : 22.4 KiB (0%)2 S  l! z+ z& v! p9 E! Z( s& c
  74. Title                                    : SDH/ ^) x+ R& ]" J' i) n, }0 K- @7 ~/ A
  75. Language                                 : English
    3 [' T0 T: l' d  N, E7 F% j
  76. Default                                  : No
    & I. x0 j  \1 D& Y5 ?1 ^* t+ \( v
  77. Forced                                   : No9 q5 r% e9 `$ O  t: Q

  78. & M8 r2 x; F: J( |
  79. Text #33 q9 H4 _/ j  \3 r; M* _
  80. ID                                       : 5
    6 i# \7 B$ g2 y6 i3 x
  81. Format                                   : UTF-8
    + c5 J6 R: g+ \! _
  82. Codec ID                                 : S_TEXT/UTF8' `# k% I) C. U0 _( i
  83. Codec ID/Info                            : UTF-8 Plain Text
    / S0 _: C" T& R5 h; W
  84. Duration                                 : 41 min 57 s5 |0 e6 S; U4 T, J
  85. Bit rate                                 : 99 b/s: B6 g) F  B7 y) Q1 P
  86. Count of elements                        : 446: r3 n/ O  u* H) d& `+ r
  87. Stream size                              : 30.7 KiB (0%)
    $ K3 J% J6 `6 j
  88. Language                                 : Arabic
    ( c1 V+ G; q" i3 L
  89. Default                                  : No7 W- q# D3 {- {* S5 P+ T
  90. Forced                                   : No
    & S6 b, K* u  l1 r# r) I

  91. " ?% x% y7 a, V1 m! _! D5 `
  92. Text #4
    , \. C( \0 ?1 C  r; A8 \
  93. ID                                       : 6" |: v6 |6 \$ I2 G' }7 l
  94. Format                                   : UTF-8
    ! Q, C% {) S) B. D! V
  95. Codec ID                                 : S_TEXT/UTF8! V6 y7 m2 n; ^- |; s" \5 b% k
  96. Codec ID/Info                            : UTF-8 Plain Text
    0 t* L7 ~4 J0 Q/ o
  97. Duration                                 : 41 min 57 s
    ; m( l6 I. j, o" g- [/ e
  98. Bit rate                                 : 63 b/s% T1 O5 h! ]9 \) P' d. n0 L
  99. Count of elements                        : 431
    & s# F! r$ Z$ w; q
  100. Stream size                              : 19.6 KiB (0%)$ o2 N. \% X7 h0 [/ I7 W
  101. Language                                 : Danish
    . `, V8 }$ {5 \( Y
  102. Default                                  : No, Z! C5 g# O! K' N
  103. Forced                                   : No
    ! l# S% o+ \% W4 K; c  q
  104.   h. [4 }/ E9 s4 L: ^
  105. Text #5% N) ]  @! J" \* z
  106. ID                                       : 7
    ( ~1 x/ @! W7 T7 I4 g1 {
  107. Format                                   : UTF-86 v7 {  b6 m+ k
  108. Codec ID                                 : S_TEXT/UTF8- v$ A1 N9 ?1 z. _0 R8 h
  109. Codec ID/Info                            : UTF-8 Plain Text
    0 O& z* j- @* l) Y% B
  110. Duration                                 : 41 min 57 s- [1 \/ A$ A- A) w) t& F/ w
  111. Bit rate                                 : 66 b/s
    : k1 F+ h' b& b" L" C
  112. Count of elements                        : 445
    . E) v6 ~0 E: H7 `% p
  113. Stream size                              : 20.5 KiB (0%); |( P1 l( e9 P, o( @
  114. Language                                 : German
    # @7 ?: e2 v1 k) f' W! `/ O, h
  115. Default                                  : No
    0 Q+ S- N7 t& H- D6 T$ z
  116. Forced                                   : No  a; A' }* ^, ]! e
  117. . E2 `5 {/ U! ^% O
  118. Text #6
    2 E- @* S! T3 W: l  C' Q4 o& Q
  119. ID                                       : 8# C) @3 q- l2 g8 a* _7 N
  120. Format                                   : UTF-8
    * R6 n* p/ }9 b% i
  121. Codec ID                                 : S_TEXT/UTF83 [$ L, T* ]+ _7 x' @& H
  122. Codec ID/Info                            : UTF-8 Plain Text
    0 M5 u6 f3 {5 s1 l! W! u- b0 M
  123. Duration                                 : 41 min 57 s
    : c7 q) u- _# ]9 @0 X6 j  ]; y) \
  124. Bit rate                                 : 111 b/s
    7 m4 W8 @2 O4 A0 K
  125. Count of elements                        : 476
    2 A4 T0 g5 W+ E$ M% D, a
  126. Stream size                              : 34.4 KiB (0%)
    9 X( Z1 [" ?% N- F$ G9 P" [$ s6 z
  127. Language                                 : Greek. `5 X# y# L) w& j, f
  128. Default                                  : No  H( z2 l( i5 w. e2 ]6 B- A
  129. Forced                                   : No* B/ z% O* h3 z! s
  130. : c, x, `# E, e4 M
  131. Text #7
    , j9 F% R) {9 D1 w- O$ g0 s
  132. ID                                       : 93 g# H5 c6 `& X5 }
  133. Format                                   : UTF-8. B( W5 O; }4 s4 u
  134. Codec ID                                 : S_TEXT/UTF8) K* j$ w% D8 S7 Q2 {4 l! Q' F
  135. Codec ID/Info                            : UTF-8 Plain Text& k( H5 [# P6 w* _$ K/ V
  136. Duration                                 : 41 min 57 s2 g5 d. H# i" _% d8 G
  137. Bit rate                                 : 69 b/s
    2 w* ^0 N! v6 x- Q$ K, w) V
  138. Count of elements                        : 4434 M% J1 b  `# t4 D2 i
  139. Stream size                              : 21.3 KiB (0%)
    7 V" Q" C3 Y) i
  140. Language                                 : Spanish
    " Y/ U8 m2 m: c: s+ h' W
  141. Default                                  : No8 E$ n# w5 Y" `. u1 l5 a& e+ e
  142. Forced                                   : No
    4 t$ C1 i, p  L5 U- g
  143.   n2 N: _: v4 ~9 z
  144. Text #87 {- |) Z" @( X/ X- D. R, U6 B8 W
  145. ID                                       : 10) S' B, F8 s0 e
  146. Format                                   : UTF-87 M6 f1 A" ?" _$ T8 Y/ ?- Q4 M
  147. Codec ID                                 : S_TEXT/UTF82 r& @6 n9 Q' l( B+ B- \  P
  148. Codec ID/Info                            : UTF-8 Plain Text
    . Z3 ]; N& G6 Q3 T5 T$ G, d
  149. Duration                                 : 41 min 57 s& t) i5 Z/ N7 [" b
  150. Bit rate                                 : 68 b/s
    $ j: H. h+ c1 X+ q( W& B% k
  151. Count of elements                        : 443
    9 D3 }5 k# L( L4 P* V, ?
  152. Stream size                              : 21.0 KiB (0%)
    3 z& F$ x0 I  J) C
  153. Title                                    : European
      W- }0 p2 e/ L
  154. Language                                 : Spanish, X1 G) p2 l# [" t2 r
  155. Default                                  : No
    ! o' ^1 I1 f3 _2 Q* m$ U
  156. Forced                                   : No  h( D1 ^% s+ Z/ V( _5 ~

  157. ! ]0 M1 K4 k. i% X' P
  158. Text #90 v. M7 e6 G# y: R- K" _- n/ P# B
  159. ID                                       : 11
    ' c! _. ~) P) p9 _1 Q3 c! a
  160. Format                                   : UTF-84 Q& [1 e1 Q' ^
  161. Codec ID                                 : S_TEXT/UTF8
    9 P) P1 _  H# q
  162. Codec ID/Info                            : UTF-8 Plain Text8 H2 }  n2 G; U5 {: I/ w
  163. Duration                                 : 41 min 57 s
    ' R4 N( S2 q% H( h. T" V5 D
  164. Bit rate                                 : 63 b/s" u  H- Y8 B# ^4 T
  165. Count of elements                        : 405
    : L7 q5 _! p2 u: g1 l, \
  166. Stream size                              : 19.5 KiB (0%)' z; B% }4 @7 X; A
  167. Language                                 : Finnish
    & D  J9 B0 ~5 n/ t: M) Q
  168. Default                                  : No9 @7 ^3 _( {; r3 e1 w
  169. Forced                                   : No
    ( n  p6 ?* F$ X+ A6 l/ `

  170. 4 [& c' J9 ?8 {
  171. Text #10- n7 S& F% a/ O3 v
  172. ID                                       : 12
    . M0 B6 b8 T6 |/ ^' J
  173. Format                                   : UTF-84 @: D8 M( J1 Q
  174. Codec ID                                 : S_TEXT/UTF8
    & {* k5 Q+ _2 q. N+ R
  175. Codec ID/Info                            : UTF-8 Plain Text4 j' C+ P) K; M2 `+ j
  176. Duration                                 : 41 min 57 s2 @4 I8 m' z& _5 i9 k+ D
  177. Bit rate                                 : 71 b/s) f4 c& i5 {/ x8 U& i
  178. Count of elements                        : 439% c: }4 d. s& ?, _6 H
  179. Stream size                              : 21.9 KiB (0%)
    " v( e. O5 H+ g, @4 d" L
  180. Language                                 : French3 m3 w1 W8 ?! P& c" n
  181. Default                                  : No
    * O  d  \: S8 Q6 `6 Q, B
  182. Forced                                   : No+ C" ^& t" c% d* `+ }" X* c
  183. : ?7 ]9 g& V, y0 d, J( c1 L5 _
  184. Text #110 {# q  \9 t6 ~: v- ]/ |
  185. ID                                       : 13+ Z+ ]7 O% r% f" ^
  186. Format                                   : UTF-8
    ; F' J' W; }7 A! c2 [: u
  187. Codec ID                                 : S_TEXT/UTF8
    " U5 O4 L* O3 @
  188. Codec ID/Info                            : UTF-8 Plain Text
    - r9 z. ~2 J( U4 g+ e2 i
  189. Duration                                 : 41 min 57 s% m8 [7 k7 q/ K2 o2 Z$ n2 p
  190. Bit rate                                 : 92 b/s* }; O+ z+ u! K- B" N# M2 P  B
  191. Count of elements                        : 452
    : k; a' d$ A$ T" U. x
  192. Stream size                              : 28.4 KiB (0%)2 x: z( Q% l4 p+ B( A2 n2 U
  193. Language                                 : Hebrew3 m/ s! z  x, U& o) h
  194. Default                                  : No
    * U2 M) B' y  B# Q0 ~, m) v
  195. Forced                                   : No' x6 ^/ p# L) {& |$ W

  196. % n" k6 z4 ?- E4 i' O; ^
  197. Text #12- U, S( `; Y/ D- A- O; g8 \6 M8 l
  198. ID                                       : 14' ~. B2 s. Z3 K" K
  199. Format                                   : UTF-8
    ( p5 C& @! V& V
  200. Codec ID                                 : S_TEXT/UTF8
    % N5 _: D! I6 l! m
  201. Codec ID/Info                            : UTF-8 Plain Text
    . T$ W; f, ~9 }/ C: t, S$ G' [
  202. Duration                                 : 41 min 57 s8 D3 G% S5 i# W) A6 D
  203. Bit rate                                 : 68 b/s
    5 s% `3 K, a* i1 _0 I% s$ T/ S* ?
  204. Count of elements                        : 444& |, P. v% }0 Z7 Z
  205. Stream size                              : 20.9 KiB (0%)
    * [8 a' ~# Q. z& H' }: K
  206. Language                                 : Italian
    & ^2 Q0 @) j* N5 e. `+ H9 w' R
  207. Default                                  : No0 ]. o! T0 m- e% \" v, N( _
  208. Forced                                   : No" _: {9 g+ D, z2 x3 Y1 v

  209. 9 t: `0 R9 E4 W4 z# h4 {
  210. Text #13
    ! q& w- S" N: J% S
  211. ID                                       : 15
    " Z$ R- v: g6 |. w- U9 ~
  212. Format                                   : UTF-8# {0 `- S+ L6 r2 i; R
  213. Codec ID                                 : S_TEXT/UTF80 `9 l5 x6 F4 }; L8 [, q3 t
  214. Codec ID/Info                            : UTF-8 Plain Text
    # ~  C% X9 {# X- m  L
  215. Duration                                 : 41 min 57 s3 l/ q" Q" A% E) a. u) v# q. ?
  216. Bit rate                                 : 56 b/s
    9 d# R1 n0 D; Q# v7 `
  217. Count of elements                        : 4338 u; b7 T7 k  S: _, H* ]/ G! X. H( U
  218. Stream size                              : 17.5 KiB (0%)
    7 @' r4 B0 X/ J  m' \$ s7 }
  219. Language                                 : Japanese7 W1 w3 C$ k8 H% C( O, e/ U: X
  220. Default                                  : No: \6 r# F; S3 o7 m* I! I
  221. Forced                                   : No
      C0 j8 N& L) f; @! \, W

  222.   V1 v# `& G* {% c: m5 k
  223. Text #14
    1 r! }( W& J) A
  224. ID                                       : 16$ e% L4 ~( H8 \; t7 z: h* }& E1 n
  225. Format                                   : UTF-8
    ; w6 S) z4 f4 W
  226. Codec ID                                 : S_TEXT/UTF8
    5 ~5 h, I) D0 i' ^% L$ F$ _
  227. Codec ID/Info                            : UTF-8 Plain Text/ `+ f8 h* R  @' G0 y: Y( z1 T
  228. Duration                                 : 41 min 57 s
    ; E. W* C+ ?  o5 y
  229. Bit rate                                 : 62 b/s
    ! R9 w6 Q" ?: k6 z+ B/ U6 D5 h6 [
  230. Count of elements                        : 452* W! r7 Y2 p0 B0 c: H$ q
  231. Stream size                              : 19.3 KiB (0%)" L. l2 f# L) c( v: J% o6 X* @
  232. Language                                 : Korean5 X7 K  L& T% V7 ^
  233. Default                                  : No
    0 k2 W' {5 n" N: Q0 x
  234. Forced                                   : No1 [* Q2 K2 r6 G
  235. % P" m" V- w7 u2 O/ o
  236. Text #15
    : l$ J1 j% [5 D
  237. ID                                       : 17
    2 B4 L7 q# o9 y6 L9 D0 @
  238. Format                                   : UTF-8
    5 l9 [3 |5 I+ R; y* a  x( A: R: W
  239. Codec ID                                 : S_TEXT/UTF8
    * G& E$ u5 y8 m. m9 w6 E. ], a
  240. Codec ID/Info                            : UTF-8 Plain Text
    - k' f' t) |/ P( E  o0 ~# x
  241. Duration                                 : 41 min 57 s4 [# V* c4 S, H; o
  242. Bit rate                                 : 67 b/s+ g$ u  Q/ A$ }2 y# ^% U3 u
  243. Count of elements                        : 441# T+ N4 Y# t) Q/ \* c
  244. Stream size                              : 20.6 KiB (0%)
    6 c1 X' |7 k  r; P
  245. Language                                 : Norwegian Bokmal
    ) [* w+ F8 r0 P2 Q1 l+ h5 S
  246. Default                                  : No
    4 w' J/ T! F$ R9 v
  247. Forced                                   : No
      ^! m5 T# u2 m' _

  248. 1 _  ~7 [) d0 u6 `( s
  249. Text #160 x3 [0 D) w1 X, C( F2 l  N
  250. ID                                       : 18
    * M- Z; g' I8 l3 j9 u
  251. Format                                   : UTF-8
    * \1 k5 O8 v$ H: C
  252. Codec ID                                 : S_TEXT/UTF8
    2 A0 f5 e# u7 j
  253. Codec ID/Info                            : UTF-8 Plain Text
    $ S: U; n# C% N4 k5 o  K
  254. Duration                                 : 41 min 57 s
    0 z& ^  w; r* R8 W& ?% V
  255. Bit rate                                 : 56 b/s
    3 j" d" B2 @# ?4 Q* f. }2 f; T
  256. Count of elements                        : 474
    & a( i) v2 w% W! \* S( M
  257. Stream size                              : 17.4 KiB (0%)
    ) J% O( G4 B8 y: B/ q7 u! F5 \
  258. Language                                 : Dutch1 d5 S% B+ s: U- F- v7 x2 _% W
  259. Default                                  : No
    3 O, t* J' i6 ]6 e
  260. Forced                                   : No" V# L( M9 L! m( ^  p: p

  261. - k0 v( I! t7 C8 @; `% Y# `6 q
  262. Text #17
    . V3 K$ G2 }2 ~# W" E
  263. ID                                       : 19& o: `  B, M& `: z" E; x. I( p
  264. Format                                   : UTF-8; d+ t& ~6 ]& G# E2 _
  265. Codec ID                                 : S_TEXT/UTF86 |9 V' |9 N: O( u* ^& t, w
  266. Codec ID/Info                            : UTF-8 Plain Text6 a" z. \' P3 f5 d. Q7 s
  267. Duration                                 : 41 min 57 s. L. @6 [7 ^; k2 }- S
  268. Bit rate                                 : 64 b/s
    ! @3 ?! N5 C" T% @, ?; {9 _
  269. Count of elements                        : 444- i& e) N5 Z! @2 U$ M  J6 ~; S- q  e
  270. Stream size                              : 19.7 KiB (0%)
    5 `& o( V! L: q, ~+ P1 Y! M
  271. Language                                 : Polish) Z" \) r  Q% i
  272. Default                                  : No
    " S: E8 u7 ]7 h; Z
  273. Forced                                   : No
    / i7 F6 x0 z4 ^2 b% S! [: E. ^

  274. ( m& L2 I1 c+ n' y! g5 X( H8 n
  275. Text #18& \1 \9 c  w) s/ T
  276. ID                                       : 20
    0 |- \; h3 O7 d  e* ?/ p( R
  277. Format                                   : UTF-8# K/ h' w( m' I4 j$ p) s2 c
  278. Codec ID                                 : S_TEXT/UTF84 t* b0 V. Z1 L  {+ M$ `
  279. Codec ID/Info                            : UTF-8 Plain Text
    3 m) t1 g1 G& f  }$ d: f
  280. Duration                                 : 41 min 57 s( P. v/ G1 a2 h' c! M0 B  J- R
  281. Bit rate                                 : 72 b/s
    / c# m2 H! ~" C: [, Q
  282. Count of elements                        : 4441 v1 P) V' Z. z
  283. Stream size                              : 22.1 KiB (0%)( L7 P7 I5 w( B7 p: _& M1 L( _( x$ q
  284. Language                                 : Portuguese
    " N! U" j" o4 D" W+ A
  285. Default                                  : No
    , Y3 x7 D- j2 o/ X7 o' n
  286. Forced                                   : No( [+ m. Q& u# }

  287. . n7 D6 U6 Y' n  m
  288. Text #19
    - w) G6 p) s+ x9 k5 B0 t$ D
  289. ID                                       : 21, C% X% v& k0 q! M2 x! z
  290. Format                                   : UTF-8
    " [* M# O6 E2 k) Z; q$ z
  291. Codec ID                                 : S_TEXT/UTF8
    - p$ }) Z0 w( U$ C
  292. Codec ID/Info                            : UTF-8 Plain Text  z- m) K8 }7 a3 W) u
  293. Duration                                 : 41 min 57 s
    * u  f  j" e3 W3 R& d
  294. Bit rate                                 : 64 b/s$ z, X. {& }3 @9 y6 M; A2 O4 d7 ^
  295. Count of elements                        : 447
    4 I- c# f7 @' C& U
  296. Stream size                              : 19.8 KiB (0%)
    . g, ^7 Q  K9 G. ?( s
  297. Title                                    : Brazilian
    8 i7 j7 _( z" r5 F: d( o- s5 S7 H- A
  298. Language                                 : Portuguese
    - G, M. d- Z, ?; e5 j9 _2 K+ ^5 c
  299. Default                                  : No
    & X  N( @8 {9 I# C0 J
  300. Forced                                   : No
    0 X' O! {" I( c$ T7 z* ^
  301. 3 f2 R6 I3 T* l- l
  302. Text #20! \; h: T" y: I2 M- C! `
  303. ID                                       : 22
    - h6 ?; N4 I2 D$ l
  304. Format                                   : UTF-8
    3 E( |3 n' z0 f3 \
  305. Codec ID                                 : S_TEXT/UTF8
    ; e- H; u% a" a/ k5 X: n# `
  306. Codec ID/Info                            : UTF-8 Plain Text0 R8 e4 I" d; t
  307. Duration                                 : 41 min 57 s/ ?9 H( z1 j1 o& N( R# \5 T
  308. Bit rate                                 : 68 b/s( P/ b$ T. e. C8 r* {
  309. Count of elements                        : 4416 g4 P! o0 |8 v9 P9 Z; N
  310. Stream size                              : 21.0 KiB (0%); y  @* G- c- n# K2 L
  311. Language                                 : Romanian' j, \- }$ [- ^) s
  312. Default                                  : No% I) o. Y* \) z, J7 l3 ^, z
  313. Forced                                   : No
    8 i! F0 M0 U7 b6 E

  314. " s6 d, G* W+ \' _" g
  315. Text #21, K! U, B4 u: s( J7 \( u
  316. ID                                       : 23
    ) [7 U' Y1 _3 [: a% t' Z' h: h3 j
  317. Format                                   : UTF-8
    + X; ]3 B4 Z5 v' k" i
  318. Codec ID                                 : S_TEXT/UTF8
    % K2 J. q/ L- h  m6 F# x
  319. Codec ID/Info                            : UTF-8 Plain Text
    ; q5 \5 i1 u# L- O2 Z+ _: V1 F2 g
  320. Duration                                 : 41 min 57 s
    , ]" r2 k* ?3 {8 Y( E
  321. Bit rate                                 : 61 b/s. j+ C, o9 }% X$ m4 T* Q
  322. Count of elements                        : 444
    + h% w* n6 p# y* o
  323. Stream size                              : 19.0 KiB (0%)
    5 Q' D1 h; j* [6 ?  t" P5 S
  324. Language                                 : Swedish
    / B+ S0 n- W- [, o5 U% U
  325. Default                                  : No
    . T0 h% _* w+ `1 z% [' K
  326. Forced                                   : No* U$ T8 Y" G0 t% u

  327. # L" Z; |5 W9 j. o  H% W
  328. Text #22
    2 P# k$ f; @2 d/ K7 R
  329. ID                                       : 243 g  D% Y: L9 T0 B2 @3 G; [, |9 D
  330. Format                                   : UTF-8/ j3 Y" L5 k& h6 x- X0 P
  331. Codec ID                                 : S_TEXT/UTF87 [2 ^- S  A/ x/ M
  332. Codec ID/Info                            : UTF-8 Plain Text
    / s0 S' J' s! i
  333. Duration                                 : 41 min 57 s" }* M: o7 q9 `( u% p4 g( g7 b7 G
  334. Bit rate                                 : 157 b/s
    ( O# f4 D0 e1 O! v. K0 G
  335. Count of elements                        : 453; z1 t( G  z, p
  336. Stream size                              : 48.4 KiB (0%)  F% F5 z% b5 z1 R8 |8 d
  337. Language                                 : Thai
    . G( |# {7 H+ [- b" V) Z; F) D
  338. Default                                  : No4 H) O; {7 S: a- M9 F( L/ B
  339. Forced                                   : No9 w1 F) h( {+ j7 {! `

  340.   f% ~; |1 A% E
  341. Text #23
    7 d+ P- e; L/ F( @
  342. ID                                       : 25, s1 D+ D9 ]% Y/ B9 g2 L
  343. Format                                   : UTF-8
    , J$ R, C- \4 q2 \5 K2 d4 g. ^
  344. Codec ID                                 : S_TEXT/UTF85 U9 R: V) P; L
  345. Codec ID/Info                            : UTF-8 Plain Text* @7 a" @) s9 z0 j9 @" K  T
  346. Duration                                 : 41 min 57 s4 N% A9 Z# h* v' Z
  347. Bit rate                                 : 64 b/s7 U7 y5 \4 _& n( w/ A1 I) k$ `
  348. Count of elements                        : 447
    # Z& {+ B$ n. F& ?9 ~
  349. Stream size                              : 19.8 KiB (0%)0 T8 M1 ^; I8 ~  }; O# J4 i. [! p
  350. Language                                 : Turkish
    - K, A; P4 @! G1 _6 U4 C! ]3 _8 h3 O
  351. Default                                  : No7 f& U( m6 O- s6 c2 G
  352. Forced                                   : No
    " S; {% U5 c1 J0 Z, |

  353. 9 d3 a" A% u5 k8 i
  354. Text #24
    & t3 t* i6 X4 R
  355. ID                                       : 260 z, X2 r3 {6 o; O
  356. Format                                   : UTF-88 O: U' }7 V+ [6 c, T8 k
  357. Codec ID                                 : S_TEXT/UTF80 y7 {, i2 l6 O( C: \0 U8 C
  358. Codec ID/Info                            : UTF-8 Plain Text
    % Q  q6 c* W* N9 n3 K
  359. Duration                                 : 41 min 57 s7 A# n* _7 p; }9 i1 Z
  360. Bit rate                                 : 86 b/s! J& r5 t: O. s; L7 @
  361. Count of elements                        : 451- B5 ]( z( j' u7 Y
  362. Stream size                              : 26.7 KiB (0%)
    ( T7 X2 ]1 r3 p3 q+ f) q  u) H
  363. Language                                 : Vietnamese8 \+ F6 O$ o5 n+ ?1 v
  364. Default                                  : No
    8 u1 N; H+ x% ~2 G- `
  365. Forced                                   : No
    2 t7 G* d! Z3 z  B7 j( k# w
  366. 0 Y* o0 S2 l* Y- y! W
  367. Text #25: O" y* V; C) l, ^/ U6 w! O6 k4 |
  368. ID                                       : 27
    : k0 t' H. E4 h  h; D% a
  369. Format                                   : UTF-8" \2 t# d2 _! Q- W
  370. Codec ID                                 : S_TEXT/UTF8! g& p' }1 d- o! C: s6 k9 g) o
  371. Codec ID/Info                            : UTF-8 Plain Text. M. Z; a; B$ k+ `; s+ |/ D
  372. Duration                                 : 41 min 57 s! K- F- L1 y- w. U1 a' O! l% m% ^, [
  373. Bit rate                                 : 52 b/s$ Y* z" X. M! b# d
  374. Count of elements                        : 452
    * j1 w1 t5 h) k8 s4 w8 Z
  375. Stream size                              : 16.2 KiB (0%)
    ; c0 d" O0 I0 C, T! ]+ Q/ D( A
  376. Title                                    : Simplified1 I* b. w1 q  I8 L
  377. Language                                 : Chinese5 l# m6 Q* Y$ Q
  378. Default                                  : No$ u) I. \2 [2 m3 b' `4 T( D8 v8 X
  379. Forced                                   : No
    0 d" H2 j& C2 b# Y
  380. , m" z6 b2 @0 o7 c7 [1 u$ q
  381. Text #26
    ! `- l3 z0 o' H! F, B0 @! [! s- Q
  382. ID                                       : 28/ {4 b( z3 C/ S/ [
  383. Format                                   : UTF-8
    + b+ C) J( {3 [7 |- d2 K& U& C$ L
  384. Codec ID                                 : S_TEXT/UTF8
    * ?% ]" J. g; E! n
  385. Codec ID/Info                            : UTF-8 Plain Text2 q! x) E( f' |! C
  386. Duration                                 : 41 min 57 s
    - T3 y1 _* h1 ?9 M9 Q2 L! Q
  387. Bit rate                                 : 51 b/s
    $ |8 i4 O6 v/ u& h& R
  388. Count of elements                        : 452
    ' J0 |( m0 @& w- N
  389. Stream size                              : 15.9 KiB (0%)
    : }( e) X3 Q: U1 ^
  390. Title                                    : Traditional* j: `$ B% y+ w& v% d
  391. Language                                 : Chinese
    : p' L) p8 L4 `* x
  392. Default                                  : No
    8 x) i; O/ y/ H" [: f3 a2 b, ?/ C
  393. Forced                                   : No
复制代码

  u% J: O9 m; [6 Q7 ?2 t4 V8 c1 \

% r- D1 ?: Y6 M0 x
- L! H5 O- \6 Y' `! z: O, M) g) c3 }3 v! k, E

* U6 L0 B& h6 V1 H1 c7 O
游客,如果您要查看本帖隐藏内容请回复  捐助论坛可免回复查看隐藏内容 详情请点击
发表于 2018-5-22 13:35:52 | 显示全部楼层
楼主辛苦了
发表于 2018-6-26 14:25:20 | 显示全部楼层
一直就是喜欢这题材
发表于 2018-8-22 14:30:22 | 显示全部楼层
谢谢分享资源
您需要登录后才可以回帖 登录 | 立即注册

本版积分规则

封号公示|手机版|Archiver|有问题发邮件到admin#(换成@)hd1tj.org|微博|免责申明|HD一条街 |网站地图

GMT+8, 2018-9-22 10:59

快速回复 返回顶部 返回列表