HD一条街论坛

 找回密码
 立即注册
搜索
查看: 205|回复: 5

[欧美] 纪录片:主厨的餐桌 第四季[自带中文字幕]Chefs.Table.S04.1080p.NF.WEBRip.DD5.1.x264-AJP69 5.33G

[复制链接]
发表于 2018-5-18 10:57:03 | 显示全部楼层 |阅读模式

3 o- d# ^& z( @( M( u) U$ `& E2 ]* G$ K" \
◎译  名 主厨的餐桌 第四季/主厨的餐桌:甜点篇
7 t, x% v  M' w) [% c& R6 d* V◎片  名 Chef's Table Season 4
. Y) k) L' M8 H" K◎年  代 2018
! }* x5 f7 E% P◎产  地 美国
* a/ Q5 i5 G, J& y9 t  E  H◎类  别 纪录片1 n2 Q: s# H- F4 J- p
◎语  言 英语! k  S, ^. T/ o* I& v: j
◎上映日期 2018-04-13(美国)! G( H$ `0 n- l$ X
◎IMDb评分  7.2/10 from 83 users: J; q2 |7 X; O* b( G0 j+ u
◎IMDb链接  http://www.imdb.com/title/tt8079644/* L1 p# D5 q  {' \+ Y5 s
◎豆瓣评分 8.7/10 from 426 users- ~6 I( ^. `3 [3 c. P: M  L* ]" P
◎豆瓣链接 https://movie.douban.com/subject/26743594/
; y3 s- Z& i+ G- i◎集  数 4) ~6 I9 F6 x! ^: }2 c( K7 o; H
◎片  长 45分钟
4 Q5 l$ e# p* N* q- f◎导  演 布莱恩·麦金恩 Brian McGinn / 大卫·贾柏 David Gelb
1 y1 o+ J" a0 z! Q◎主  演 Christina Tosi
  N9 s" R' V5 q      Corrado Assenza, y! Y& S5 j  h3 b; P
      Jordi Roca
9 y9 K3 @5 V" N      Will Goldfarb
* q8 g9 R, U' I$ Z$ ~4 l- y
! W( V7 P# T3 S! ~4 L3 f% r◎简  介5 U* f+ z: s) t9 d6 l5 a8 [
, l" B1 X- r; @, X) ~
  《主厨的餐桌:甜点篇》将聚集世界上最优秀的烘焙师们。
  1. Video
    # H4 B/ M& x: [6 h- ^6 W: z9 H. z
  2. ID                                       : 1/ l) y2 Y* U/ G# {8 z: s, D! n
  3. Format                                   : AVC9 f5 o4 c( f# _" u2 C
  4. Format/Info                              : Advanced Video Codec6 y& X; L! B+ X4 m" _- p
  5. Format profile                           : [email protected]
    ) _+ c1 @8 |% y6 C" V, m! n* M
  6. Format settings                          : CABAC / 3 Ref Frames
    % r3 `& r. M/ g! ?4 x/ z
  7. Format settings, CABAC                   : Yes4 o! j7 \) r1 @* _
  8. Format settings, ReFrames                : 3 frames
    . |! p% ~) M& H- p! _8 `
  9. Codec ID                                 : V_MPEG4/ISO/AVC5 x9 [0 K, T% ~( k( V; E
  10. Duration                                 : 45 min 47 s  n5 y: d3 g: D
  11. Bit rate mode                            : Variable- H( L# Z, b! \9 S8 ~
  12. Bit rate                                 : 4 870 kb/s
    4 P, J: d5 D# T/ D* l
  13. Maximum bit rate                         : 7 305 kb/s" }, W# S1 P$ W1 S
  14. Width                                    : 1 920 pixels
    / U+ q# I* d; o4 F; I5 d
  15. Height                                   : 1 080 pixels
    / l) g: s, F: ?. x* W& V5 }1 `
  16. Display aspect ratio                     : 16:9/ B! y' i6 y3 t, W- U
  17. Frame rate mode                          : Constant
    6 P7 |$ v$ p: Y; C
  18. Frame rate                               : 23.976 (24000/1001) FPS; e; a5 P; x6 O+ i
  19. Color space                              : YUV
    1 f1 P+ p8 G3 n9 g. D7 Q, W
  20. Chroma subsampling                       : 4:2:0& g) F# V1 ]! t3 Z1 J% j* h
  21. Bit depth                                : 8 bits
    & T+ k7 [3 x8 g6 K1 V# _
  22. Scan type                                : Progressive
    . L& A8 d! M1 E! B2 U2 w+ _
  23. Bits/(Pixel*Frame)                       : 0.098' H$ U3 K9 o- @4 g7 n* l
  24. Stream size                              : 1.52 GiB (92%)! F8 l. e! j/ d- [. t
  25. Writing library                          : x264 core 148 r2715 7e75228
      O. s) Y0 }. S8 c: K
  26. Encoding settings                        : cabac=1 / ref=3 / deblock=1:0:0 / analyse=0x1:0x111 / me=umh / subme=10 / psy=1 / psy_rd=1.00:0.00 / mixed_ref=1 / me_range=24 / chroma_me=1 / trellis=2 / 8x8dct=0 / cqm=0 / deadzone=21,11 / fast_pskip=1 / chroma_qp_offset=-2 / threads=8 / lookahead_threads=1 / sliced_threads=0 / nr=0 / decimate=1 / interlaced=0 / bluray_compat=0 / stitchable=1 / constrained_intra=0 / bframes=2 / b_pyramid=0 / b_adapt=2 / b_bias=0 / direct=3 / weightb=1 / open_gop=0 / weightp=2 / keyint=48 / keyint_min=25 / scenecut=0 / intra_refresh=0 / rc_lookahead=48 / rc=2pass / mbtree=1 / bitrate=4870 / ratetol=1.0 / qcomp=0.50 / qpmin=6 / qpmax=51 / qpstep=4 / cplxblur=20.0 / qblur=0.5 / vbv_maxrate=7305 / vbv_bufsize=9740 / nal_hrd=vbr / filler=0 / ip_ratio=1.40 / aq=1:1.00* T( t2 _1 @3 W7 f. t2 a% d/ }
  27. Default                                  : Yes
    9 F0 n8 k- z2 b, q, X
  28. Forced                                   : No
    1 ^) Y4 a9 G- i9 M( v- Z' v3 {
  29. + @1 }  R& z. t  h
  30. Audio
    + y8 _. A8 D6 o+ O; h' o
  31. ID                                       : 2; V3 f# u) d* K
  32. Format                                   : AC-3
    ' f/ J, v( K; x/ f5 B1 s
  33. Format/Info                              : Audio Coding 3# R( S1 W0 W# r) y0 k
  34. Codec ID                                 : A_AC37 l2 E) U  a# B3 |0 [: d2 |; J( O, a
  35. Duration                                 : 45 min 47 s# m! }/ q( `& s" N  c
  36. Bit rate mode                            : Constant
    ! \9 `9 J- L, }( ^2 t+ c& a
  37. Bit rate                                 : 384 kb/s
    ( i) ^4 a( }  M$ K8 X: u$ U
  38. Channel(s)                               : 6 channels
    4 }3 ]) Y' n- i. z; |0 ^' z) X8 t
  39. Channel positions                        : Front: L C R, Side: L R, LFE
    + C  A5 P3 q0 \# D" I: Y
  40. Sampling rate                            : 48.0 kHz
    " `6 N+ Y5 L' K+ C- a$ f. u6 _
  41. Frame rate                               : 31.250 FPS (1536 SPF)
    0 _) V2 ?3 ], d1 I
  42. Bit depth                                : 16 bits, u- J+ W4 o: q/ v+ |+ j
  43. Compression mode                         : Lossy
    & ]) m& {: E  d& `4 X
  44. Stream size                              : 126 MiB (7%). X7 y# l7 k+ a. H3 Z
  45. Title                                    : English# N/ S, l. f6 {. A/ k1 F! h1 m6 L
  46. Language                                 : English
    0 D* H, e1 _! J: }- I; s3 o) e
  47. Service kind                             : Complete Main0 W  j% P9 P3 B6 ^+ Y
  48. Default                                  : Yes1 _. h9 b% U8 q3 ~! ]
  49. Forced                                   : No8 `+ {( v( r, Y( {; ]3 H/ ^9 R

  50. 7 i, U$ o" L  e
  51. Text #1
    3 m& Q' Q; {8 z7 f
  52. ID                                       : 38 K8 z% [+ p# m& O: g$ |; S6 r3 B
  53. Format                                   : UTF-8
    : R, k7 c# o6 y) v% x& _! u8 m
  54. Codec ID                                 : S_TEXT/UTF8% o& H% d7 z, s5 y. i! T
  55. Codec ID/Info                            : UTF-8 Plain Text- D9 J$ g7 E( X/ l  O6 N
  56. Duration                                 : 31 s 990 ms$ o$ G& N/ K5 K1 C
  57. Bit rate                                 : 22 b/s, i6 h( T2 m, H9 S( ~# c
  58. Count of elements                        : 6
    , {+ l3 \# a1 b1 |* y# @3 b0 J
  59. Stream size                              : 88.0 Bytes (0%)
    3 O8 W$ H: l, A: E0 j" }
  60. Title                                    : Forced
    . b1 O) z& q! i8 }- f
  61. Language                                 : English. p4 ^( ~- o! U' B2 f
  62. Default                                  : Yes
    / `6 ^& }- J9 J
  63. Forced                                   : Yes) d# m; t) p4 U  P+ F: z/ k, H1 o8 S

  64. + v. Q8 Y  P6 }% s, t
  65. Text #26 F! _6 x5 [9 U
  66. ID                                       : 4  C' e* Y2 _4 }. K& k% P
  67. Format                                   : UTF-8) h4 p8 C7 A% j- U- l* g
  68. Codec ID                                 : S_TEXT/UTF8
    ! ?2 f( M3 c. ~' l5 g# R3 x
  69. Codec ID/Info                            : UTF-8 Plain Text
    # K  J. J: V3 W$ P' U) _
  70. Duration                                 : 41 min 57 s; e* V: V8 C7 ?8 S* ?
  71. Bit rate                                 : 72 b/s* w- x. i0 z2 d% W' y$ ?7 r
  72. Count of elements                        : 426" D+ \# b  i/ g2 F
  73. Stream size                              : 22.4 KiB (0%)8 R! c4 V4 O! j! g. p! L/ Q
  74. Title                                    : SDH# @# D1 Y; P4 s
  75. Language                                 : English
    . `9 A5 r7 W) m& n! L& `1 c
  76. Default                                  : No5 w, t# z% `! R  R; V8 v
  77. Forced                                   : No6 n# K+ K' J0 k* v: r  w

  78. 2 O% Q3 p1 H7 H
  79. Text #3/ ^: Q5 [; M0 \# f1 w
  80. ID                                       : 5
    * G! C1 G6 |5 Q0 b( k# M
  81. Format                                   : UTF-8
    9 w: |. |' @4 P" t7 ^% u
  82. Codec ID                                 : S_TEXT/UTF8$ G4 s" v4 y5 g& S/ F5 a
  83. Codec ID/Info                            : UTF-8 Plain Text, O, m* V; V  p1 S  f$ k. L* V: e
  84. Duration                                 : 41 min 57 s5 Y! D  E. c! B$ E1 p
  85. Bit rate                                 : 99 b/s
    1 \  |/ S; D  r! ^% J
  86. Count of elements                        : 446
    3 k& g5 o# a- b' f; ^+ A* y# s7 _4 m
  87. Stream size                              : 30.7 KiB (0%)5 |/ {0 @: e3 W3 D6 Z
  88. Language                                 : Arabic
    8 @8 _1 U! x4 z- z$ g
  89. Default                                  : No
    - \* q" R& }+ B
  90. Forced                                   : No1 {0 z" t7 l- G7 @/ s. s* c! R' @

  91. 0 z# z7 |3 [, C( r6 K
  92. Text #4
    $ ], Q1 K- H4 D& J* P9 g
  93. ID                                       : 6
    4 t1 B; ]% b2 O3 [* `. q4 H- `8 ^
  94. Format                                   : UTF-85 Z# X' x) [& |# C) u6 u
  95. Codec ID                                 : S_TEXT/UTF8
    % S/ P; ~6 P4 ]* w) @
  96. Codec ID/Info                            : UTF-8 Plain Text
    ( [- }8 A+ F& k, t6 O
  97. Duration                                 : 41 min 57 s% v7 O7 c9 m8 \/ k' [6 M/ F; l
  98. Bit rate                                 : 63 b/s
    ( {9 g$ K5 B5 b; ^
  99. Count of elements                        : 431
    , Z! O7 g: p" u" m, s5 }
  100. Stream size                              : 19.6 KiB (0%): v# C: X4 I: a# Z
  101. Language                                 : Danish" f/ j, d+ A" `! ]& I1 L6 P( i
  102. Default                                  : No# `7 f6 J; C& ~# W& E
  103. Forced                                   : No
    ! `  f& e0 W+ O4 x' ~/ O

  104. ) d# R8 P3 X, U
  105. Text #5
    $ q1 c. T! i5 T/ K4 U
  106. ID                                       : 7- |6 C+ s5 X) G% d' ~0 G5 C
  107. Format                                   : UTF-8' X7 h3 f* N7 L  V
  108. Codec ID                                 : S_TEXT/UTF8
    ' o" D2 }! ^$ j; Y; A
  109. Codec ID/Info                            : UTF-8 Plain Text
    . E) @9 I! ]+ c3 O
  110. Duration                                 : 41 min 57 s
    . Q9 H: X/ e0 c9 S
  111. Bit rate                                 : 66 b/s, J0 n5 Y4 ^, v) _0 g
  112. Count of elements                        : 445
      h! q; \+ P! U; J' J
  113. Stream size                              : 20.5 KiB (0%)' F' |- T+ O4 c. L4 k- B+ w, M
  114. Language                                 : German
    + k0 D2 }& t  b( |# v8 k0 n
  115. Default                                  : No
    7 W  z! {$ l  n/ B5 y+ {: J* S
  116. Forced                                   : No
      k  i$ S$ S4 _

  117. # ~& b* K* I; c/ a1 e: u- K: m2 e
  118. Text #6* Z5 C. S0 o) a0 P+ ?
  119. ID                                       : 8$ g5 Y$ @: j3 L9 j  [) W
  120. Format                                   : UTF-89 }4 a! V* U3 A4 U6 t3 ~, X
  121. Codec ID                                 : S_TEXT/UTF8
    5 P6 v6 m4 {( `# v. z* x2 b
  122. Codec ID/Info                            : UTF-8 Plain Text/ k" R( Y' s" |8 e4 P: n
  123. Duration                                 : 41 min 57 s* b: h: h8 t5 C$ a& M  W
  124. Bit rate                                 : 111 b/s
    0 o  i* @* ]' b. y% h; [
  125. Count of elements                        : 476+ H/ Z5 @& n3 p- C6 O9 o
  126. Stream size                              : 34.4 KiB (0%)* i0 a6 ~1 t5 J# l( j
  127. Language                                 : Greek
    " {2 Q5 E5 Z) U. U/ c
  128. Default                                  : No/ a2 s% J# ]) ]$ F, O
  129. Forced                                   : No
    / _2 H) i) c3 Q7 I4 p: X. t

  130. ( P9 f; f8 s' G
  131. Text #7/ ^' f: s" ~0 s) w
  132. ID                                       : 9
    3 u/ {. v+ F/ n8 R6 M5 a4 H
  133. Format                                   : UTF-8" Z; Z. f% W! ^& H& ^3 ^8 S
  134. Codec ID                                 : S_TEXT/UTF8
    # p6 c1 U0 C2 \) p0 u
  135. Codec ID/Info                            : UTF-8 Plain Text
    + h& N8 m4 E4 i" m) z
  136. Duration                                 : 41 min 57 s& k3 w" O+ ?& u+ }
  137. Bit rate                                 : 69 b/s
    4 K0 X& F% }) P1 c8 ~0 N
  138. Count of elements                        : 443
      b/ I/ d! d0 u+ [7 t+ `, t* u0 L
  139. Stream size                              : 21.3 KiB (0%)
      L) ?: j! I+ N+ q9 k
  140. Language                                 : Spanish
      t0 d  |! Q" z" s2 F6 @
  141. Default                                  : No8 k1 M. z! J9 l7 P0 z) p2 _$ d
  142. Forced                                   : No
    2 r* P5 J8 Q% ^6 p/ y

  143. ' a4 D/ z" k/ A. r
  144. Text #8
    9 r4 D( `' X- U. x. g& q+ z
  145. ID                                       : 10
    6 Z5 }. D1 R9 M1 [  S
  146. Format                                   : UTF-8
    3 Q0 W  ^* s4 k3 `% G
  147. Codec ID                                 : S_TEXT/UTF8
    / y- H$ o! N7 t5 M! X& F& N
  148. Codec ID/Info                            : UTF-8 Plain Text- I  u' h  ]7 J4 `5 s0 l+ t+ Y
  149. Duration                                 : 41 min 57 s( H+ k9 X, }3 t1 u
  150. Bit rate                                 : 68 b/s
    ; n: z) n( E& u8 y* g+ f
  151. Count of elements                        : 443% Z4 m  q: K: p
  152. Stream size                              : 21.0 KiB (0%)+ Y: }1 q5 r8 O. q7 Y) e$ t5 B
  153. Title                                    : European$ [7 o+ b4 X% B8 V* K4 A
  154. Language                                 : Spanish3 T! P2 \5 V* G& `9 [
  155. Default                                  : No
    8 h$ O9 s6 q: T( V9 O
  156. Forced                                   : No
      z5 |3 e% \: B) [0 f

  157. . U+ K; p) O9 i$ |% p
  158. Text #98 V7 T; s2 Q. F' {1 p5 a' B
  159. ID                                       : 11
    / C: D4 s, V$ M2 e+ C+ b' w
  160. Format                                   : UTF-8
    7 L5 x* [' D# M8 Y! }( H
  161. Codec ID                                 : S_TEXT/UTF8
    ) u: b; c! t4 V" M& D5 Y
  162. Codec ID/Info                            : UTF-8 Plain Text, I! G  \, }1 ^9 S! _
  163. Duration                                 : 41 min 57 s/ c4 m7 V% P3 H9 p" @
  164. Bit rate                                 : 63 b/s
    / b. r) `' ~# h' O2 @5 P5 l
  165. Count of elements                        : 405
    1 Q5 N' B4 C' L7 M( j& H  d
  166. Stream size                              : 19.5 KiB (0%)
    ) K) }% Y% S, U3 }6 |
  167. Language                                 : Finnish" s( o# ^9 W5 y1 |# R, L0 P
  168. Default                                  : No- h+ s8 Z2 M' g1 B
  169. Forced                                   : No; |/ j$ K4 H: S% \, r+ m! N- P
  170. % x. K! X8 F0 s+ L% d# e* w5 ~* D. f
  171. Text #108 D, Q! |: T" u5 E7 C' i. }" c7 P1 b
  172. ID                                       : 12
    , w$ Z# @5 {" T! q
  173. Format                                   : UTF-8
    0 T  U" H. l- H! t# c
  174. Codec ID                                 : S_TEXT/UTF82 ?4 P/ @* C; B, L) W% s$ _
  175. Codec ID/Info                            : UTF-8 Plain Text& _* g) I% _/ n# r4 Q
  176. Duration                                 : 41 min 57 s
    0 M$ H, r: N/ ?/ X
  177. Bit rate                                 : 71 b/s
    8 E) O: n9 z' b+ X+ R% W
  178. Count of elements                        : 439# d3 j% W# j7 U, C. ?8 r, I% v
  179. Stream size                              : 21.9 KiB (0%)
    7 |3 G3 s7 y: E
  180. Language                                 : French
    + D' v4 Z, j" O5 \6 S" P% X
  181. Default                                  : No
    , S  N0 w1 E! l" n3 A8 c$ K6 y( k' G
  182. Forced                                   : No$ {  [  V& k  X5 {/ I) n, Q
  183. , P6 x& y' c% {7 z6 R
  184. Text #11
    % Z, V; M- N$ b4 i, I  M" M6 F, _8 K
  185. ID                                       : 13
    . F; C2 _; D8 F! L6 g( Z( \
  186. Format                                   : UTF-88 R5 T2 m: q* b. U
  187. Codec ID                                 : S_TEXT/UTF8
    : E- k/ U: f4 C. t* L; D/ n; J4 P
  188. Codec ID/Info                            : UTF-8 Plain Text$ ]+ z7 f$ M. }
  189. Duration                                 : 41 min 57 s6 S! M3 J/ J3 Q
  190. Bit rate                                 : 92 b/s5 G% d! i# [" G5 R6 i
  191. Count of elements                        : 452
    : `' J# w/ f6 W/ j6 R) ?# a
  192. Stream size                              : 28.4 KiB (0%)' X6 H7 d+ o( F9 y* f7 q, I
  193. Language                                 : Hebrew
    6 k6 j. C; K* j$ ~' i' N
  194. Default                                  : No
    $ v5 }% O0 ^2 L+ z( O! `
  195. Forced                                   : No
    / I6 z$ a% z( e# ~

  196. 6 K4 T( z$ u7 z3 J. d
  197. Text #12
    # J& D; v8 ^6 d4 v; _8 s8 {) n' t  F
  198. ID                                       : 147 l: z8 G% J2 m6 r' ^. V: v' ^
  199. Format                                   : UTF-8
    # t( u5 N# y8 J1 z$ J4 v- u; ?/ f: S
  200. Codec ID                                 : S_TEXT/UTF8
    7 o9 R- B6 V0 A
  201. Codec ID/Info                            : UTF-8 Plain Text! W  |2 a3 q9 j3 p. J7 h
  202. Duration                                 : 41 min 57 s/ n' u9 N% g8 @
  203. Bit rate                                 : 68 b/s' [, U, Y6 Y& U. x: `$ k3 k! ?% K4 _
  204. Count of elements                        : 444) k4 f  J. J+ n! {3 ~
  205. Stream size                              : 20.9 KiB (0%)
    # a9 {: L+ M. D" T% y4 A. V/ W
  206. Language                                 : Italian
    . Y4 C0 _- @9 A  t4 A
  207. Default                                  : No: G- C! r1 ]2 T3 x% D- }2 v" p- x$ |
  208. Forced                                   : No
    & i: E7 H" S& t  M9 |# f% p8 P+ t

  209. ' H8 W7 q' V$ H% b/ Z
  210. Text #13
    - l6 |* R. y7 r
  211. ID                                       : 15
    - E; h; v3 W" F. `5 ?$ K. }
  212. Format                                   : UTF-8& y+ y+ b+ z+ {
  213. Codec ID                                 : S_TEXT/UTF8
    * ]! g  L2 Y: F3 y+ i
  214. Codec ID/Info                            : UTF-8 Plain Text. c& P8 g5 a9 ~
  215. Duration                                 : 41 min 57 s4 p3 z* s7 S: U" S/ [
  216. Bit rate                                 : 56 b/s, H0 e% B' v( R/ c4 X( C$ t( \2 v7 l
  217. Count of elements                        : 433$ x, d2 F3 }& u4 _9 m, r9 I2 Y9 b
  218. Stream size                              : 17.5 KiB (0%)
    9 [, ?* O# B8 H. s
  219. Language                                 : Japanese8 B( s8 @2 D1 p) Y
  220. Default                                  : No
    0 N! L& |; Z* L7 w
  221. Forced                                   : No
    ( f  ]' I" j& r7 Q; K

  222. - _! O( p* |/ A, R; Y
  223. Text #14
    8 x& @8 `" {2 a  Y
  224. ID                                       : 16
    ) U6 }3 q  S' I$ ?
  225. Format                                   : UTF-8
    - {$ e# Q$ ^! y5 @& c
  226. Codec ID                                 : S_TEXT/UTF8
    % Q( n3 G, P3 F7 g8 ]
  227. Codec ID/Info                            : UTF-8 Plain Text
    & l4 [( f. T1 u" u" D, m0 ~
  228. Duration                                 : 41 min 57 s3 p: t% A! g0 [' b7 N
  229. Bit rate                                 : 62 b/s
    ! h, j6 E& G2 @
  230. Count of elements                        : 452. \; Q3 ]" u+ M7 s
  231. Stream size                              : 19.3 KiB (0%)7 r1 C- @0 s7 u0 Q) B9 ]; D, q
  232. Language                                 : Korean4 o, }, `& j* u5 o5 u# D
  233. Default                                  : No
    ! I; `. N$ H, ^1 W" `9 n/ I
  234. Forced                                   : No- x8 A$ Y$ S0 z- T* X6 X
  235. + n9 O& N, S. I7 y2 U
  236. Text #157 Z7 l3 w% k- T# G8 S6 X3 _. z
  237. ID                                       : 17" I- A- Y: I6 t4 ?
  238. Format                                   : UTF-83 O0 U) s/ r- \6 \( ^# L
  239. Codec ID                                 : S_TEXT/UTF8
    * p; d* J" x! n. l- W* d# {; v+ P
  240. Codec ID/Info                            : UTF-8 Plain Text
    3 v4 R0 R# ]" \& u* I" X
  241. Duration                                 : 41 min 57 s
    + a) S9 u4 o# _- L0 D
  242. Bit rate                                 : 67 b/s# [5 L( r  I; z8 M# }
  243. Count of elements                        : 4413 @) W5 M0 t0 k5 l7 v: C5 q
  244. Stream size                              : 20.6 KiB (0%)
    5 C+ m# D, e( `
  245. Language                                 : Norwegian Bokmal
    ! K6 s% G  [: a2 Q# J6 }
  246. Default                                  : No
    : W, ~5 G! ?1 Q# {1 e
  247. Forced                                   : No
    ' l0 _! j) [( k1 c
  248. $ n9 d* A3 {( [. J' b# D, Y
  249. Text #168 o& @4 X7 e% H- G
  250. ID                                       : 18: m* `5 w: }0 E- e6 |+ f6 k) i' f
  251. Format                                   : UTF-8
    : T6 w5 Y. l+ D3 O; v
  252. Codec ID                                 : S_TEXT/UTF86 N, I! M. H" Z1 h! B3 f& d
  253. Codec ID/Info                            : UTF-8 Plain Text
    + M6 z  s: i' ~. b
  254. Duration                                 : 41 min 57 s0 J' i. q- A( @9 @% x5 Y
  255. Bit rate                                 : 56 b/s
    ( o- Y" f9 K3 A1 H4 w7 p
  256. Count of elements                        : 474
    - H% a! ~3 g2 D7 h( U7 H
  257. Stream size                              : 17.4 KiB (0%)
    2 O) ~) c1 g$ v9 y. i# N8 u* g+ v, e
  258. Language                                 : Dutch
    " L6 t( w# r7 Y: w5 p% Z  G2 p2 v* j
  259. Default                                  : No+ q9 k0 D0 B; L
  260. Forced                                   : No) d3 `* u8 P) J# y9 G9 r
  261. ; U& g% d# I# h  b
  262. Text #17! m0 V9 x/ _5 ^4 Q8 |
  263. ID                                       : 19
    . y! u  A: ^9 Y2 x. e# K
  264. Format                                   : UTF-88 |: H' A# Z( u7 V, |* z/ p; ~
  265. Codec ID                                 : S_TEXT/UTF8
    3 H# B, X' O8 Y3 J& L
  266. Codec ID/Info                            : UTF-8 Plain Text
    . [0 o/ M1 v1 n! f) T8 L9 [7 d
  267. Duration                                 : 41 min 57 s
    7 a  X5 a$ k& D+ q; o9 X- {
  268. Bit rate                                 : 64 b/s
    2 A. J) {" P2 y8 Q* h3 L
  269. Count of elements                        : 444
    1 W4 q0 W) g! j
  270. Stream size                              : 19.7 KiB (0%)
    , q# b( I$ E  N* U8 ^( e  R
  271. Language                                 : Polish3 u5 O6 }& F2 _; y# l0 W9 s
  272. Default                                  : No  m- j/ R& s7 I( Q
  273. Forced                                   : No3 K2 u1 m6 l/ O" h7 a! L

  274. & \4 _3 _: I  R. X
  275. Text #18$ D' }. \# @! w; D1 j' x; P
  276. ID                                       : 20) }6 G$ o3 w6 z  P8 y! x( W
  277. Format                                   : UTF-8! c! A. Q& K8 H
  278. Codec ID                                 : S_TEXT/UTF88 _7 p: R! S7 ]/ X9 e  B4 h0 L$ F0 F
  279. Codec ID/Info                            : UTF-8 Plain Text- k% e1 \2 F- T0 {1 j! G, U
  280. Duration                                 : 41 min 57 s' H6 {! U3 |' t# V6 }
  281. Bit rate                                 : 72 b/s
    ' C6 w$ s: n8 U2 \8 {# t* |
  282. Count of elements                        : 444
    . |+ K: C" c$ ?+ @( A
  283. Stream size                              : 22.1 KiB (0%)
    ' b" [. S2 V% P9 R$ w8 k
  284. Language                                 : Portuguese
    ) k8 @! U" Q  B% M" H% W
  285. Default                                  : No/ V$ u* A0 D9 E- X! s
  286. Forced                                   : No; B; ^+ _( B' h: {- ]9 F* P& l( l
  287. 8 V) {4 J1 F+ F8 a* `
  288. Text #191 m9 O9 i& P5 n' S' B# Y! b' P
  289. ID                                       : 218 U- ^8 g5 z( V1 Z7 W
  290. Format                                   : UTF-8
    $ L% R2 D8 H$ ~2 M1 l6 U: W
  291. Codec ID                                 : S_TEXT/UTF8
    : e0 R" n/ |2 H9 D  l1 |
  292. Codec ID/Info                            : UTF-8 Plain Text
    0 _9 C5 c( i4 V
  293. Duration                                 : 41 min 57 s
    " C6 Q% @( K( O; H: S" z
  294. Bit rate                                 : 64 b/s
    * @( R3 ]$ A" C+ ?+ b) S! j
  295. Count of elements                        : 447
    ; c: ]2 \$ g, y9 Z( K
  296. Stream size                              : 19.8 KiB (0%)- R$ T3 y) l& ]/ k: g9 n
  297. Title                                    : Brazilian
    9 ^) H6 `0 B+ _7 O0 h: j' Y/ m
  298. Language                                 : Portuguese
    0 L0 G3 p$ W7 i6 i' P0 p" V
  299. Default                                  : No; _. z! ]" c) _  T" L' D
  300. Forced                                   : No2 U( s6 h/ L- F. [5 {' v

  301. 0 L0 _5 D$ ?3 T5 l$ {0 {/ E
  302. Text #206 b9 f7 Z# r! X% s; C% \  j
  303. ID                                       : 22. l3 @% M, T9 i: t% @
  304. Format                                   : UTF-8
    ) N; N$ T1 W) a: s$ t6 n
  305. Codec ID                                 : S_TEXT/UTF8
    ! m) J; j4 n: m% q5 I! q& i6 q
  306. Codec ID/Info                            : UTF-8 Plain Text" |) A0 I9 a/ X2 ?$ e! k/ R) v
  307. Duration                                 : 41 min 57 s
    / d5 ]! H2 L- w. `5 b
  308. Bit rate                                 : 68 b/s
    9 B, L* c( j: F) e% J/ J% h' T0 a, S
  309. Count of elements                        : 441
    & H4 P) [0 @! m1 I
  310. Stream size                              : 21.0 KiB (0%)  t; S6 {' D: O" _& o
  311. Language                                 : Romanian5 y& w& Q5 G& x) f3 c; y
  312. Default                                  : No
    / k7 d0 e; E6 H& o5 {9 u7 T
  313. Forced                                   : No
    9 N7 Z2 q8 {% b, ]

  314. / i3 C2 {) P  @3 c4 h
  315. Text #21
    * F) `; i& b! u
  316. ID                                       : 23
    % F6 Q) a2 c7 ]3 j: _' q! n4 B
  317. Format                                   : UTF-85 R. w. q1 R4 v1 b" _3 e$ Y
  318. Codec ID                                 : S_TEXT/UTF8
    & Z" \9 P2 V  G, m
  319. Codec ID/Info                            : UTF-8 Plain Text2 L9 E$ ]7 k# q4 u
  320. Duration                                 : 41 min 57 s# S7 X* Y+ u7 v. M* L8 G1 ^
  321. Bit rate                                 : 61 b/s( y) T! s- w: C4 d+ @0 J0 o
  322. Count of elements                        : 4442 |, [/ w& i, q6 N4 }' M! U' q6 s2 i1 Y
  323. Stream size                              : 19.0 KiB (0%)
    ) u  k# r/ N! i! }, K3 _
  324. Language                                 : Swedish
    1 z7 }* o7 r0 E# H. `( |% r
  325. Default                                  : No! G  r/ {; F  l2 {2 |/ v
  326. Forced                                   : No
    3 p6 M  H5 V- j; X
  327. ! m8 z7 B2 y' L+ \6 c
  328. Text #227 e- n, H. _  S4 s% m
  329. ID                                       : 24
    5 O7 l: v2 A0 M2 G9 m7 t1 q, v
  330. Format                                   : UTF-8% s1 o- S0 g& b0 U# Z, H; ]
  331. Codec ID                                 : S_TEXT/UTF8
    9 H( {# \" }) \: z
  332. Codec ID/Info                            : UTF-8 Plain Text2 a! K2 Y8 }/ ]- p( V
  333. Duration                                 : 41 min 57 s
    ! s& X+ b3 i* u9 ]! e
  334. Bit rate                                 : 157 b/s
    9 n; m* C' C; c: b9 ^, _
  335. Count of elements                        : 453! q! i1 B! p& a4 a
  336. Stream size                              : 48.4 KiB (0%)
    - t; ^9 F/ U) H0 f/ b
  337. Language                                 : Thai
    8 @9 L8 r, B* i# a, K( V$ e5 w
  338. Default                                  : No
    $ D/ D$ U' L! \) v& f) T
  339. Forced                                   : No
    0 H4 z- s* n6 M: g# w% P' N2 C; q

  340. 7 n0 l( Z4 f$ n2 O
  341. Text #23  E! s7 \3 ?) T3 z# ]" q
  342. ID                                       : 25
    % @2 H+ `2 C0 C3 ]) X7 q
  343. Format                                   : UTF-8. C8 v9 C; C$ A+ `% K' e
  344. Codec ID                                 : S_TEXT/UTF8+ I. u+ C/ z5 ?
  345. Codec ID/Info                            : UTF-8 Plain Text
    8 a7 J5 ?# p" Y
  346. Duration                                 : 41 min 57 s- R5 b2 F/ W1 c" M. U: k
  347. Bit rate                                 : 64 b/s
    % ]9 w% `  O  t
  348. Count of elements                        : 447
    - w/ m& S. R  Y* E
  349. Stream size                              : 19.8 KiB (0%)
    ! h; H0 l6 C, }* x/ \6 V
  350. Language                                 : Turkish  H$ S4 `+ |' W
  351. Default                                  : No' q4 C9 }- M3 ^, ^
  352. Forced                                   : No
    0 X! F7 d  J5 v! \/ J- l+ A2 W

  353. 4 [3 p! `/ O8 G
  354. Text #24
    . ~: ~# ^! |6 w4 C( m$ Z8 T
  355. ID                                       : 26
    ! r7 P4 B! e9 x& H7 y  s7 F5 K
  356. Format                                   : UTF-8
      v& |; j0 `' h1 t
  357. Codec ID                                 : S_TEXT/UTF8
    & g. u0 x+ l- L& c1 e9 T( g5 t4 t
  358. Codec ID/Info                            : UTF-8 Plain Text3 |1 p1 P1 Q, _- h$ A4 k. p( p5 K
  359. Duration                                 : 41 min 57 s
    0 u- W$ Y: U) ]3 @
  360. Bit rate                                 : 86 b/s
    ) f! t# U8 p2 u, l0 y
  361. Count of elements                        : 451
    6 B) T2 Z! A8 q; n, R; J. d% g
  362. Stream size                              : 26.7 KiB (0%)' ]' U+ F# g& p2 p: r9 B. X
  363. Language                                 : Vietnamese3 Y) Z; t4 W3 E4 f) l# \/ D
  364. Default                                  : No" R$ a: f. ~" O9 ~
  365. Forced                                   : No
    / E5 ?! R; u4 o9 ^
  366. ( b! }4 N7 R: w- K7 J! x
  367. Text #25
    " m* _9 g5 O, m! J3 ]: G* r
  368. ID                                       : 27
    6 b4 W- b% I  P8 l/ a4 ^
  369. Format                                   : UTF-8) P2 V# z- t8 N! D! G& X: ^
  370. Codec ID                                 : S_TEXT/UTF85 g# z% p4 U1 q7 q: f( S5 {/ y
  371. Codec ID/Info                            : UTF-8 Plain Text
    " D4 x" `  F7 i! a0 C& c
  372. Duration                                 : 41 min 57 s; p+ U( K4 y0 w, d$ J
  373. Bit rate                                 : 52 b/s" z) w/ y# F* y! f( K( `' h1 W
  374. Count of elements                        : 452' L& ?) K( Y: v+ e; ^% q
  375. Stream size                              : 16.2 KiB (0%)' P1 k/ z2 e( d
  376. Title                                    : Simplified. N5 l* e0 r; a- ~/ Q
  377. Language                                 : Chinese/ i0 Y9 u! d  j( d2 W
  378. Default                                  : No
    / r, z/ \" i1 x6 s
  379. Forced                                   : No! E" a6 k; b% P, O

  380. 3 i1 F3 p$ _! S- i1 a3 T% m
  381. Text #26
    4 e& F! W" y9 r) _1 Y6 W
  382. ID                                       : 28
    2 a" I/ [; [* [) U5 ^( H. T
  383. Format                                   : UTF-8
    , D  g1 k+ A' C" v- ?# r; E' Z
  384. Codec ID                                 : S_TEXT/UTF8
    / Q4 }3 G" I9 y* l' |; U" d
  385. Codec ID/Info                            : UTF-8 Plain Text
    , i8 h8 {3 T8 l8 A& O5 v5 z. C- u
  386. Duration                                 : 41 min 57 s$ q% C- b; n- d. N
  387. Bit rate                                 : 51 b/s
    / U3 g) u& T: {$ e( B
  388. Count of elements                        : 4525 Q/ R% j# x  V  L
  389. Stream size                              : 15.9 KiB (0%)
    ) z7 j9 K  u6 N1 J! k4 d$ g9 Y
  390. Title                                    : Traditional
    5 y" I) Z! t: O/ |7 ^1 h1 J
  391. Language                                 : Chinese9 }" Y- G" J- `8 `
  392. Default                                  : No. Z" S0 Z- e- f' v# i9 Z3 D! G% z
  393. Forced                                   : No
复制代码
' T5 \0 \2 a6 D( D9 n, S

- p/ Y, R+ D6 }+ S1 z+ D
/ Y0 t; t1 [5 U( ^. W; [/ X7 i* m1 I7 l2 [

% i' w# q+ f% y+ F: A# D0 r3 R$ G8 D, M, Z/ r7 K' Q
游客,如果您要查看本帖隐藏内容请回复  捐助论坛可免回复查看隐藏内容 详情请点击
发表于 2018-5-22 13:35:52 | 显示全部楼层
楼主辛苦了
发表于 2018-6-26 14:25:20 | 显示全部楼层
一直就是喜欢这题材
发表于 2018-8-22 14:30:22 | 显示全部楼层
谢谢分享资源
发表于 2018-10-1 10:09:45 | 显示全部楼层
来看看甜点,喜欢,谢谢分享
发表于 2018-10-26 12:27:43 | 显示全部楼层
谢谢分享资源
您需要登录后才可以回帖 登录 | 立即注册

本版积分规则

封号公示|手机版|Archiver|有问题发邮件到admin#(换成@)hd1tj.org|微博|免责申明|HD一条街

GMT+8, 2018-11-18 13:33

快速回复 返回顶部 返回列表