HD一条街论坛

 找回密码
 立即注册
搜索
查看: 20|回复: 1

[1080P] 欧巴,我入戏了[自带中文字幕]Dramaworld.S01.1080p.NF.WEBRip.DDP.2.0.x264-TrollHD 6.57G

[复制链接]
发表于 2018-5-18 10:53:47 | 显示全部楼层 |阅读模式

; b: h( u* i- N' w- T, k  X) R
$ ]/ k! S* L7 m% B( s1 ~◎译  名 欧巴,我入戏了' e" Z  E8 L0 [- R* B
◎片  名 Dramaworld* \9 F6 P' H* I) i! c2 V
◎年  代 2016
$ m: Z5 ?- ^! ~& m◎产  地 美国/中国大陆/韩国
- ~! @. q8 F6 o. T◎类  别 喜剧/爱情/奇幻
/ E9 e4 s7 ^: k2 u; q. Z1 C( P: k. H◎语  言 英语/韩语
( {6 G2 O5 B; c* I! K2 n+ i; m◎上映日期 2016-04-17(美国)/2016-05-09(中国大陆)
- Q0 M* @, P  _0 ~  h5 ?! Y◎IMDb评分  7.8/10 from 1,017 users9 f5 L# ~% F: T4 U! A0 w! Q8 W3 [% f
◎IMDb链接  http://www.imdb.com/title/tt5468694/" g$ Q6 S% o* c* i* n
◎豆瓣评分 6.4/10 from 171 users
' }" Z4 P& `; J5 P* A; k' o◎豆瓣链接 https://movie.douban.com/subject/26790927/
( B9 b1 a. x, G; C9 Y% H! u! z◎集  数 10
# R2 r3 w/ B" m$ |; _0 d" _◎片  长 15分钟/ q& |5 h/ l' A7 l( a
◎导  演 克里斯·马丁1 b% [$ H. T: V  ^
◎主  演 丽芙·休森 Liv Hewson
6 F0 @( |/ w6 Q      丁世翰
  @3 {) X. C4 \0 c8 F% I7 z      裴都丽
. `- S. x1 x( O      全知泰
0 G/ J- \  ^' A! Z$ u      金思喜
5 C3 e* B* G/ ?      崔始源 Si Won Choi
/ F  ?8 K: R$ T, ?      韩智敏 Ji-min Han
6 c0 }- @  O/ N. V& b/ G( g% F& Z4 O8 p- X- L5 Z
◎简  介* o& t4 M0 M9 n! n' c/ S
5 q3 T9 [8 d6 z" \0 x
  美国国际TV网站VIKI于近日宣布将以中国、韩国电视剧为素材,制作网络剧《电视剧世界》。该剧讲述了非常喜爱韩剧的美国女大学生中了魔法,在韩剧中冒险的故事。
; I' q0 p( k8 j" ]  据悉,该网络剧将拍摄10集,每集20分钟,计划于10月份开始拍摄,明年上半年播出,首尔为主要取景地。6 y& @, t9 h2 D2 D, l. _
  演员方面,目前很多韩国演员正在试镜,韩智敏和崔始源已经确定客串。
  1. Video
    / \6 g. U* n) A* u! R9 q5 K8 i1 E
  2. ID                                       : 17 n; Y7 J3 d* |5 Y$ g1 X9 }+ t
  3. Format                                   : AVC
    : Y2 M  w+ q0 h
  4. Format/Info                              : Advanced Video Codec* a1 ^  W5 e* L7 ~- y7 I
  5. Format profile                           : [email protected]
    . k  D4 I% K9 C8 w
  6. Format settings                          : CABAC / 4 Ref Frames. C, T2 R' @/ t5 N
  7. Format settings, CABAC                   : Yes7 s' \! [' ?- O1 A2 V- Z8 `, h8 h
  8. Format settings, ReFrames                : 4 frames
    ) `; m- @9 L- C
  9. Codec ID                                 : V_MPEG4/ISO/AVC
    . V- e1 U& f: _
  10. Duration                                 : 18 min 35 s4 l6 k" o! Y& N3 u4 w
  11. Bit rate                                 : 8 545 kb/s
    * R1 I5 x( U, V  x  I( S  B
  12. Width                                    : 1 920 pixels
    , M' H8 `: F  x" Q5 U
  13. Height                                   : 1 080 pixels* Y# Y; W# V9 a  k4 h
  14. Display aspect ratio                     : 16:98 g& ]7 e# B  Y& D. ?1 a! ~( S8 a
  15. Frame rate mode                          : Constant
    . l5 n* |$ `5 |  W- B, D- x% d
  16. Frame rate                               : 23.976 (24000/1001) FPS$ L; ~& U& U3 D/ V! o
  17. Color space                              : YUV
    + H2 e  O  n- \9 s
  18. Chroma subsampling                       : 4:2:0
      T- \* r. K  C5 u1 b
  19. Bit depth                                : 8 bits
    / M9 L( q4 X( P+ x- u) w
  20. Scan type                                : Progressive
    & Z6 O' F! u( b6 l: ^6 N5 g+ |! `
  21. Bits/(Pixel*Frame)                       : 0.172
    4 l6 S# ^- H+ `, t* ^: ]- w# [
  22. Stream size                              : 1.11 GiB (98%)' f9 P- v8 X1 B4 s) D/ v* G
  23. Writing library                          : x264 core 148 r2638 7599210: C7 x& v/ g$ p/ [9 h0 e8 `
  24. Encoding settings                        : cabac=1 / ref=4 / deblock=1:-3:-3 / analyse=0x3:0x133 / me=umh / subme=10 / psy=1 / psy_rd=1.00:0.00 / mixed_ref=1 / me_range=48 / chroma_me=1 / trellis=2 / 8x8dct=1 / cqm=0 / deadzone=21,11 / fast_pskip=1 / chroma_qp_offset=-2 / threads=24 / lookahead_threads=4 / sliced_threads=0 / nr=0 / decimate=0 / interlaced=0 / bluray_compat=0 / constrained_intra=0 / bframes=8 / b_pyramid=2 / b_adapt=2 / b_bias=0 / direct=3 / weightb=1 / open_gop=0 / weightp=2 / keyint=240 / keyint_min=23 / scenecut=40 / intra_refresh=0 / rc=crf / mbtree=0 / crf=16.0 / qcomp=0.60 / qpmin=0 / qpmax=69 / qpstep=4 / ip_ratio=1.40 / pb_ratio=1.30 / aq=3:0.700 V- w! l; @6 S* p* p) B+ B7 N% j
  25. Default                                  : Yes
    % j% w6 z4 C8 B+ T. c4 G  D
  26. Forced                                   : No
    5 }- r& t. a- w, M# M" E

  27. . ~9 x9 i9 _1 j) ^8 k/ F
  28. Audio) F5 ~; r, d# D5 ^2 C
  29. ID                                       : 2, {% U: `0 ?- x; S
  30. Format                                   : E-AC-3$ K- t3 \" i1 F- ]/ M# d
  31. Format/Info                              : Enhanced Audio Coding 3
    3 \' n. P$ X& o& ~: y) y6 p; k, g
  32. Codec ID                                 : A_EAC3
    . V1 M( M8 k1 v( X" o' }" T+ ?) W" @
  33. Duration                                 : 18 min 35 s
    - G. g) P: F- n9 A
  34. Bit rate mode                            : Constant  e( j$ S% c8 M+ E- A
  35. Bit rate                                 : 128 kb/s: U3 t, v8 u& X& _, N5 B0 @
  36. Channel(s)                               : 2 channels
    1 J1 a/ D. T. E) `. r% Y9 [, ^
  37. Channel positions                        : Front: L R
    0 k8 T+ x6 U7 |+ X5 n. v6 t
  38. Sampling rate                            : 48.0 kHz2 E2 B, j/ t. `) m6 s2 |+ N
  39. Frame rate                               : 187.500 FPS (256 SPF)
    ' F/ b8 x9 F2 C
  40. Compression mode                         : Lossy
    / W0 [# x5 F2 a5 w# R8 P' t" j& E
  41. Stream size                              : 17.0 MiB (1%)0 y$ P+ e! L" f0 V& h4 _' z
  42. Title                                    : English# b1 |% ]) q( M' a' i9 d, n+ B2 @- W
  43. Language                                 : English% u& C; ~+ G, J, V& r0 ^3 H
  44. Service kind                             : Complete Main
    " ]! _: E% E4 A5 o5 M: u" \8 U
  45. Default                                  : Yes
    5 i' u+ b# D7 a( k4 k: {- l7 D
  46. Forced                                   : No
    ; Y9 t+ h7 G: x4 U$ B3 e

  47. ; A: o. A2 l! E6 y
  48. Text #18 O8 L$ r: c, S' A$ l1 i
  49. ID                                       : 3
    8 R! V  d5 k4 O5 M. D. ^# R, `1 [9 H
  50. Format                                   : UTF-8
    2 J  T( U3 \7 O. N; y% |
  51. Codec ID                                 : S_TEXT/UTF8) G0 [, }+ G# V  d" z5 Z$ k" U% L
  52. Codec ID/Info                            : UTF-8 Plain Text
      s) J; I  J; O8 b) t
  53. Duration                                 : 16 min 47 s! B# C5 L4 M9 h
  54. Bit rate                                 : 29 b/s
    9 K0 t2 N) ^3 ?0 t; L" S
  55. Count of elements                        : 85
    $ I7 @# ~# @, |0 r. S
  56. Stream size                              : 3.64 KiB (0%). r' q; ]$ a7 h1 h+ w
  57. Title                                    : English (Forced)
    4 T6 e8 Y' |; e6 L! [+ q$ N6 x
  58. Language                                 : English$ L0 e1 z6 q/ F( l
  59. Default                                  : Yes
    2 `- r) k, G: [& P+ U
  60. Forced                                   : No
    / i0 e8 ^1 v0 {9 C* @- B
  61. ! y/ M5 h% o& H  b8 b
  62. Text #20 _# _) D" c$ u: X- t
  63. ID                                       : 49 e8 g, H4 c: v6 z  J
  64. Format                                   : UTF-8: W, Q& ~; P5 [+ @$ E; H
  65. Codec ID                                 : S_TEXT/UTF8
    # a% ~& x1 V, R  {$ @# G
  66. Codec ID/Info                            : UTF-8 Plain Text" x" K" _$ P* i9 V
  67. Duration                                 : 17 min 0 s3 R% x& {/ p$ p: r! ~8 h
  68. Bit rate                                 : 78 b/s
      |: n7 a* r! k0 j! h
  69. Count of elements                        : 248
    " h5 _' T, ]9 o  [' _
  70. Stream size                              : 9.77 KiB (0%)
    + W; y  x. r. e) X- r4 j
  71. Title                                    : English
    7 Q8 k0 B' U5 Z& c& i
  72. Language                                 : English6 `$ b- k; B5 X9 Z+ w
  73. Default                                  : No
    0 C; c! }+ a5 f- n" |
  74. Forced                                   : No. H2 Q; F2 }& W) W/ I) v2 b

  75. $ Y4 d2 V# y8 t5 i
  76. Text #36 k( x* u) y/ G' T7 g
  77. ID                                       : 5; b* R% l: r5 b! F- r" q
  78. Format                                   : UTF-8
    ( Z: G3 H  P/ R/ @% L  }
  79. Codec ID                                 : S_TEXT/UTF8
    - U' `0 f1 ]; o- p9 ~
  80. Codec ID/Info                            : UTF-8 Plain Text
    8 r" H) z; [9 n8 ]# a1 I2 _  ~
  81. Duration                                 : 17 min 12 s
      u$ {& O5 Q- E& _4 d" [! M
  82. Bit rate                                 : 94 b/s
    $ ?  |1 P- G4 s
  83. Count of elements                        : 239
    ; }5 E; r' ~9 p$ {5 X1 y
  84. Stream size                              : 11.9 KiB (0%)
    ( a# G# z6 P* O/ v  ?
  85. Title                                    : Arabic) y4 t. r3 s9 |  ^  X. {' b; Q5 O
  86. Language                                 : Arabic( c$ V5 h. M7 N& U
  87. Default                                  : No4 q. p& w9 o6 o) G
  88. Forced                                   : No$ w8 Q4 ?2 V4 M8 J' X0 y
  89. " g: [. I1 e% r
  90. Text #4% Y7 M- c( @: o9 J- L1 ]
  91. ID                                       : 6
    $ Y5 i. K' J( ?4 i+ b! x; d6 S4 P
  92. Format                                   : UTF-8
    " s8 Y/ G3 i; d5 L3 Z
  93. Codec ID                                 : S_TEXT/UTF8" T: M! ?" ?8 |- A' Q! v  a
  94. Codec ID/Info                            : UTF-8 Plain Text
    + c* K8 s7 i6 Q, @: @" Y
  95. Duration                                 : 17 min 12 s
    & F" y; r: c* }. ?. V
  96. Bit rate                                 : 54 b/s
    9 _% U+ U+ B* }! Y& n
  97. Count of elements                        : 235
    2 S+ C$ P8 R" `
  98. Stream size                              : 6.91 KiB (0%)
    ) d7 e: a" j( I4 K
  99. Title                                    : Chinese (Simplified)1 m5 `/ u! l+ L# b; A8 k
  100. Language                                 : Chinese
    1 S0 {/ X- X& f  `9 \9 J
  101. Default                                  : No
    * u; ]. |* l7 U% V. b8 n
  102. Forced                                   : No
    - w9 t7 g& P  B- M5 ]
  103. # W' x* J6 C  H  ^: {% Z  B
  104. Text #5" p) a' e2 q2 ^: i. e* ?
  105. ID                                       : 7) J9 R# s8 ^# n  q% }/ m4 |
  106. Format                                   : UTF-8
    3 \( B2 R; w- }) e0 p& C8 P
  107. Codec ID                                 : S_TEXT/UTF8# x4 u; T5 m% ~7 j& P
  108. Codec ID/Info                            : UTF-8 Plain Text9 z: S& f9 M2 T3 s# H+ X2 I& }* M
  109. Duration                                 : 17 min 12 s
    & W" {+ w) w2 q0 G, |
  110. Bit rate                                 : 56 b/s0 j# g8 d) ]) Q& P  s" \) ?) M
  111. Count of elements                        : 2396 P2 V/ ~5 o8 x: q( \* x/ h* V. ~
  112. Stream size                              : 7.15 KiB (0%)
    ; U% ?7 }9 {# n7 o. [! @1 r% ~
  113. Title                                    : Chinese (Traditional)
    4 D. c% f$ d4 B
  114. Language                                 : Chinese
    ; H0 v, z2 ]5 n/ v
  115. Default                                  : No
    0 M% j1 Y. p7 y( ~( m3 X1 M1 p
  116. Forced                                   : No2 P" [& Z& A% B# K0 Y
  117. / x, w8 z( `- I$ T
  118. Text #64 d' v0 ]" p/ ?% t# o# l8 L; h
  119. ID                                       : 8) S0 d  [" b1 q9 t- C/ v
  120. Format                                   : UTF-8
    # r* }" s, ~) Z2 R
  121. Codec ID                                 : S_TEXT/UTF8) J( W5 X+ @2 }; v* _% U' m
  122. Codec ID/Info                            : UTF-8 Plain Text
    5 h- L( I% {+ R- X# Z
  123. Duration                                 : 16 min 46 s* Q7 |+ g( y8 p1 j' `" X$ ]
  124. Bit rate                                 : 75 b/s
    " u) c; x6 S$ ?' }2 |) p
  125. Count of elements                        : 231
    % w2 s+ F8 C  ^2 u  x9 B; X. ^
  126. Stream size                              : 9.32 KiB (0%)
    2 H: F  R/ M8 ~, ~0 f
  127. Title                                    : Danish
    / {+ f# o  \0 X) A, l( a6 n% i
  128. Language                                 : Danish
    ) G9 y- `( Z5 E# W
  129. Default                                  : No
    ( j$ v# `7 I0 `: q8 n
  130. Forced                                   : No
    - J1 c6 x, o0 L2 [& y+ [' g6 {
  131. 1 r* K; s6 ?8 v/ l$ Z
  132. Text #7
    . E8 m+ m: _- U  I  c5 p+ ]4 H
  133. ID                                       : 9
    : o9 ?" G# [6 R! Q4 _: v
  134. Format                                   : UTF-86 O% [% N: U, v) b2 c
  135. Codec ID                                 : S_TEXT/UTF8
    $ Z# @; s  I) i$ q* b6 h
  136. Codec ID/Info                            : UTF-8 Plain Text: F" }: u- W2 @5 m1 L
  137. Duration                                 : 16 min 46 s: p% o9 [3 A+ J3 x; p- ^  D* `$ R  B7 \
  138. Bit rate                                 : 78 b/s
    : t9 n" s9 }0 X: r: W
  139. Count of elements                        : 224% h7 A4 z8 Q! T" {
  140. Stream size                              : 9.70 KiB (0%)8 I0 R- Z' i8 e) h0 M6 b
  141. Title                                    : Dutch1 G3 \$ ~5 i$ y9 \. f
  142. Language                                 : Dutch% s1 e- S& \. \# y& c
  143. Default                                  : No) _* B9 R6 l1 t& [& w
  144. Forced                                   : No. ^$ W6 a7 D* w( k
  145. 0 G1 E( Y1 G( V( A9 W5 {
  146. Text #8; ]5 i9 D! E3 e
  147. ID                                       : 10
    ! I3 H9 I$ w; [
  148. Format                                   : UTF-87 t4 h3 K/ R6 u, t& a" M& I
  149. Codec ID                                 : S_TEXT/UTF8# h3 X& |4 ^( e& h2 H1 T- Z1 X
  150. Codec ID/Info                            : UTF-8 Plain Text& X, L5 n; Y5 G/ R& X
  151. Duration                                 : 16 min 46 s
    8 r/ t. p% o- i0 ~7 N: Z& g
  152. Bit rate                                 : 77 b/s
    ( z7 {0 k8 M- ?1 S: a/ t
  153. Count of elements                        : 221; g) d$ T4 `8 R; N- O
  154. Stream size                              : 9.51 KiB (0%)
    6 G0 X3 L5 t7 _2 i( u
  155. Title                                    : German/ c  S! Y) _2 e/ L) I! }" K
  156. Language                                 : German) g- _! K9 b5 E/ p3 _7 Z5 n% L( G
  157. Default                                  : No
    9 S% T2 C* y0 r# {$ L- T' |
  158. Forced                                   : No$ c- x0 O' H1 A; k) |
  159. ( G. c. _3 ~  T) K4 Y
  160. Text #96 y! ^( D4 u, d4 j4 c
  161. ID                                       : 113 K# @4 K9 G; z: ?8 Q
  162. Format                                   : UTF-8+ Q0 S- V7 s( X' G2 ^
  163. Codec ID                                 : S_TEXT/UTF8/ ~  _3 ^9 }6 \7 C8 a6 A
  164. Codec ID/Info                            : UTF-8 Plain Text
    & e4 @. w: w1 L$ j9 e9 d3 [* |2 q3 x" k
  165. Duration                                 : 16 min 46 s
      I7 Y. ~( u$ w: ?5 G# L
  166. Bit rate                                 : 67 b/s
    / c$ `( M1 H; t6 r0 f) p1 p
  167. Count of elements                        : 225
    1 R. X% ~9 v) ~0 R
  168. Stream size                              : 8.30 KiB (0%)
    3 J8 N" k4 {2 S; N2 r$ O+ o
  169. Title                                    : Finnish
    6 C! P3 P& M. S7 }( E% D& b
  170. Language                                 : Finnish
    : F3 N" G0 d* g5 e' Z: d
  171. Default                                  : No
    + m+ |) q) d4 q# P% Z% ]
  172. Forced                                   : No
    0 G0 v( \8 s/ t  ?# a) }5 {

  173. " J4 ~+ S, @/ V1 |4 d
  174. Text #10: Y6 _# M1 ]" C3 _2 u1 k3 J
  175. ID                                       : 12
    : T- y! U6 y3 r9 r+ s! W
  176. Format                                   : UTF-8
    + h/ V7 O7 I9 P# t# F; }
  177. Codec ID                                 : S_TEXT/UTF8
    & D/ r1 M) F4 H
  178. Codec ID/Info                            : UTF-8 Plain Text) O+ B- K8 s% [+ j4 [0 r6 j
  179. Duration                                 : 16 min 46 s
    5 Q+ j7 W) O6 \6 X
  180. Bit rate                                 : 78 b/s
    9 U+ u5 @0 J, O' Z
  181. Count of elements                        : 2316 A4 z4 _/ X9 I; }5 R
  182. Stream size                              : 9.70 KiB (0%)
    # F( ^: ]3 ~, p' i& O' q- d
  183. Title                                    : French
    $ C& t. [  G. [/ f) g6 m$ T
  184. Language                                 : French
    ) U3 t. z- L; [* o; W; Y) |2 U8 r2 P$ g
  185. Default                                  : No7 A% G* k( i7 r6 L( p2 g* L
  186. Forced                                   : No
    4 J/ X% b8 m% E/ y# p: n# ?

  187. 3 B/ ~" @, c0 p
  188. Text #11
    3 d- Y- @- h, B# a
  189. ID                                       : 13
    ) Z8 \4 Z: b0 I/ D' T: n# N
  190. Format                                   : UTF-8" q6 y3 E4 B9 {+ P4 x$ F; h
  191. Codec ID                                 : S_TEXT/UTF8
    2 T3 E+ R) v2 r0 i2 g+ |- d! b
  192. Codec ID/Info                            : UTF-8 Plain Text( N- N+ b5 z. \. y& J
  193. Duration                                 : 16 min 46 s, l, Q1 F$ K& j2 B1 l
  194. Bit rate                                 : 77 b/s
    ) L( M6 c3 O9 _0 L  B- r* D
  195. Count of elements                        : 230
    % s! z2 d) @* q5 R( T5 C7 Q
  196. Stream size                              : 9.51 KiB (0%)( e" P( ]! f2 {) T  S: A
  197. Title                                    : Italian; i3 e2 Q* Y- I5 y. [
  198. Language                                 : Italian
    6 ]  U' i% @7 j% z1 ^% R: M
  199. Default                                  : No! N2 g2 h7 N% j5 f
  200. Forced                                   : No4 F  ?1 c9 {& ]& s0 w

  201. $ J1 [3 E3 X3 Q6 P6 d9 q9 @
  202. Text #12
    ) t4 f+ ?2 V! ?4 w) U
  203. ID                                       : 14
    3 M! K, F$ t. N& Q( U
  204. Format                                   : UTF-8
      M2 {4 T/ j6 b# @  j0 R& k7 I
  205. Codec ID                                 : S_TEXT/UTF8
    , l/ e! T% E/ \' K
  206. Codec ID/Info                            : UTF-8 Plain Text
    8 t; [% z( S( a/ b0 l) F
  207. Duration                                 : 17 min 12 s
    $ o5 B7 S! ]" n2 X
  208. Bit rate                                 : 52 b/s/ S2 e: I/ J6 e! V4 s
  209. Count of elements                        : 264
    * c+ b2 X% s' s; T$ c: ?
  210. Stream size                              : 6.67 KiB (0%)2 B* _/ ~- h3 ~/ o, t2 X
  211. Title                                    : Japanese
    ! s1 g" o. ~2 Q4 F
  212. Language                                 : Japanese  E! b3 r3 n. v/ I4 N
  213. Default                                  : No
    0 R: ~, A+ ?* Q  j+ H
  214. Forced                                   : No
    3 ^( u4 [* i1 Q2 U) }
  215. ! h8 g8 p2 z# d* F3 J. v5 C9 N
  216. Text #13; t* Q+ M# I( T$ d
  217. ID                                       : 15
    ! ]# c: X6 V' n- @9 M" `3 J
  218. Format                                   : UTF-8
    / [3 q4 M2 ?( t) M
  219. Codec ID                                 : S_TEXT/UTF8
    4 m: N0 q8 [; O+ T
  220. Codec ID/Info                            : UTF-8 Plain Text
    / j) W: m( w) T, c9 k
  221. Duration                                 : 16 min 54 s
    $ i3 k5 z6 w8 Q- V, z% o. h9 h5 n
  222. Bit rate                                 : 44 b/s
    $ p' H3 d9 p6 ^% G/ z7 l' W3 U, y
  223. Count of elements                        : 171
    " i9 F; b/ \5 _0 X! A" G
  224. Stream size                              : 5.57 KiB (0%). r( R$ @3 }* c4 O
  225. Title                                    : Korean5 `& a/ ^# f  O( O( u( E# Y' _1 I
  226. Language                                 : Korean- F- R. D) m; e. [9 P
  227. Default                                  : No7 S% t0 w  j& B" ]8 Z0 G9 Q- H* i
  228. Forced                                   : No' J* Z5 {( k9 K: ^

  229. 5 w" x! R$ R5 c3 z$ U+ O: ~0 M
  230. Text #14
    8 O  l7 v0 o1 H( U; b2 M
  231. ID                                       : 16
    # F! c/ l  |6 H0 A" l
  232. Format                                   : UTF-80 d0 p  M; c: B2 `
  233. Codec ID                                 : S_TEXT/UTF8
    . `7 v6 C$ R2 i0 _5 W8 r4 [
  234. Codec ID/Info                            : UTF-8 Plain Text
    8 T/ Y' q5 U* F* {3 e8 }
  235. Duration                                 : 17 min 26 s. E4 c8 o( i$ V: U# L5 G& Y  o
  236. Bit rate                                 : 84 b/s( r( q, j3 w( x% M2 d  J9 y
  237. Count of elements                        : 279$ X5 p3 T) U# T+ c7 z5 s3 F& M# z$ W* u
  238. Stream size                              : 10.9 KiB (0%)0 P6 u6 b4 x/ P- D2 I
  239. Title                                    : Korean [CC]! q8 k" x/ ~; C$ S  c+ {
  240. Language                                 : Korean/ d9 T2 O1 C0 p! ~3 T
  241. Default                                  : No
    $ Z1 B# a. {0 k
  242. Forced                                   : No7 C: y$ d- x. f  G
  243. + o3 J) f: f' J1 T% {
  244. Text #15
    7 ^  l+ `0 h/ M% a4 g( ?& X9 y
  245. ID                                       : 17
      e  H- g9 a% `. P' }9 O  H
  246. Format                                   : UTF-8
    . \) A3 ~3 h: S) N
  247. Codec ID                                 : S_TEXT/UTF8- U+ ^) F/ y0 O6 q/ \! h
  248. Codec ID/Info                            : UTF-8 Plain Text1 K( Y& `. w) W: k/ O5 J5 ^! U! U
  249. Duration                                 : 16 min 46 s
    5 m* h% @6 |$ N" P
  250. Bit rate                                 : 75 b/s
    # B: B% _1 }: `2 [6 D
  251. Count of elements                        : 2316 n! E9 u8 W2 ^$ ~; ^! N4 S  h
  252. Stream size                              : 9.22 KiB (0%)
    2 V* D9 _" A! u  B8 G4 ^
  253. Title                                    : Norwegian1 Z1 i: v: V' {2 ~
  254. Language                                 : Norwegian# s$ S& U3 E( ^1 [
  255. Default                                  : No6 J/ ]& f: y: i4 ~2 e
  256. Forced                                   : No
    $ _+ D& |" o- _1 R6 D& k1 S4 \
  257. 1 k) x  ]1 J' t( L9 O+ d  `
  258. Text #16
    ( g, L9 b% U2 H6 S, J; q+ E8 \4 u
  259. ID                                       : 18
      |, [/ ~9 O3 O0 e8 t
  260. Format                                   : UTF-8
    $ H6 G6 c  s) K  \$ s4 t
  261. Codec ID                                 : S_TEXT/UTF8
    8 j  h. {( G; {: O6 a' i& X, Y
  262. Codec ID/Info                            : UTF-8 Plain Text0 ]) O( M6 P$ P- Y2 J& ]7 e
  263. Duration                                 : 16 min 46 s
    . S* Y  Z3 ]' r" q9 P
  264. Bit rate                                 : 75 b/s
    5 v* y3 y8 w  j9 S( F% y
  265. Count of elements                        : 223
    4 i: c7 ]0 U& t. T
  266. Stream size                              : 9.28 KiB (0%)
    8 T) G: q( t+ f& f; u1 g
  267. Title                                    : Polish
    8 H/ H  [  \$ y9 c
  268. Language                                 : Polish" n8 H6 L; Z1 Y+ F" J
  269. Default                                  : No
    ) S7 Y: t, m0 h5 z/ F( _$ R
  270. Forced                                   : No
    5 l* G  i3 t; ?5 \3 D
  271. 1 L* l, c$ a& b' E$ k
  272. Text #178 W- V8 G% ^. U! x. Q" C
  273. ID                                       : 19
    6 F+ x$ r) D6 _/ U  M/ H4 \: G! c3 X
  274. Format                                   : UTF-8
    6 i+ t( s9 m  X* d- T7 O
  275. Codec ID                                 : S_TEXT/UTF8; M* G" t" L2 a( x
  276. Codec ID/Info                            : UTF-8 Plain Text
      E+ d% T: r3 l. k8 R- W' V
  277. Duration                                 : 16 min 51 s7 O; p7 ~+ d3 N0 B1 Q3 ?
  278. Bit rate                                 : 79 b/s
    6 S" r0 ?/ x9 Y5 N: U
  279. Count of elements                        : 240: B# @! `8 ~) b5 u" ?$ B0 S, {
  280. Stream size                              : 9.77 KiB (0%)* u: z7 Y& r- S( J& R& \$ R
  281. Title                                    : Portuguese (Brazilian)
    . g$ Z) }3 t1 H* M
  282. Language                                 : Portuguese
    ( o+ c& f* E7 ]
  283. Default                                  : No! K8 b1 Q$ s- |3 n8 |" D" A( ?
  284. Forced                                   : No
    6 R. F: c; s  a! N8 l
  285. 2 M7 k- D/ ~0 @1 Q, r# w. c* ^
  286. Text #18* l6 G* r9 N- Q* k: b! o* r. P/ P( R
  287. ID                                       : 205 w1 X! j/ U7 |9 G; e# S' b! l+ P
  288. Format                                   : UTF-8
    7 M+ `" d% }6 N1 U
  289. Codec ID                                 : S_TEXT/UTF8% t/ A7 }- e% n- k3 \4 `# c& _
  290. Codec ID/Info                            : UTF-8 Plain Text
    9 k7 q  [$ h( }; l! M
  291. Duration                                 : 16 min 46 s4 D9 v+ {$ L& p4 x0 Y$ x, e# c
  292. Bit rate                                 : 77 b/s! C& `0 J9 y% w, q. ]- S6 z
  293. Count of elements                        : 229
    $ t- R" p, m- ?  J9 ^2 F
  294. Stream size                              : 9.50 KiB (0%)
    ; f* m- q1 J8 k& Z+ C
  295. Title                                    : Spanish (European)% i. J0 @- E0 P- d
  296. Language                                 : Spanish) [6 `# k1 D- O# T
  297. Default                                  : No
    ! }. A3 y' @( V( C: m* F
  298. Forced                                   : No
    , [. r% u: P/ x

  299.   @* W% o. l$ T/ \
  300. Text #198 `& Y% B4 @9 E) g% w( K
  301. ID                                       : 21* U2 H) K" F2 s8 i! _( z  s, k
  302. Format                                   : UTF-8
    4 y! i) M# F- C9 Y& L' Z
  303. Codec ID                                 : S_TEXT/UTF85 s1 t; e* V6 ^8 R- ~, ]
  304. Codec ID/Info                            : UTF-8 Plain Text" Y) G' O1 m. T  V5 v, R
  305. Duration                                 : 16 min 51 s
    ( h5 X( b+ J7 W- c* h  y
  306. Bit rate                                 : 76 b/s
    4 U0 m- q6 ~7 N* w, L: l; h  v+ a
  307. Count of elements                        : 236. G  {, F1 p" e7 n- X( R( m
  308. Stream size                              : 9.42 KiB (0%), u/ E6 R: z$ `
  309. Title                                    : Spanish (Latin America)
    5 x3 l/ n0 n/ _) B
  310. Language                                 : Spanish
    $ U& Z" w' h. |
  311. Default                                  : No
    & w) G$ F1 Q" ?/ X: ]" T2 ?2 v
  312. Forced                                   : No
      x+ j. a# b- [4 }# T2 F  ~3 P4 u

  313. , Z" V5 l1 f# F. F5 G
  314. Text #203 g% F! Z3 [+ A+ _  O9 }
  315. ID                                       : 228 H% I+ j& u& R: J3 L( Y
  316. Format                                   : UTF-8
    0 N; ^2 R2 N: m' v) d+ q4 L
  317. Codec ID                                 : S_TEXT/UTF8
      f3 }) F' u, n. ^
  318. Codec ID/Info                            : UTF-8 Plain Text
    7 B- b) ^* Y7 z" ~" U5 P
  319. Duration                                 : 16 min 46 s
    ) J0 q9 D! R. m
  320. Bit rate                                 : 77 b/s
    . p; V5 w: o3 u$ b
  321. Count of elements                        : 230) w/ S1 s; f$ t/ I) A
  322. Stream size                              : 9.52 KiB (0%)  |) H9 z- ~% \0 T8 A
  323. Title                                    : Swedish$ a1 P1 [; U: G) C/ E
  324. Language                                 : Swedish) H  S$ F6 o% K  a' ~$ d
  325. Default                                  : No6 s' Q$ u, g. Q. S4 E- _4 E  T, G! z
  326. Forced                                   : No  j0 m3 @* E3 Y9 v

  327.   `4 r" o! i: ^7 P( F- {
  328. Text #21
    ! m5 y" A2 E! O1 m' }- ~
  329. ID                                       : 23
    7 M% |' F/ r) v3 q
  330. Format                                   : UTF-8
    # t& f& A2 E& ^5 }
  331. Codec ID                                 : S_TEXT/UTF8( }, G3 }7 j5 }* F
  332. Codec ID/Info                            : UTF-8 Plain Text6 c, Z: W) R3 K! s) C: `, i
  333. Duration                                 : 16 min 59 s' t$ D; G) u) \& z# l) I
  334. Bit rate                                 : 233 b/s
    - H( J" q: f( j2 i- T6 t
  335. Count of elements                        : 2378 l( F6 |6 S1 l
  336. Stream size                              : 29.1 KiB (0%)% `. x: V) v- _/ {1 n
  337. Title                                    : Thai
    : d' e+ h. Q* b4 o
  338. Language                                 : Thai  p! ?$ u) e0 Y9 N3 z' }5 G
  339. Default                                  : No' W1 m3 T8 d8 k2 O% r
  340. Forced                                   : No- J$ k+ [7 E: X/ @- V& @; _
  341. 5 e4 F3 ]; i; L" d
  342. Text #22
    5 y8 \, H, M) S
  343. ID                                       : 24
    - \  i0 b- j0 W7 W
  344. Format                                   : UTF-8/ V* Y5 ~0 r/ G$ g
  345. Codec ID                                 : S_TEXT/UTF8) U+ Z! T/ M! ~; m: p; m( N
  346. Codec ID/Info                            : UTF-8 Plain Text( N( _/ U$ W  ^% [# `0 M0 ?/ d
  347. Duration                                 : 16 min 46 s: G5 A' K4 o1 H4 ^
  348. Bit rate                                 : 80 b/s: T. m  G# P: O
  349. Count of elements                        : 231
    3 O+ j+ ]: o6 `. y8 ~6 e9 V
  350. Stream size                              : 9.92 KiB (0%)+ E+ z. H; D- @: E# X1 C+ R
  351. Title                                    : Turkish" f! k: e* `1 O: s. Z
  352. Language                                 : Turkish& o. Z  B1 {  Z' g3 o& `- z
  353. Default                                  : No
    * O+ Y* S  o% ^- G! B/ r7 Q7 Z# N1 u
  354. Forced                                   : No
复制代码
  S' N- H, H6 h9 U. l
; Q, F& b+ X0 q$ }# k) J
4 [3 C  _" t! s& ^" B
  b7 W$ q/ C( y4 L* p

0 w! B- S4 D6 t9 A2 q' ], n' U7 O; g
游客,如果您要查看本帖隐藏内容请回复  捐助论坛可免回复查看隐藏内容 详情请点击
最近访问 头像模式 列表模式
发表于 2018-6-29 15:12:39 | 显示全部楼层
韩国美国合拍的,很新颖
您需要登录后才可以回帖 登录 | 立即注册

本版积分规则

封号公示|手机版|Archiver|有问题发邮件到admin#(换成@)hd1tj.org|微博|免责申明|HD一条街 |网站地图

GMT+8, 2018-7-18 22:30

快速回复 返回顶部 返回列表