HD一条街论坛

 找回密码
 立即注册
搜索
查看: 62|回复: 3

[1080P] 丹麦淫妖 第一季[英文字幕]Heartless.S01.1080p.NF.WEBRip.DD5.1.x264-TrollHD 18G

[复制链接]
发表于 2018-5-18 10:50:16 | 显示全部楼层 |阅读模式

. ~. z7 B& H0 h( Q3 D& b" \                               
登录/注册后可看大图
$ G$ v) B6 R5 l# X, _! V
& D+ C; T9 M; R4 m* r0 _4 V5 i
◎译  名 丹麦淫妖 第一季
' Z, ?& ~9 a, Y! x◎片  名 Heartless
$ Y! f! d7 ?- W+ C6 h8 @* Q3 Q◎年  代 2014, f1 c, S" {! q! F
◎产  地 丹麦! V) e! o5 V) V9 x! w+ K* _. g; Z- \
◎类  别 剧情/悬疑
# {2 l" B+ }# S& v◎语  言 丹麦语
3 t9 w& i2 m1 \& y! r◎上映日期 2014-04-284 b9 L5 `0 C2 D! F9 x/ C9 r
◎IMDb评分  6.8/10 from 788 users
5 M& [/ Q4 N1 b" l◎IMDb链接  http://www.imdb.com/title/tt2151454/' Y- g5 |# B: a3 w# ^
◎豆瓣评分 7.1/10 from 105 users
8 l5 R: y1 C* f* V# T◎豆瓣链接 https://movie.douban.com/subject/26266158/
0 K* C5 k! o% A' T4 Y◎集  数 5; P! ?- y! [& ~# E
◎片  长 42& w& \& @2 c$ i# d
◎主  演 Sebastian Jessen1 |8 b: ?5 K" H
      Julie Zangenberg
8 ]  v) n4 n8 v, ~6 F8 V7 ^) d- l      Julie Christiansen
# \0 _" h8 D0 `5 H3 f# T      Nicolaj Kopernikus- q5 V7 @' M5 @/ i, F8 H
      Frederikke Dahl Hansen
6 k% Q. S# i+ `( I/ x  a9 W      Allan Hyde/ ?) W& k" F7 Z  R$ F0 p6 i

. c  ^' B- C' J7 Y! h7 e◎简  介- W5 J0 ]! `2 U' L5 x$ q2 m
, n- d+ Q% ~/ h$ |8 i
  Heartless follows Sofie and Sebastian - two siblings with a deep dark and fatal secret. In order to survive they must suck energy out of other people. We follow their quest for answers as to why they are this way and their search leads them to Ottmannsgaard, a boarding school with plenty of deep dark secrets of its own.
  1. Video1 Q5 K. k) j/ P4 P- V, p1 N. x0 k
  2. ID                                       : 1- V: I7 K5 Y( v( x
  3. Format                                   : AVC
    4 q+ h; C& X: U3 ~
  4. Format/Info                              : Advanced Video Codec- X, s6 n; B6 Z' J
  5. Format profile                           : [email protected]+ {' i* A* T, m/ T
  6. Format settings                          : CABAC / 3 Ref Frames) [+ |# v3 n9 M4 x# U
  7. Format settings, CABAC                   : Yes
    " x+ d5 `% k( {8 b
  8. Format settings, ReFrames                : 3 frames+ \7 |3 I# E9 N0 G
  9. Codec ID                                 : V_MPEG4/ISO/AVC" N7 _7 T4 v9 V, O+ i
  10. Duration                                 : 46 min 24 s; Z. G3 G0 d* d3 c
  11. Bit rate mode                            : Variable  w* K, D% r8 F" G8 ]1 ]0 r8 l/ l
  12. Bit rate                                 : 7 500 kb/s& [2 X) g. }, ~* z3 N- I% F
  13. Maximum bit rate                         : 11.2 Mb/s
    / X8 Z2 y$ ^" O2 q9 y6 V
  14. Width                                    : 1 920 pixels# F& w7 o- @( C5 ]. c# W
  15. Height                                   : 1 080 pixels
    $ h$ v2 r1 x9 v3 X. @& M+ l
  16. Display aspect ratio                     : 16:9) a6 D2 p! F" y. M" i; x
  17. Frame rate mode                          : Constant( ~0 j4 a- d/ {$ i) o* l
  18. Frame rate                               : 23.976 (24000/1001) FPS
    # S/ y0 l: V* a
  19. Color space                              : YUV) i* q6 Q1 g6 ?  r& L
  20. Chroma subsampling                       : 4:2:0
    5 s; P3 @2 b3 ?
  21. Bit depth                                : 8 bits
    ! d4 W6 L) a  ~
  22. Scan type                                : Progressive
    5 L4 v2 z( v! r- ]* ]# ?
  23. Bits/(Pixel*Frame)                       : 0.151
    # [2 a* f9 A+ Z: g+ |+ U2 U
  24. Stream size                              : 2.41 GiB (95%)# a4 h' P7 h8 L( l6 G
  25. Writing library                          : x264 core 118; l1 F! E& F. E8 p% E/ ?) b
  26. Encoding settings                        : cabac=1 / ref=3 / deblock=1:0:0 / analyse=0x1:0x111 / me=umh / subme=10 / psy=1 / psy_rd=1.00:0.00 / mixed_ref=1 / me_range=24 / chroma_me=1 / trellis=2 / 8x8dct=0 / cqm=0 / deadzone=21,11 / fast_pskip=1 / chroma_qp_offset=-2 / threads=6 / sliced_threads=0 / nr=0 / decimate=1 / interlaced=0 / bluray_compat=0 / constrained_intra=0 / bframes=2 / b_pyramid=0 / b_adapt=2 / b_bias=0 / direct=3 / weightb=1 / open_gop=0 / weightp=2 / keyint=48 / keyint_min=25 / scenecut=0 / intra_refresh=0 / rc_lookahead=0 / rc=2pass / mbtree=1 / bitrate=7500 / ratetol=1.0 / qcomp=0.50 / qpmin=6 / qpmax=51 / qpstep=4 / cplxblur=20.0 / qblur=0.5 / vbv_maxrate=11250 / vbv_bufsize=15000 / nal_hrd=vbr / ip_ratio=1.40 / aq=1:1.00+ K7 s0 X7 u$ Q
  27. Default                                  : Yes
    : o5 L) x1 e; K6 G  Z6 p
  28. Forced                                   : No" M* C% V' |: U& x
  29. & k2 C8 m9 l5 m% V7 B! \3 l
  30. Audio
    ! U8 H1 y; L- E/ J% Y8 E
  31. ID                                       : 2
    ; m7 z- G& O; k( j
  32. Format                                   : AC-3
    - Q( L  N. y0 D+ i6 j
  33. Format/Info                              : Audio Coding 3! R& c, U4 }" F( V
  34. Codec ID                                 : A_AC3, u) |3 s5 i- I8 R) f! @
  35. Duration                                 : 46 min 23 s7 h! ?' L+ l$ N" h# B3 p
  36. Bit rate mode                            : Constant# M# |  U. N9 C% O" U
  37. Bit rate                                 : 384 kb/s# ]1 ~) j! u1 c& w; K  l
  38. Channel(s)                               : 6 channels) T+ ^  G6 F: z, s! N0 O3 {
  39. Channel positions                        : Front: L C R, Side: L R, LFE
    0 i4 q, B) o9 g
  40. Sampling rate                            : 48.0 kHz
    " a/ E, K! n# p! c  p. O
  41. Frame rate                               : 31.250 FPS (1536 SPF)
    % ~- b! h' e5 {7 f
  42. Bit depth                                : 16 bits
    " ?+ t, R2 _' x) D  G6 D* T
  43. Compression mode                         : Lossy
    1 ]1 {5 Q5 T  @: Z
  44. Stream size                              : 127 MiB (5%)  g, \5 d' r2 W# l8 f' l6 V' k
  45. Title                                    : Danish7 i8 S& i7 i5 s5 [! ^9 [; u
  46. Language                                 : Danish
    6 g, z4 _. v, B2 Q, F7 c8 D2 T8 p
  47. Service kind                             : Complete Main
    - J' R  E6 k# d6 R
  48. Default                                  : Yes
    % D6 A/ I( W  f) r
  49. Forced                                   : No. P5 Z' d, C! h/ b9 x; l' J

  50. % H0 f, t" m, v" A/ t  \
  51. Text #1
    6 P8 a1 _- A7 L( e; e% [/ A
  52. ID                                       : 3: ^. S- N# Y* P3 p) s
  53. Format                                   : UTF-8/ y8 |/ z. r: P, ]. ?- h
  54. Codec ID                                 : S_TEXT/UTF8
    8 V$ j+ y4 ^1 x+ r8 Z) v
  55. Codec ID/Info                            : UTF-8 Plain Text
    0 {+ }# ]- E5 Q
  56. Duration                                 : 45 min 1 s. I* {) k9 E- i7 [- R
  57. Bit rate                                 : 29 b/s7 z- ~( z) @& p# y" w$ }1 J2 a
  58. Count of elements                        : 363
    : s4 i9 V& B1 E+ h4 J7 O
  59. Stream size                              : 9.67 KiB (0%)1 M* L$ C6 H  k; k- D6 D2 }) R  \
  60. Language                                 : English
    & }1 t) R1 r5 f8 P* H
  61. Default                                  : Yes4 k& x9 j; R+ [# X6 }' n) [8 Y# `
  62. Forced                                   : No
    4 A6 G& C  l- V9 W

  63. ! N( U+ C3 }) V- b) X
  64. Text #2' i! U% B0 w5 E0 h4 B% E
  65. ID                                       : 4
    ) |$ ^- j5 H! p" w. T
  66. Format                                   : UTF-8! D6 e- n- Y; A' a" u% f
  67. Codec ID                                 : S_TEXT/UTF8
    . }, @; E4 w" m( R) ~5 p% W+ C
  68. Codec ID/Info                            : UTF-8 Plain Text0 T3 [+ d( [- _! M. u
  69. Duration                                 : 45 min 5 s  N% J4 k2 z2 j/ ]
  70. Bit rate                                 : 36 b/s
    5 O- s4 _, e) n. ^  ~
  71. Count of elements                        : 4656 u8 ]4 n. Y9 Z
  72. Stream size                              : 12.0 KiB (0%)
    / c' y% ?3 S8 J; U8 t
  73. Title                                    : SDH' f- \% t% M( t% J; S1 I
  74. Language                                 : English
    1 Y  u$ L/ e( G, n0 K) B1 O
  75. Default                                  : No* m, K7 [6 x0 s$ @2 M9 f: B2 t
  76. Forced                                   : No
复制代码

0 ^- J/ Q0 h: ~0 ?! M! R! y7 H% e, F5 Q+ Q5 u$ A- B( d
: Z1 z* F( \, o+ h
- u  O$ a/ s* ~, F% Y
* z$ Y* n0 q9 \  ]) m' w" L

0 q# e- ^, i) `9 p0 p
游客,如果您要查看本帖隐藏内容请回复  捐助论坛可免回复查看隐藏内容 详情请点击
最近访问 头像模式 列表模式
发表于 2018-6-4 11:00:11 | 显示全部楼层
谢谢!丹麦的电视剧以前还没有看过。
发表于 2018-6-13 03:33:41 来自手机 | 显示全部楼层
谢楼主分享好剧
发表于 2018-7-11 14:48:38 | 显示全部楼层
外語电視剧不俗
您需要登录后才可以回帖 登录 | 立即注册

本版积分规则

封号公示|手机版|Archiver|有问题发邮件到admin#(换成@)hd1tj.org|微博|免责申明|HD一条街 |网站地图

GMT+8, 2018-7-23 10:20

快速回复 返回顶部 返回列表