HD一条街论坛

 找回密码
 立即注册
搜索
查看: 12|回复: 0

[1080P] 十三个原因 第一季/汉娜的遗言(台)[自带中文字幕]13.Reasons.Why.S01.1080p.NF.WEBRip.DD5.1.x264-VLAD 81.5G

[复制链接]
发表于 2018-5-18 10:45:04 | 显示全部楼层 |阅读模式

( p: b: p7 a. u. d- m  G; p7 z1 t" Z* {$ y2 K& r  u4 G! u: @" Z" _% L
◎译  名 十三个原因 第一季/汉娜的遗言(台)/十三个理由$ R( F* n& F: F2 p3 l2 v
◎片  名 13 Reasons Why Season 1& K/ F$ N0 W- h$ H+ _) ~+ x
◎年  代 2017
1 U8 S+ H' f2 R  v2 t◎产  地 美国
/ R7 C) k1 C" Q◎类  别 剧情
7 D! f) l9 `4 y* K" s% y◎语  言 英语: W8 K) H% N$ v
◎上映日期 2017-03-31(美国)! d. @6 J( M$ @7 A
◎IMDb评分  8.3/10 from 165,270 users, [& ^6 L1 Q4 z1 C
◎IMDb链接  http://www.imdb.com/title/tt1837492/) Q( U+ `, E) W( }, o; i
◎豆瓣评分 8.2/10 from 19,391 users% N; G5 E7 W2 b
◎豆瓣链接 https://movie.douban.com/subject/6284624/. ]* T) I+ {- j; v* p3 z9 T
◎集  数 13
( Y2 F/ e8 z  ]◎片  长 60分钟
$ {' {0 d% f9 M7 W2 h◎导  演 凯尔·帕特里克·奥瓦内兹 Kyle Patrick Alvarez / 格雷格·阿拉基 Gregg Araki / 卡尔·弗兰克林 Carl Franklin / 汤姆·麦卡锡 Tom McCarthy / 虞琳敏 Jessica Yu
! Y7 X6 V  J  V! F# o6 j◎主  演 迪兰·明奈特 Dylan Minnette  }  D6 a0 w. e. o9 r) c9 l
      凯瑟琳·兰福德 Katherine Langford: |7 b; T6 @, U; s( q
      克里斯蒂安·纳瓦罗 Christian Navarro' Q. o  H% L2 `1 `7 r9 s2 l4 u
      艾丽莎·伯 Alisha Boe2 _* N+ A' L4 J+ _* L2 w
      布兰登·弗林 Brandon Flynn
: `2 r0 }( {% B! D* h      贾斯汀·普瑞提斯 Justin Prentice, m: ~( y2 V) a2 Z
      迈尔斯·赫尔泽 Miles Heizer5 Q7 x3 |3 x" [! l9 d8 S
      罗斯·巴特勒 Ross Butler
5 K' Q" {- p- a, ]      戴文·德鲁伊 Devin Druid
5 e$ j0 K# |0 P0 A! z- o      艾米·哈格里夫斯 Amy Hargreaves. C% @# S5 i; ]2 j! a
      德里克·卢克 Derek Luke  Y# n" _# k" J( F9 t9 W
      凯特·沃什 Kate Walsh/ T2 d/ n0 m5 ^1 q4 J- P0 G3 Q
      布莱恩·达西·詹姆斯 Brian d'Arcy James+ l3 I' K7 r* R1 U7 D* Q5 w% @& d
      约什·汉密尔顿 Josh Hamilton
. M! s$ j1 m: x      安庆名惠子 Keiko Agena+ T: y& N5 ?3 ~  p

0 U$ a% q3 [* k7 P; e" G, u◎简  介
8 {4 C- B, C; {* g2 I; k% ~* o' q1 Y2 M
  该剧根据2007年获得纽约时报最佳销售奖﹑Jay Asher所著的同名小说改篇,故事讲述一个少年Clay(Dylan Minnette 饰)在某夜收到一个鞋盒,内里装着自杀﹑已故的女同学Hannah(Katherine Langford 饰)的录音带。录音带中有指令,要把录音带从一个学生交到另一位手上,以向12位同学,用13个原因解释他们在她的死亡中,有着甚么身 份,以及她为什么要自杀。
- M. t5 n/ Z! V6 I& R  Brandon Flynn饰演Justin,饰演一个篮球员,有着星级的实力,但亦有星级的自大﹑Christian Navarro饰演Tony,一个孤独的人,不过他会为正确的事站出来﹑Alisha Boe饰演Jessica,Hannah的朋友,直至一次恶性的吵架而分开。; [* H* O  e! C
  Justin Prentice饰演放纵风格的Bryce,有着好看的外貌﹑Devin Druid饰演Tyler,喜欢拿着相机的摄影师﹑Miles Heizer饰演Alex,会自省﹑带艺术气质﹑有丰富情感。Ross Butler饰演Zach。Derek Luke饰演Hannah的辅导员Porter先生。' K' N1 O# [% j; T( o7 M
  Kate Walsh饰演女主Hannah的妈妈﹑Brian d’Arcy James饰演Hannah的爸爸,是位药剂师,有自己的小生意,但在女儿之死后,他把自己沈醉在工作及保持自己的店子免被竞争对手压垮,并以此逃避丧女的现实。' F2 d( R$ b$ j$ M
  Amy Hargreaves饰演常规角色,男主Clay的母亲Jensen女士,她性格爽朗﹑与儿子关系密切﹑富同情心及关心儿子,不过在Clay口中则称她是「直升机家长」(形容这些家长会像直升机一样,盘旋在子女四周,随时空降帮子女解决问题)。不过这位身为公正的律师,对待儿子时的确少了一份客观。
& R+ \( W- m- I- p- k/ z% _6 m9 [: v6 z
◎获奖情况; B) t$ p  g0 `' F
* o) q& V' F7 s- r/ r# K7 a
  第75届金球奖  (2018)
% o5 t' \! B% {: z  电视类 剧情类剧集最佳女主角(提名) 凯瑟琳·兰福德8 b: X( s! V* K. z* D( X

$ R) o! g) D( k& o* k8 [  第22届金卫星奖  (2018)# F2 H& C* L$ B' \1 o, H8 f" V  {
  电视部门 最佳剧情类剧集(提名)
" x* d  l1 r# g' a: o6 U: c6 @  电视部门 剧情类剧集最佳女主角(提名) 凯瑟琳·兰福德
  1. Video& k, F# l; n& t
  2. ID                                       : 1  U5 ]$ n8 G6 j% n0 L2 @4 E- M
  3. Format                                   : AVC
    * s- P+ d' N! s  A
  4. Format/Info                              : Advanced Video Codec
    % g, O% E0 p2 P3 f3 v2 d3 t
  5. Format profile                           : [email protected]
    - X* W7 @" c7 V$ N: L
  6. Format settings                          : CABAC / 4 Ref Frames
    " e2 j& F4 s* U& x9 ?# d' s
  7. Format settings, CABAC                   : Yes
    2 Q; [- ^9 v% S9 p( ]$ K2 O6 ?
  8. Format settings, ReFrames                : 4 frames
    : D  ?0 S0 |0 p+ k; ^; V5 m+ q
  9. Codec ID                                 : V_MPEG4/ISO/AVC
    : H# t7 v4 \/ w& S
  10. Duration                                 : 1 h 1 min+ x. V, N: G( p
  11. Bit rate                                 : 17.7 Mb/s
    7 ~  v6 m6 K+ N+ Z8 ~, e
  12. Width                                    : 1 920 pixels# {1 t! X) K% T2 v' e
  13. Height                                   : 1 080 pixels
    . ~+ w( e) `3 s" o) n) d6 z8 j( c, }" }
  14. Display aspect ratio                     : 16:9
    * I, `' {" e. F
  15. Frame rate mode                          : Constant
    $ B2 t( _) V9 W3 R9 R
  16. Frame rate                               : 23.976 (24000/1001) FPS
      l. {- p9 `" A& |( Y" A
  17. Color space                              : YUV( T6 d5 G; t( I# m; q/ b
  18. Chroma subsampling                       : 4:2:0( S3 n# j7 W% x% R
  19. Bit depth                                : 8 bits
    - Z" u) U' i! a( x( J9 h0 ^+ \& P; E
  20. Scan type                                : Progressive$ [5 n, O- n* O
  21. Bits/(Pixel*Frame)                       : 0.355/ a* q! g5 ]+ b  B" B, w$ |
  22. Stream size                              : 7.58 GiB (98%)7 u* |/ g2 M  O. Q; x
  23. Writing library                          : x264 core 148 r2638 75992104 O% |0 M$ ?% M0 [. f
  24. Encoding settings                        : cabac=1 / ref=4 / deblock=1:-3:-3 / analyse=0x3:0x133 / me=umh / subme=10 / psy=1 / psy_rd=1.00:0.00 / mixed_ref=1 / me_range=48 / chroma_me=1 / trellis=2 / 8x8dct=1 / cqm=0 / deadzone=21,11 / fast_pskip=1 / chroma_qp_offset=-2 / threads=12 / lookahead_threads=2 / sliced_threads=0 / nr=0 / decimate=0 / interlaced=0 / bluray_compat=0 / constrained_intra=0 / bframes=8 / b_pyramid=2 / b_adapt=2 / b_bias=0 / direct=3 / weightb=1 / open_gop=0 / weightp=2 / keyint=240 / keyint_min=23 / scenecut=40 / intra_refresh=0 / rc=crf / mbtree=0 / crf=17.0 / qcomp=0.60 / qpmin=0 / qpmax=69 / qpstep=4 / ip_ratio=1.30 / pb_ratio=1.20 / aq=3:0.70- r9 V3 u* U- S& A9 A! \
  25. Default                                  : Yes( O& v% K% R% f- o+ J
  26. Forced                                   : No# |/ e$ H4 |9 l/ o  V% s3 S1 f
  27. * {$ F/ q+ ?7 h* @$ E; f8 p
  28. Audio7 t" f$ ?3 v! K0 d
  29. ID                                       : 2
    + I' h! q' D9 r
  30. Format                                   : AC-3
      m7 n( @1 M! q3 u8 p+ I
  31. Format/Info                              : Audio Coding 3. _$ u$ A2 t. @
  32. Codec ID                                 : A_AC3
    ; D- q- O) A) J5 }
  33. Duration                                 : 1 h 1 min
    + z1 D: d( G/ W* Y, Z2 O, Q
  34. Bit rate mode                            : Constant8 \& P4 M7 Z! t8 K5 _
  35. Bit rate                                 : 384 kb/s
    8 q3 J3 z+ d# |& E, ?6 n! b) p+ x/ P1 V
  36. Channel(s)                               : 6 channels4 P: J$ I  U; F6 }+ M6 u
  37. Channel positions                        : Front: L C R, Side: L R, LFE
    8 F4 v3 O1 z% M2 q; ]5 f5 W9 O
  38. Sampling rate                            : 48.0 kHz$ u+ ^! h9 E) X; |8 r: ^0 d
  39. Frame rate                               : 31.250 FPS (1536 SPF)
    1 b* b( j! D) C8 l; U) N
  40. Bit depth                                : 16 bits
    4 M- W# _& Y5 F% W* A8 i. V" h0 Y' x
  41. Compression mode                         : Lossy
    9 J/ y) x: q) i0 d/ a
  42. Stream size                              : 170 MiB (2%)
      x% A  K3 N% j: f, w
  43. Language                                 : English
    3 B. ~2 K1 b+ D8 i5 B6 |
  44. Service kind                             : Complete Main1 p* y& h  Z5 Z( A2 c+ e% [0 b
  45. Default                                  : Yes4 x6 a  d8 j4 o$ S& ~$ ^0 d
  46. Forced                                   : No
    % F/ [( T. e9 }7 ?
  47. ) _2 u8 R! M% Y3 D4 J
  48. Text #1
    + e6 S2 y. L& d& O, S+ l
  49. ID                                       : 3; Z. t$ L: Z$ }! Z
  50. Format                                   : UTF-8( R; |' [+ H4 I, w0 C! T
  51. Codec ID                                 : S_TEXT/UTF8/ H6 h9 B# W5 w5 x$ q* [
  52. Codec ID/Info                            : UTF-8 Plain Text7 G+ Z" a# ^, e; g+ C
  53. Duration                                 : 59 min 10 s
    ( j: a8 r2 ]' [, k+ q1 |
  54. Bit rate                                 : 68 b/s
    ' V% ]1 ?  l- p# O9 B/ Z) V
  55. Count of elements                        : 899
      q. f$ h9 x' t2 n9 ^7 {
  56. Stream size                              : 29.5 KiB (0%)
    * Z9 Q8 N; R! J; T; L
  57. Language                                 : English% o5 W8 S- Q1 H8 c/ h
  58. Default                                  : Yes
    2 |/ M, m8 P: O6 k
  59. Forced                                   : No% K1 Z5 N- g& K

  60. 0 A1 k0 \3 Q0 \1 S# Q, \: T1 P  ?
  61. Text #2
    0 a, ~% A1 n4 H. C
  62. ID                                       : 4
    * y; P  f' B1 |7 p; b0 t
  63. Format                                   : UTF-8
    , v" d& Y9 m; b! O( B% V9 E
  64. Codec ID                                 : S_TEXT/UTF8
      a6 y# _! S' C3 ^+ V
  65. Codec ID/Info                            : UTF-8 Plain Text
    8 @+ D: {! ?% g1 Y+ z8 A% K
  66. Duration                                 : 59 min 23 s# S# C  w. e5 s3 F( T1 K) U
  67. Bit rate                                 : 58 b/s
    6 {% t( F# Q2 J3 I
  68. Count of elements                        : 797
    5 i/ ^: y8 i) ~* f/ K4 a8 H
  69. Stream size                              : 25.7 KiB (0%)
    2 H; c1 X3 f+ ?: u/ l+ \' g0 f( M
  70. Language                                 : Spanish
    , @8 ^# V2 q9 A' @$ S; B$ I8 T' F
  71. Default                                  : No' J+ t( d3 l- @
  72. Forced                                   : No' C0 y4 L" G, }& ^2 `) t2 ]6 I% A8 g/ l

  73. , q# l' M$ P3 a  r+ L0 {5 M
  74. Text #3
    4 N; d# t+ F6 P) e: ^/ H; R% M
  75. ID                                       : 5
    0 r1 ?* k( x0 }. U3 r! y
  76. Format                                   : UTF-8
    $ U! z  K' }5 i- N0 t; z6 Y
  77. Codec ID                                 : S_TEXT/UTF8! q. @, P* p( g2 v  T" h  |' [
  78. Codec ID/Info                            : UTF-8 Plain Text
    . L$ q" S/ M% x8 k- P8 p
  79. Duration                                 : 1 h 1 min
    0 J9 t0 Z- B4 V" Q
  80. Bit rate                                 : 56 b/s
    6 h6 e. O" H$ x1 h5 [. i
  81. Count of elements                        : 7852 G9 ~" R* G) k8 c
  82. Stream size                              : 25.4 KiB (0%)1 v9 q8 X" P$ f
  83. Language                                 : French
    2 |1 M) P+ {- `+ T. W& T" P; v' B/ d/ i
  84. Default                                  : No
    8 E; S7 |! q7 V5 X7 i' g/ B- g* b
  85. Forced                                   : No
    4 L2 ?9 h5 n2 j: X

  86. & g, \0 L0 h8 A2 i/ ^
  87. Text #4
    * |" J8 _4 d' m+ ?' T+ q* _  G
  88. ID                                       : 6% C" [  j, W  x/ N# N, u! Y/ h
  89. Format                                   : UTF-8( F6 k' F5 U8 I4 V
  90. Codec ID                                 : S_TEXT/UTF8
    # E$ S$ p3 s) F% K1 k
  91. Codec ID/Info                            : UTF-8 Plain Text/ X* [' B0 i  y' I; ^
  92. Duration                                 : 1 h 1 min2 @; _0 K# V! s% h; }) n
  93. Bit rate                                 : 54 b/s" B. w& a  @: Y0 J( J
  94. Count of elements                        : 8044 M' b. G9 ?3 D1 I9 r8 C& c* K
  95. Stream size                              : 24.3 KiB (0%)
    ' Q' U1 r4 j. g8 H
  96. Language                                 : Chinese
    " ~2 y) ]% c& _8 K
  97. Default                                  : No
    ! g. A) h9 F7 c* \5 P
  98. Forced                                   : No
    , f  ^# g5 Q: J( ]8 [. {' j5 t

  99. 5 z  q& [: l& M
  100. Text #5
    , m5 F) [' N# u) G$ C0 M- S0 z; q0 N
  101. ID                                       : 7& V2 p+ ^$ |/ {" c
  102. Format                                   : UTF-8# O% [7 R; G3 h: Q# A7 G
  103. Codec ID                                 : S_TEXT/UTF8
    8 [! ~  L( `0 ^2 A6 t/ B% N
  104. Codec ID/Info                            : UTF-8 Plain Text
    1 i7 s$ t6 Q4 i% l, z
  105. Duration                                 : 1 h 1 min
    0 W$ B& g$ _2 o7 y5 v  d$ k
  106. Bit rate                                 : 52 b/s) ~* r& I  W1 c  r( i
  107. Count of elements                        : 8082 d% r3 o5 ~! `7 S# ^: a! s
  108. Stream size                              : 23.4 KiB (0%)% }/ `7 [- r/ G. V2 E" i) N; W
  109. Language                                 : Chinese) z& @. Y; [  r
  110. Default                                  : No
    4 |5 g  Y% A1 l2 t
  111. Forced                                   : No
复制代码

, y/ i! K3 E! b9 [, m' [9 ~, l, u& \$ _5 @6 V4 L+ V% J
- G. C* i; |6 s7 R/ s3 a# a+ i- ^" ?

1 a  j' M6 c9 \4 j7 ]2 |7 U9 t: y$ M
& }( ]1 r5 N! H1 r6 _
游客,如果您要查看本帖隐藏内容请回复  捐助论坛可免回复查看隐藏内容 详情请点击
最近访问 头像模式 列表模式
您需要登录后才可以回帖 登录 | 立即注册

本版积分规则

封号公示|手机版|Archiver|有问题发邮件到admin#(换成@)hd1tj.org|微博|免责申明|HD一条街 |网站地图

GMT+8, 2018-7-16 12:22

快速回复 返回顶部 返回列表