HD一条街论坛

 找回密码
 立即注册
搜索
查看: 14|回复: 1

[1080P] [无台标][淘气小女巫/魔法学校 The Worst Witch 第一季][1080P-Netflix版][自带简繁中文等多国语言软字幕][MKV][百度]

[复制链接]
发表于 2018-5-18 10:26:02 | 显示全部楼层 |阅读模式
本帖最后由 让心灵去旅行 于 2018-5-18 10:37 编辑
/ s. i( I# c# y' p6 w: R  H! E
% w# T4 ~- s: _1 E2 y
◎译  名 魔法学校/魔灵娘学堂/最差女巫
7 Y2 F9 w1 q5 K$ P+ z3 x◎片  名 Worst Witch
$ d; L2 _. o9 ^! X0 x( T/ x  z◎年  代 2017- k4 d5 V5 h' K1 J
◎产  地 英国$ j8 N- u+ S8 E
◎类  别 儿童/奇幻2 E" H& F4 e! M
◎语  言 英语
0 S8 ]# Q; j! F1 J2 n& H" ]◎上映日期 2017-01-11(英国)
' L, ~  u& W: O! k& U4 {  a◎IMDb评分  7.5/10 from 700 users
: ]; V) X  g7 S  B/ E9 d3 M◎IMDb链接  http://www.imdb.com/title/tt5721172/
# u) Y6 Q" f; B* W* R6 ?! U. p( r8 e2 E◎豆瓣评分 /10 from 0 users
' Z* x$ ]. v- p* `◎豆瓣链接 https://movie.douban.com/subject/26826124/9 E6 e' F; o. b+ P4 e4 N- H6 j1 Z
◎集  数 13
  ~3 S1 B/ r2 f3 c: M7 T. L) E# N◎主  演 贝拉·拉姆齐 Bella Ramsey
4 ?% m8 g' H% b4 x8 S3 o; ]      拉奎尔·卡西迪 Raquel Cassidy% N- D( s% H: s' Z$ o
      温蒂·克雷格 Wendy Craig
! J) P* T/ T2 i6 \* F, N3 B      克莱尔·希金斯 Clare Higgins8 f0 v7 c, {) s4 l5 }+ S
      妮古拉·斯蒂芬森 Nicola Stephenson
$ ?1 j5 Q5 b9 Z6 `      Kacey Ainsworth
% t6 `, J9 Y( Q% ~      Zita Sattar
7 S  F4 e! M$ T& z2 X" I+ p      Jenny Richardson
: U' z7 J4 n9 u1 z      Tamara Smart) P% t1 v- o' g3 E
  d5 M' l7 q+ g
◎简  介
* q: y7 X6 b" i' C! D7 ^
' M6 A4 o+ v3 s1 O1 E( u; b5 X" n- `6 N  Jill Murphy的《The Worst Witch》系列曾是罗琳的《Harry Potter》系列出版前最畅销的儿童奇幻小说之一,1986年改编为电影,1998年改编为电视剧,播出了四季,深受喜爱。2016年CBBC台决定重启这部剧,把故事背景搬到21世纪。" U  L, V" [' W) D+ H- h1 v
  故事讲述天真活泼的平凡女孩Mildred Hubble进入女巫学院,学习各种魔法课程,努力成为优秀的女巫。这里的院长Cackle女士和蔼可亲,副院长Hardbroom女士严厉得吓人。Mildred在学院结识了两位好朋友Maud Spellbody和Enid Nightshade,也遇到了自己的宿敌——巫师家庭出身的Ethel Hallow。
! U% L( u" R6 O( I  Q. T4 {  2016年5月,CBBC台公布了选角结果,Mildred Hubble由Bella Ramsey饰演。第一季将于2016年夏季拍摄,2017年初播出。

  1. , k& ]; h3 k) b- q3 ]0 I
  2. Format                         : Matroska5 N7 ?% c' W3 t, a) h, {6 y  D7 t
  3. Format version                 : Version 4 / Version 2/ V) W5 f: ^4 T
  4. File size                      : 3.07 GiB9 H/ t8 l0 o; ]# `1 _, p6 w2 H
  5. Duration                       : 59 min 5 s
    : S# t0 `- L5 n( z6 g+ V0 K% S
  6. Overall bit rate mode          : Variable
    % I% `; n2 h7 {- S$ n
  7. Overall bit rate               : 7 432 kb/s% P1 t& b4 S" H: y" y4 A( S- ]
  8. Encoded date                   : UTC 2017-07-22 15:19:596 |7 r8 N' l$ I/ D7 Y9 n
  9. Writing application            : mkvmerge v13.0.0 ('The Juggler') 64bit1 W- Y$ W/ S2 t+ ]! E. v
  10. Writing library                : libebml v1.3.4 + libmatroska v1.4.5* x4 }: A" Z  x- F
  11. 3 H. c7 f) x  L. w
  12. Video& D; y$ h% ^4 Q4 P& C
  13. ID                             : 12 R" V7 u. i+ F/ B7 f
  14. Format                         : AVC) A- D* T% Y/ i6 T' U4 r5 u8 ~
  15. Format/Info                    : Advanced Video Codec
    : b- d* }" _8 I5 A
  16. Format profile                 : [email protected]3 C2 _" q. o* I+ |3 H
  17. Format settings                : CABAC / 3 Ref Frames/ v5 T! @7 U5 K
  18. Format settings, CABAC         : Yes
    + S4 M6 i9 A' m: }7 X9 e0 j
  19. Format settings, ReFrames      : 3 frames8 M% q: c) G. w! y8 w1 ~  G
  20. Codec ID                       : V_MPEG4/ISO/AVC  Z8 z4 I9 y8 g/ j2 A. `$ i8 k
  21. Duration                       : 59 min 4 s8 `4 P* o+ o1 L7 J; x
  22. Bit rate mode                  : Variable4 G/ S; [# z! H) r: T) p8 o
  23. Bit rate                       : 7 150 kb/s
    " Z7 B1 R9 `& R- W; y6 `6 Y
  24. Maximum bit rate               : 10.7 Mb/s* k% Y; u) n3 j# C
  25. Width                          : 1 920 pixels- O6 |8 |4 {/ w! T) I% k1 l9 z5 ]; r
  26. Height                         : 1 080 pixels
    1 ?3 ]3 g/ X+ t1 X* h0 k
  27. Display aspect ratio           : 16:93 h6 q" [! E' A( X
  28. Frame rate mode                : Constant
    ! L: R- |: W( h, V  P
  29. Frame rate                     : 25.000 FPS
    9 M0 o# U4 g: z8 n; D$ ~' A8 x/ x
  30. Color space                    : YUV
    * ~  j" e) s' k2 O
  31. Chroma subsampling             : 4:2:0
    , S- P% ]* E4 H3 P3 m0 d
  32. Bit depth                      : 8 bits; c5 ]* r% j' J2 E
  33. Scan type                      : Progressive) g( k& o( \2 A+ B
  34. Bits/(Pixel*Frame)             : 0.138
    1 c& e! k: s( I4 l6 W' Q; [. x
  35. Stream size                    : 2.91 GiB (95%)
    2 f6 ~: S7 M  e. c
  36. Writing library                : x264 core 118
    + s- ?  ^$ g4 `: q0 F+ |
  37. Encoding settings              : cabac=1 / ref=3 / deblock=1:0:0 / analyse=0x1:0x111 / me=umh / subme=10 / psy=1 / psy_rd=1.00:0.00 / mixed_ref=1 / me_range=24 / chroma_me=1 / trellis=2 / 8x8dct=0 / cqm=0 / deadzone=21,11 / fast_pskip=1 / chroma_qp_offset=-2 / threads=8 / sliced_threads=0 / nr=0 / decimate=1 / interlaced=0 / bluray_compat=0 / constrained_intra=0 / bframes=2 / b_pyramid=0 / b_adapt=2 / b_bias=0 / direct=3 / weightb=1 / open_gop=0 / weightp=2 / keyint=50 / keyint_min=26 / scenecut=0 / intra_refresh=0 / rc_lookahead=0 / rc=2pass / mbtree=1 / bitrate=7150 / ratetol=1.0 / qcomp=0.50 / qpmin=6 / qpmax=51 / qpstep=4 / cplxblur=20.0 / qblur=0.5 / vbv_maxrate=10725 / vbv_bufsize=14300 / nal_hrd=vbr / ip_ratio=1.40 / aq=1:1.00
    ( V2 u9 m  r1 w
  38. Default                        : Yes
    ' |0 s: x3 R, A; `
  39. Forced                         : No. F& m1 x! X1 c
  40.   |: G+ t8 O6 k6 Q
  41. Audio# E4 S$ U; v0 P# H- n7 C) ]8 X  L3 }
  42. ID                             : 2/ u$ D9 `4 v0 X0 R
  43. Format                         : AC-3) `4 y; \) \) v: w/ S- k! B  V# M. g
  44. Format/Info                    : Audio Coding 3
    : ~1 m& j. f  N4 B3 y0 D8 A
  45. Codec ID                       : A_AC3
    2 @, }* N! h4 g
  46. Duration                       : 59 min 5 s7 C7 |6 P2 V& V  y
  47. Bit rate mode                  : Constant
    8 o+ v! }  u" W5 G
  48. Bit rate                       : 384 kb/s" `, j- _! F. k% N" D" Y
  49. Channel(s)                     : 6 channels3 F, Q. \! ~3 u3 N! T" S: i
  50. Channel positions              : Front: L C R, Side: L R, LFE% B5 D% ^7 ?- \3 [
  51. Sampling rate                  : 48.0 kHz' p# V- o$ ~$ ]& ^
  52. Frame rate                     : 31.250 FPS (1536 SPF); m$ q9 y3 c  ?0 L" @. |- _3 f
  53. Bit depth                      : 16 bits
    ( {3 H$ v+ G% w( r+ r, o
  54. Compression mode               : Lossy
    7 V* J( I4 M5 T7 S# j8 }9 j
  55. Stream size                    : 162 MiB (5%)) X3 O# w3 t6 X7 v0 J# L' g
  56. Language                       : English2 u% k# a' m) q+ G% h
  57. Service kind                   : Complete Main: z! t4 [% ~4 s5 W
  58. Default                        : Yes+ z7 ?7 V3 C; C: k5 d/ U
  59. Forced                         : No$ e( ?/ H( q2 `1 J
  60. ' a# _2 }- p; ?( D0 r5 X
  61. Text #1
    : p3 U5 m7 W% O4 v3 k- b( c1 y3 `
  62. ID                             : 3
    " P- F, L. ^% M3 P! I" O
  63. Format                         : UTF-8
    6 e5 [" L7 G2 ]* a" A
  64. Codec ID                       : S_TEXT/UTF8. s8 Q" h( `4 Z  ^4 E3 R
  65. Codec ID/Info                  : UTF-8 Plain Text+ c# j) Z& v/ \. j, }
  66. Duration                       : 57 min 12 s, w8 c0 D5 L% ~: O
  67. Bit rate                       : 57 b/s+ p3 t0 a# i9 j' V5 w! Z: A7 v
  68. Count of elements              : 754
    6 a( ^9 G6 z  D# n& w" G: U
  69. Stream size                    : 23.9 KiB (0%)( P# p3 \2 s/ l
  70. Title                          : SDH( S) C& {/ J3 R) z* z# c
  71. Language                       : English# d1 Y+ r# D' F
  72. Default                        : No
      w1 t8 t: \8 r6 K
  73. Forced                         : No6 C) j5 j- S2 i3 M( p/ I7 H+ M8 S
  74. ! m; n6 k" G: e% d7 u8 r$ ]
  75. Text #2
    ! ]( p: K: A9 q0 R0 z" f/ r
  76. ID                             : 4
    % Q/ h' w, l9 d! B1 p9 o
  77. Format                         : UTF-86 g$ ~4 g- g) E4 j6 d' F- Z
  78. Codec ID                       : S_TEXT/UTF8
    7 q3 ~& E1 C9 C, t
  79. Codec ID/Info                  : UTF-8 Plain Text
    9 l5 _4 Q# B1 c; _8 _
  80. Duration                       : 56 min 43 s
    9 l1 M3 Z' @1 \6 {  H
  81. Bit rate                       : 90 b/s
    4 J, L  R  i8 `0 a- R: M7 b
  82. Count of elements              : 705
    ( |* G$ H/ d0 {
  83. Stream size                    : 37.4 KiB (0%)
    2 X4 o% e7 d. R* Z! U
  84. Language                       : Arabic
    4 I& A( T) h8 l
  85. Default                        : No8 e9 D  {( x7 f5 s1 \% u* ]
  86. Forced                         : No. g" m* O) U5 [% H6 j2 b

  87.   j- n5 q6 H- e7 Y  O. t
  88. Text #3
    7 Y2 X4 y! M. j5 |. G+ b7 a. z8 n
  89. ID                             : 5& r3 D  ~. p- M2 B* q4 e3 z/ I
  90. Format                         : UTF-8
    " q/ w6 ]' ]7 c
  91. Codec ID                       : S_TEXT/UTF8
    7 }/ y  A6 R9 [. A2 F
  92. Codec ID/Info                  : UTF-8 Plain Text
    ) i- M* ^5 b! |' u1 e% d
  93. Duration                       : 56 min 43 s2 r! o  V/ J9 F& B; G
  94. Bit rate                       : 52 b/s
    " f, |' P- w) P+ f$ B2 j
  95. Count of elements              : 648
    7 h9 q( f: w7 @
  96. Stream size                    : 21.7 KiB (0%)
    6 L$ Y$ W- O$ [
  97. Language                       : Danish
    & j/ n% m# A; L0 v- }* ?" \
  98. Default                        : No6 w' B! e% b2 k# L$ e
  99. Forced                         : No
    ; h8 ^. F4 D, [$ M

  100. 1 l; [5 Y4 ^/ }0 T
  101. Text #4
    7 n7 A* [; Z( W0 C* z$ w. o
  102. ID                             : 6' d& a: C' q, n3 I" w
  103. Format                         : UTF-8- J8 E" l# q& Y
  104. Codec ID                       : S_TEXT/UTF8
    5 A$ }# F9 D4 t  H* P
  105. Codec ID/Info                  : UTF-8 Plain Text
      a2 o4 i% b+ A
  106. Duration                       : 56 min 43 s
    ; j: {$ h9 @  }: K% L5 `0 t
  107. Bit rate                       : 50 b/s0 A1 p  U& d1 j8 ^! Z. d
  108. Count of elements              : 675
    - e( a$ N. e1 E* ]3 v* O
  109. Stream size                    : 20.9 KiB (0%)3 i' g. T2 I, n9 j
  110. Language                       : Spanish
    , A* t& l3 I; y6 M  h
  111. Default                        : No
    : e: }6 }/ s! M# z* L
  112. Forced                         : No9 L# K; Y' ]2 N
  113. 9 C6 C0 ]4 I5 \: u3 c$ F, r
  114. Text #5
    " a. j2 n( e: p6 ~9 q( r
  115. ID                             : 7- G1 X  x! I7 g/ _3 A
  116. Format                         : UTF-8  }" h& k; F2 |7 E3 I+ d4 i2 s
  117. Codec ID                       : S_TEXT/UTF8
    ! Z& Q( H  n8 E( J- [- k
  118. Codec ID/Info                  : UTF-8 Plain Text
    / E3 R3 v6 A3 S4 ]3 I
  119. Duration                       : 57 min 17 s
    % Z: t( e9 M& v7 |% e7 @
  120. Bit rate                       : 50 b/s
    , t- x7 d: T7 Y* J' t6 I
  121. Count of elements              : 6791 ^5 b1 }  {$ h
  122. Stream size                    : 21.2 KiB (0%)
    0 @, w- u, e# {
  123. Language                       : Spanish5 S% V& O/ o$ k) ~
  124. Default                        : No
    ) E7 `. l- L' J3 V! u# S! d$ f; ?4 n
  125. Forced                         : No
    2 M0 ^- \: s1 A
  126. 9 Z1 C; W" K7 p( t4 a% f4 i
  127. Text #6
    + \' I6 e7 L! l6 A& s# e
  128. ID                             : 8
    + q! c- `; C  W/ N) [  c
  129. Format                         : UTF-8
    ( k  _- i% w1 |! I: D5 v
  130. Codec ID                       : S_TEXT/UTF81 G+ k" i/ q' W
  131. Codec ID/Info                  : UTF-8 Plain Text
    3 i) O! }7 S- Y
  132. Duration                       : 56 min 23 s
    0 P4 o9 B$ I, G7 \
  133. Bit rate                       : 54 b/s
    ) O  Q& t0 N# T7 N5 X
  134. Count of elements              : 573/ }' Y- C* i  O
  135. Stream size                    : 22.3 KiB (0%)
    0 Y+ k5 X- e0 W
  136. Language                       : Finnish! ~9 ]3 e1 z, y5 r
  137. Default                        : No5 q: ?1 e$ }& ^/ H
  138. Forced                         : No
    ; T3 w- f, R7 U

  139. " |# k5 Q# `4 L! I) R
  140. Text #7+ g2 v: T8 W# m7 g/ `: P7 a. ~
  141. ID                             : 9& s' g8 J% p( L( c
  142. Format                         : UTF-8
    & q% p& L* F6 o% M% i4 e9 l7 t& h
  143. Codec ID                       : S_TEXT/UTF8- N# u: y* N7 ?# p1 u
  144. Codec ID/Info                  : UTF-8 Plain Text
    : v8 g- T+ M6 f+ C0 y7 o
  145. Duration                       : 56 min 43 s
    % @5 y, f4 D: L9 C
  146. Bit rate                       : 57 b/s$ s' t; C" e( g/ L& ]: _/ A
  147. Count of elements              : 682- f+ Y/ l; A; P, w' H$ {5 ~+ h
  148. Stream size                    : 24.0 KiB (0%)
    1 Q8 |: N8 P" v. F6 B9 \' k
  149. Language                       : French' P. C" Z) a9 r* ]+ K  Z  \2 K
  150. Default                        : No; K. [7 Y1 v! U
  151. Forced                         : No
    $ w+ {* m! m! W3 Y

  152. ' X, y/ r- a7 z+ H0 u( H
  153. Text #8$ J$ }6 H) ?0 }/ a0 t
  154. ID                             : 10; t5 S: d) z- e  P( ?" L
  155. Format                         : UTF-8
    " r9 T: k3 ~9 g4 a8 C
  156. Codec ID                       : S_TEXT/UTF8# w+ T  I  w+ Y! r1 v( Q7 e
  157. Codec ID/Info                  : UTF-8 Plain Text
    0 }! f4 A. U$ J' a- Q* D
  158. Duration                       : 56 min 43 s
    7 G2 k; W4 O3 H8 g$ \  H! K
  159. Bit rate                       : 56 b/s
    ( t# |$ M; j7 `2 h' ~7 C
  160. Count of elements              : 678
    % p, V/ V- W3 x7 N
  161. Stream size                    : 23.4 KiB (0%)) ^2 X2 M6 ?. b$ u: w' d* w
  162. Language                       : Italian
    / \! X. h$ B. v8 w
  163. Default                        : No
    3 S! k( L' z( P# h* P
  164. Forced                         : No- Z" i3 L3 x3 R5 Q

  165. 1 M) t! o1 s( X$ G& D, \
  166. Text #9- w. [9 S' C$ m! A
  167. ID                             : 11
    . T0 i+ b# f9 V" N) Q3 d
  168. Format                         : UTF-8& t3 R* G: B7 B' U
  169. Codec ID                       : S_TEXT/UTF8
    " r2 U" B# _( M
  170. Codec ID/Info                  : UTF-8 Plain Text
    1 S/ d9 D+ z4 @, t% @8 a2 u
  171. Duration                       : 56 min 43 s. T7 `, c2 ^" u0 W9 t4 `1 v
  172. Bit rate                       : 46 b/s
    " [# k4 ?3 F, q3 ?- c
  173. Count of elements              : 704( t9 w( p. D% r) G4 D
  174. Stream size                    : 19.3 KiB (0%), U3 A+ `3 z  i  i
  175. Language                       : Japanese% P( ^. o) r, G) f( G/ {) ?
  176. Default                        : No
    4 l/ x( u0 i; F, i2 k
  177. Forced                         : No
    5 W  P% a) g/ h5 ~7 w" i" ^
  178. . k& r& {! M: d4 M# D0 m
  179. Text #10) y) M' p1 O) l$ G5 Z5 t0 ]( e- [7 p
  180. ID                             : 12
    1 r8 Y  j* r# h: P
  181. Format                         : UTF-8
    % |, j1 s. ^; a. w+ O
  182. Codec ID                       : S_TEXT/UTF8
    . l* I: T7 y2 E" _' D
  183. Codec ID/Info                  : UTF-8 Plain Text' `6 c! n) I) \8 V% e
  184. Duration                       : 56 min 43 s
    - C0 u: v0 F& S- T. D; r
  185. Bit rate                       : 59 b/s& g. n% ]# ]' f+ d" N
  186. Count of elements              : 6990 D& l9 t9 U9 ~
  187. Stream size                    : 24.5 KiB (0%)
    # t  C" E8 [7 K2 x5 G
  188. Language                       : Korean
    - p1 U' a' \( R! p6 S+ n& E6 ?( `
  189. Default                        : No# M+ `8 I# ^5 D+ E
  190. Forced                         : No
    2 y  ~  h3 X2 }) R

  191. # r/ D1 I6 x- M9 a
  192. Text #114 P7 V  E! W, D6 j6 p
  193. ID                             : 13
    / S" _5 L. y  B, h% q
  194. Format                         : UTF-8
    * `9 z! [; L" f* H
  195. Codec ID                       : S_TEXT/UTF86 p( W3 p4 |* D) S9 L1 e
  196. Codec ID/Info                  : UTF-8 Plain Text
    - Z" _" D( a% y3 Q
  197. Duration                       : 56 min 43 s' N& E5 A; N+ c) D4 S
  198. Bit rate                       : 50 b/s& ^. A) b4 A9 H7 z* D! i" X! b# _
  199. Count of elements              : 656! m; k% C  ^3 ]; K6 O: J) c
  200. Stream size                    : 21.0 KiB (0%)
    # E' Z. F: M) a8 I8 B. J& p
  201. Language                       : Norwegian Bokmal
    - H' K9 g. f# _) Y+ L, X0 T6 D( O
  202. Default                        : No7 T$ t  y* G& L! k' |  E
  203. Forced                         : No
    2 @. Y2 Y: _$ C1 {4 s8 H5 P
  204. ' T+ z2 Q. p. I8 n" }$ H+ ^. ?
  205. Text #12
    6 l/ B8 ?! Y3 b, P
  206. ID                             : 14
    5 b' {( V/ ~. ?3 F; a) [( {
  207. Format                         : UTF-8
    , p; w$ D7 S( n+ v+ `
  208. Codec ID                       : S_TEXT/UTF8
    1 c6 o$ ~8 Z- p3 H0 v
  209. Codec ID/Info                  : UTF-8 Plain Text+ ]; N) X! E+ l' j8 Q8 b0 k5 }$ }5 c) ?
  210. Duration                       : 56 min 49 s& S8 E. M' o1 w: p; K
  211. Bit rate                       : 47 b/s
    # m1 e1 J: u# Y
  212. Count of elements              : 6070 ]% [' {0 A7 o7 E
  213. Stream size                    : 19.7 KiB (0%)% |: R7 }1 i# r
  214. Language                       : Dutch& s! D* t: A  x+ D
  215. Default                        : No
    4 ?' h( E  B, A6 G% [
  216. Forced                         : No% u% Y. Q1 }& |8 I; p: f8 W/ s

  217. * n" V6 b2 l, Z3 c- t) t0 r3 q' K* ~
  218. Text #13) P* P4 k* y3 N) o1 l0 [
  219. ID                             : 152 l1 \. V0 X4 {0 |7 ~- @' z
  220. Format                         : UTF-8% h; N9 F3 B% Y/ h. T$ E
  221. Codec ID                       : S_TEXT/UTF8. {+ E. [' |( L1 X; A+ [
  222. Codec ID/Info                  : UTF-8 Plain Text6 @. ^  {. v2 {- }% _9 {5 g- P
  223. Duration                       : 56 min 43 s
    % h4 V6 H/ t; L# l4 ^+ P0 L  P
  224. Bit rate                       : 50 b/s
    6 h7 j: |7 z" A# h) y4 ]
  225. Count of elements              : 685
    3 J. R2 H8 b& e! `6 I
  226. Stream size                    : 21.0 KiB (0%)
    ' _9 R, D4 m$ b) {& c- @
  227. Language                       : Polish
    * \+ ^" @" Q. ?$ H4 d  p
  228. Default                        : No
    5 D' \& s+ j, T& v
  229. Forced                         : No; S# U  W  E2 W# J* L- X( _+ Q
  230. ( y5 D; C& d+ z# P. Z" Q
  231. Text #14
    & Q; V  S. ?8 O; A0 n8 y4 w
  232. ID                             : 165 w; T9 Y' \" y  h4 j) S2 I9 Y
  233. Format                         : UTF-8
    ; ^$ o; o) r. q' J) [9 X8 C
  234. Codec ID                       : S_TEXT/UTF8
    8 l  U" L2 d8 `/ ]9 k7 _. m( k
  235. Codec ID/Info                  : UTF-8 Plain Text# n. k1 O# d' R
  236. Duration                       : 56 min 43 s. s6 @8 L" J3 Y& R9 Z
  237. Bit rate                       : 51 b/s
    5 J- H; e9 S6 Z- r* l: ]# s4 ]/ c- A5 i
  238. Count of elements              : 691
    7 H5 y: Y% K2 z' X" `  b1 h8 \- C
  239. Stream size                    : 21.5 KiB (0%)
    & Y; Y# F6 {* v8 `: ^1 Q2 I5 k. X% X' b
  240. Language                       : Portuguese4 Q0 `% d5 u5 ^) \
  241. Default                        : No
    8 `0 L' S/ R5 l! f4 p& W! `
  242. Forced                         : No7 f& a6 I9 ^. _/ v+ C
  243. ; z* ]7 c" h! t6 t" t
  244. Text #15
    / C  ?; J) q2 I$ Z) C" }0 ^2 r
  245. ID                             : 17
    - g# L$ B0 e" \2 k2 D- N$ D! Z
  246. Format                         : UTF-8/ H/ }8 P1 @9 y4 ]8 d% Q
  247. Codec ID                       : S_TEXT/UTF8
    5 b9 @9 m' X, _) Z) x" r6 A1 }
  248. Codec ID/Info                  : UTF-8 Plain Text. @2 }! S- z7 b( H4 M: e$ m
  249. Duration                       : 56 min 28 s6 `' X5 v8 _- ]) P5 J$ o) {' s
  250. Bit rate                       : 52 b/s8 h% k7 y& _7 H
  251. Count of elements              : 688# U5 j* D0 `( L4 v1 A0 S. @
  252. Stream size                    : 21.7 KiB (0%)# C+ S1 s. v! {) S/ y
  253. Title                          : Brazilian
    1 z' T8 W) \5 F3 |, E1 W
  254. Language                       : Portuguese. ]3 d# ^( _( U
  255. Default                        : No
    8 E4 R( @7 X% K7 F4 i
  256. Forced                         : No6 b' C$ x9 T" r$ j6 L- E" M

  257. & z7 b6 K; J  I; B6 ^
  258. Text #16# S' n; a& s4 f: ^6 z7 {
  259. ID                             : 18' U$ Y. \' ~! K* K
  260. Format                         : UTF-8, `& C9 P! X6 x1 Y
  261. Codec ID                       : S_TEXT/UTF8
    0 X/ M) `2 k. Q! L4 e
  262. Codec ID/Info                  : UTF-8 Plain Text
    , L) ]4 ?' U4 `5 s& j  A/ ~2 o
  263. Duration                       : 56 min 43 s
    ) k. N1 n2 s8 l
  264. Bit rate                       : 51 b/s
    7 t+ z6 M, z' @# o/ r
  265. Count of elements              : 686/ L% I# u- k; E8 b
  266. Stream size                    : 21.6 KiB (0%)
    7 q" X4 {: T4 @  S) _* e$ i
  267. Language                       : Swedish
    : n) b; Z2 y% `9 g' \
  268. Default                        : No; l% c# ~+ k" z/ s  \& f
  269. Forced                         : No
    $ E  n; @6 W) u$ x+ `* z' j+ y/ f
  270. * d' e+ ^( W5 c1 b) X7 I) t& i
  271. Text #17( B  U- g8 D. m3 E& y/ ]
  272. ID                             : 19
    1 S5 `3 x  |/ d+ W
  273. Format                         : UTF-8
    & a4 I% _3 L5 G, s& C9 {
  274. Codec ID                       : S_TEXT/UTF8. w: ?( [7 Z' Z+ {7 j$ [8 ^: Y
  275. Codec ID/Info                  : UTF-8 Plain Text
      K) ]! M3 [( m; u1 e# d5 |
  276. Duration                       : 56 min 43 s( _0 D8 z% v6 u. X- w
  277. Bit rate                       : 55 b/s
    6 |6 W: ~8 K2 C+ }, Y9 Q
  278. Count of elements              : 686
    ' }8 W5 K% Y8 H; w' s! L. i
  279. Stream size                    : 22.9 KiB (0%)
    1 `" P) k' ^3 _- y+ W4 Y* t6 O- j: O( _" K
  280. Language                       : Turkish; Q$ c. Z7 E8 G0 F7 k2 ^/ s
  281. Default                        : No
    ) o+ b( V* y6 u, i. B
  282. Forced                         : No
    ( |2 }  D- h7 R, K$ P8 T
  283. ) g% e. `7 V% J: m
  284. Text #180 O% N9 h' t6 h1 V- M7 O8 Z: o
  285. ID                             : 20
    # }6 d; _' {# q
  286. Format                         : UTF-85 U- x! `% d% k  R$ ^  `
  287. Codec ID                       : S_TEXT/UTF8
      U5 B  A# A# N
  288. Codec ID/Info                  : UTF-8 Plain Text( [4 A" b' p/ }5 \
  289. Duration                       : 56 min 43 s+ W0 i' i5 c# I2 }  w
  290. Bit rate                       : 43 b/s
    4 P7 w0 }+ e" h4 j. i
  291. Count of elements              : 696
    3 ?3 F+ l& o8 ]3 M
  292. Stream size                    : 18.2 KiB (0%)/ S: L3 Z6 R# Y1 G" _  Q- ]! h0 f
  293. Title                          : Simplified
    * j$ Z! G, m& d& ?% R+ N5 _
  294. Language                       : Chinese
    2 H) W7 r; g3 i. Y9 _
  295. Default                        : No3 h, J. U8 A! H8 \
  296. Forced                         : No
    2 ?3 P: H6 `5 H8 t6 j& X" ?) K$ s4 t

  297. ; ?% h! I, S  L$ K
  298. Text #192 D# o+ r/ H* h
  299. ID                             : 21
    + v( D( A0 s" S
  300. Format                         : UTF-8
    % }8 D* L% x% S. R
  301. Codec ID                       : S_TEXT/UTF8, S" T# s. _5 V% {, H
  302. Codec ID/Info                  : UTF-8 Plain Text3 a! i; H2 k1 I# [6 _% l0 L- S
  303. Duration                       : 56 min 43 s
    " e& P0 A6 Y1 {) ]
  304. Bit rate                       : 47 b/s
    5 _  s- m+ c6 k$ A$ d' }3 Y) q
  305. Count of elements              : 697
    8 w- H. D4 }4 Z5 }
  306. Stream size                    : 19.8 KiB (0%)$ P9 q1 h/ l) J, Y0 Y5 ^
  307. Title                          : Traditional1 V6 j5 P: R0 o8 ?  @- H0 ?
  308. Language                       : Chinese
      f4 n  ?  h+ s6 E  E
  309. Default                        : No8 }5 i/ ~, E- l/ e' w$ t* ~
  310. Forced                         : No9 q- V0 F: g: {' ^) B% Y
  311. 3 _4 Y; |. k8 f! ]! l/ `
复制代码
8 v5 ~: z! x8 a$ E" `3 O2 Q- i
4 ~* q( @  I# r7 s) s1 f

. G! U- r4 T& ~0 f6 @
/ X9 e' r+ Q: i7 n; U$ S0 Y
郑重声明:
$ ?+ O, }$ r4 [9 h0 v本站提供的所有影视综艺作品均是在网上搜集,任何涉及商业盈利目的均不得使用,否则产生的一切后果将由您自己承担!本站将不对本站的任何内容负任何法律责任!该下载内容仅做宽带测试使用,请在下载后24小时内删除。请购买正版!

! }# F$ \$ ~8 N7 |/ b2 N' x) k# h- H; _- d/ `6 k
百度网盘
( I' p- v  u* [0 Q; u" d- [  z5 v+ W8 p
游客,如果您要查看本帖隐藏内容请回复  捐助论坛可免回复查看隐藏内容 详情请点击
最近访问 头像模式 列表模式
发表于 2018-6-29 15:10:23 | 显示全部楼层
假期可以陪小孩一起观赏这个儿童片还能联系英语,谢谢
您需要登录后才可以回帖 登录 | 立即注册

本版积分规则

封号公示|手机版|Archiver|有问题发邮件到admin#(换成@)hd1tj.org|微博|免责申明|HD一条街 |网站地图

GMT+8, 2018-7-23 10:20

快速回复 返回顶部 返回列表